osu file format v14

[General]
AudioFilename: audio.mp3
AudioLeadIn: 0
PreviewTime: 58527
Countdown: 0
SampleSet: Soft
StackLeniency: 0.7
Mode: 0
LetterboxInBreaks: 0
WidescreenStoryboard: 1

[Editor]
Bookmarks: 5727,10827,30027,39627,58827,75627,85227,95127,104427,118827,132027,148827,158427,168027,177627,182427,182727,183027,183327,183402,183477,183552,183627,183702,183777,183852,183927,184002,184077,184152,184227,184302,184377,184452,184527,184602,184677,184752,184827,184902,184977,185052,185127,185427,186627,197427,199227,218427,228027,237627
DistanceSpacing: 1.1
BeatDivisor: 4
GridSize: 4
TimelineZoom: 2.699999

[Metadata]
Title:Weenywalker
TitleUnicode:ウィーニーウォーカー
Artist:youman
ArtistUnicode:youまん
Creator:[-Evil-]
Version:Hard
Source:
Tags:pepekcz dakiwii ayyri eiri- annabel ducky- namriee ボーカロイド vocaloid グミ gumi メグッポイド megpoid ブイフラワ japanese jrock j-rock rock
BeatmapID:4553169
BeatmapSetID:2116719

[Difficulty]
HPDrainRate:4
CircleSize:3.2
OverallDifficulty:6
ApproachRate:8
SliderMultiplier:1.4
SliderTickRate:1

[Events]
//Background and Video events
0,0,"el que lee se la come.jpg",0,0
//Break Periods
2,30227,38877
2,104627,113277
//Storyboard Layer 0 (Background)
//Storyboard Layer 1 (Fail)
//Storyboard Layer 2 (Pass)
//Storyboard Layer 3 (Foreground)
//Storyboard Layer 4 (Overlay)
//Storyboard Sound Samples

[TimingPoints]
1227,300,4,2,1,60,1,0
5727,-125,4,2,1,60,0,0
6027,-100,4,2,1,60,0,0
9627,-100,4,2,1,60,0,0
10827,-86.9565217391304,4,1,1,70,0,0
18027,-86.9565217391304,4,1,1,70,0,0
18327,-86.9565217391304,4,1,1,70,0,0
18627,-86.9565217391304,4,1,1,70,0,0
18927,-86.9565217391304,4,1,1,70,0,0
20427,-86.9565217391304,4,1,1,70,0,0
27627,-86.9565217391304,4,1,1,70,0,0
27927,-86.9565217391304,4,1,1,70,0,0
28227,-86.9565217391304,4,1,1,70,0,0
28527,-86.9565217391304,4,1,1,70,0,0
29427,-86.9565217391304,4,1,1,70,0,0
29802,-86.9565217391304,4,2,1,60,0,0
30027,-86.9565217391304,4,2,1,20,0,0
39027,-86.9565217391304,4,1,1,70,0,0
39627,-100,4,1,1,70,0,0
45327,-100,4,1,1,70,0,0
49227,-117.647058823529,4,2,1,70,0,0
56427,-86.9565217391304,4,2,1,70,0,0
57627,-86.9565217391304,4,1,1,70,0,0
57777,-86.9565217391304,4,1,1,70,0,0
57927,-86.9565217391304,4,1,1,70,0,0
58077,-86.9565217391304,4,1,1,70,0,0
58227,-86.9565217391304,4,1,1,70,0,0
58527,-133.333333333333,4,1,1,70,0,0
58827,-76.9230769230769,4,3,1,80,0,1
59427,-76.9230769230769,4,3,1,80,0,1
60027,-76.9230769230769,4,3,1,80,0,1
63627,-76.9230769230769,4,3,1,80,0,1
67827,-76.9230769230769,4,3,1,80,0,1
68427,-76.9230769230769,4,3,1,80,0,1
69027,-76.9230769230769,4,3,1,80,0,1
69627,-76.9230769230769,4,3,1,80,0,1
72327,-76.9230769230769,4,3,1,80,0,1
74727,-76.9230769230769,4,3,1,80,0,1
75027,-76.9230769230769,4,3,1,80,0,1
75327,-76.9230769230769,4,3,1,80,0,1
75627,-100,4,2,1,60,0,0
87627,-100,4,2,1,60,0,0
89727,-100,4,2,1,60,0,0
90027,-100,4,2,1,60,0,0
95127,-100,4,1,1,70,0,0
100527,-100,4,1,1,70,0,0
104427,-100,4,2,1,60,0,0
114027,-111.111111111111,4,2,2,60,0,0
117627,-76.9230769230769,4,2,1,60,0,0
118227,-83.3333333333333,4,2,1,60,0,0
118827,300,7,3,2,80,1,1
118827,-83.3333333333333,7,3,2,80,0,1
123027,-83.3333333333333,7,3,2,80,0,1
127227,300,4,1,1,70,1,0
127227,-100,4,1,1,70,0,0
129327,-100,4,1,1,70,0,0
129627,-100,4,1,1,70,0,0
129777,-100,4,3,2,80,0,0
130827,-100,4,3,1,80,0,0
131727,-133.333333333333,4,2,1,60,0,0
132027,-76.9230769230769,4,3,1,80,0,1
132627,-76.9230769230769,4,3,1,80,0,1
133227,-76.9230769230769,4,3,1,80,0,1
136827,-76.9230769230769,4,3,1,80,0,1
141027,-76.9230769230769,4,3,1,80,0,1
141627,-76.9230769230769,4,3,1,80,0,1
142227,-76.9230769230769,4,3,1,80,0,1
142827,-76.9230769230769,4,3,1,80,0,1
145527,-76.9230769230769,4,3,1,80,0,1
147927,-76.9230769230769,4,2,1,80,0,1
148227,-76.9230769230769,4,2,1,80,0,1
148527,-76.9230769230769,4,2,1,80,0,1
148827,-100,4,2,1,60,0,0
153027,-100,4,2,1,60,0,0
153627,-100,4,2,1,60,0,0
155427,-117.647058823529,4,1,1,70,0,0
155577,-100,4,1,1,70,0,0
155727,-117.647058823529,4,1,1,70,0,0
155877,-100,4,1,1,70,0,0
156027,-100,4,2,1,60,0,0
156327,-90.9090909090909,4,2,1,60,0,0
158127,-83.3333333333333,4,2,1,60,0,0
158427,-83.3333333333333,4,3,2,80,0,0
166227,-71.4285714285714,4,3,2,80,0,0
166827,-83.3333333333333,4,3,2,80,0,0
168027,-100,4,1,1,70,0,0
177627,-100,4,2,2,60,0,0
182427,-100,4,2,1,60,0,0
182727,-100,4,2,1,60,0,0
183027,-100,4,2,1,60,0,0
183327,-100,4,2,3,60,0,0
184827,-100,4,1,1,60,0,0
185427,-100,4,2,5,60,0,0
186027,-100,4,2,2,60,0,0
186627,-100,4,2,1,60,0,0
188427,-100,4,2,1,60,0,0
189627,-100,4,2,1,60,0,0
190227,-100,4,2,1,60,0,0
190827,-100,4,2,1,60,0,0
193227,-100,4,2,3,60,0,0
194427,-100,4,2,1,60,0,0
195627,-90.9090909090909,4,2,1,60,0,0
197427,-100,4,2,1,60,0,0
198627,-100,4,2,1,60,0,0
199227,-76.9230769230769,4,3,1,80,0,1
199827,-76.9230769230769,4,3,1,80,0,1
200427,-76.9230769230769,4,3,1,80,0,1
204027,-76.9230769230769,4,3,1,80,0,1
208227,-76.9230769230769,4,3,1,80,0,1
208827,-76.9230769230769,4,3,1,80,0,1
209427,-76.9230769230769,4,3,1,80,0,1
210027,-76.9230769230769,4,3,1,80,0,1
212727,-76.9230769230769,4,3,1,80,0,1
213327,-66.6666666666667,4,3,1,80,0,1
213627,-76.9230769230769,4,3,1,80,0,1
215127,-76.9230769230769,4,3,1,80,0,1
216027,-76.9230769230769,4,3,1,80,0,1
217227,-100,4,3,1,80,0,0
217527,-100,4,2,1,60,0,0
218427,-86.9565217391304,4,1,1,70,0,0
225627,-86.9565217391304,4,1,1,70,0,0
225927,-86.9565217391304,4,1,1,70,0,0
226227,-86.9565217391304,4,1,1,70,0,0
226527,-86.9565217391304,4,1,1,70,0,0
228027,-76.9230769230769,4,1,1,70,0,0
232527,-76.9230769230769,4,1,1,70,0,0
232827,-76.9230769230769,4,1,1,70,0,0
237627,-76.9230769230769,4,2,1,60,0,0
245727,-76.9230769230769,4,2,1,60,0,0

[Colours]
Combo1 : 255,74,74
Combo2 : 207,207,207
Combo3 : 158,158,158
Combo4 : 255,128,128

[HitObjects]
80,348,5577,5,0,0:0:0:0:
75,336,5652,1,0,0:0:0:0:
71,325,5727,2,0,L|162:356,1,84,10|0,0:0|0:0,0:0:0:0:
169,344,6027,5,10,0:0:0:0:
300,238,6327,2,0,L|284:158,1,70,4|2,0:0|0:0,0:0:0:0:
355,135,6627,2,0,L|339:55,1,70,4|2,0:0|0:0,0:0:0:0:
286,12,6927,1,12,0:0:0:0:
175,138,7227,37,10,0:0:0:0:
29,53,7527,2,0,L|13:133,1,70,4|2,0:0|0:0,0:0:0:0:
78,164,7827,2,0,L|62:244,1,70,4|2,0:0|0:0,0:0:0:0:
11,288,8127,1,12,0:0:0:0:
156,372,8427,5,10,0:0:0:0:
307,299,8727,2,0,P|296:243|269:231,1,70,4|2,0:0|0:0,0:0:0:0:
215,260,9027,2,0,P|226:316|253:328,1,70,4|2,0:0|0:0,0:0:0:0:
288,374,9327,1,12,0:0:0:0:
408,192,9627,37,12,0:0:0:0:
256,124,9927,1,12,0:0:0:0:
104,192,10227,1,12,0:0:0:0:
170,37,10527,6,0,L|154:126,1,70,4|8,0:0|0:0,0:0:0:0:
101,173,10827,2,0,L|128:326,1,120.750002303123,4|0,0:0|0:0,0:0:0:0:
88,321,11127,2,0,L|187:347,1,80.5000015354156,8|4,0:0|0:0,0:0:0:0:
208,263,11427,2,0,L|359:223,1,120.750002303123,4|0,0:0|0:0,0:0:0:0:
351,268,11727,1,8,0:0:0:0:
414,206,11877,1,4,0:0:0:0:
458,282,12027,38,0,L|448:320,4,40.2500007677078,4|0|4|0|8,0:0|0:0|0:0|0:0|0:0,0:0:0:0:
503,207,12477,1,4,0:0:0:0:
503,207,12627,1,4,0:0:0:0:
405,58,12927,2,0,P|379:83|315:80,1,80.5000015354156,8|4,0:0|0:0,0:0:0:0:
243,42,13227,6,0,L|270:187,1,120.750002303124,4|0,0:0|0:0,0:0:0:0:
307,174,13527,2,0,L|289:270,1,80.5000015354157,8|4,0:0|0:0,0:0:0:0:
280,340,13827,2,0,L|136:305,1,120.750002303124,4|0,0:0|0:0,0:0:0:0:
128,340,14127,1,8,0:0:0:0:
83,265,14277,1,4,0:0:0:0:
19,326,14427,38,0,L|33:372,4,40.2500007677078,4|0|4|0|8,0:0|0:0|0:0|0:0|0:0,0:0:0:0:
83,265,14877,2,0,L|108:181,1,80.5000015354157,4|4,0:0|0:0,0:0:0:0:
64,58,15177,1,4,0:0:0:0:
30,139,15327,2,0,L|4:222,1,80.5000015354157,8|4,0:0|0:0,0:0:0:0:
83,265,15627,6,0,P|148:222|214:253,1,120.750002303124,4|0,0:0|0:0,0:0:0:0:
211,192,15927,2,0,P|254:213|258:258,1,80.5000015354157,8|4,0:0|0:0,0:0:0:0:
245,329,16227,2,0,L|397:293,1,120.750002303124,4|0,0:0|0:0,0:0:0:0:
386,264,16527,1,8,0:0:0:0:
462,308,16677,1,4,0:0:0:0:
487,223,16827,38,0,L|531:237,4,40.2500007677078,4|0|4|0|8,0:0|0:0|0:0|0:0|0:0,0:0:0:0:
422,158,17277,1,4,0:0:0:0:
422,158,17427,1,4,0:0:0:0:
246,77,17727,2,0,P|296:38|290:-2,1,80.5000015354157,8|4,0:0|0:0,0:0:0:0:
233,156,18027,6,0,L|57:102,1,161.000003070831,4|8,0:0|0:0,0:0:0:0:
12,169,18477,1,4,0:0:0:0:
82,230,18627,38,0,L|242:283,1,161.000003070831,4|8,0:0|0:0,0:0:0:0:
307,215,19077,1,4,0:0:0:0:
357,297,19227,6,0,L|334:381,1,80.5000015354157,4|4,0:0|0:0,0:0:0:0:
423,357,19527,1,8,0:0:0:0:
508,335,19677,2,0,L|485:274,2,40.2500007677078,4|0|4,0:0|0:0|0:0,0:0:0:0:
424,245,19977,1,4,0:0:0:0:
428,228,20052,1,0,0:0:0:0:
432,212,20127,2,0,L|447:147,3,40.2500007677078,8|0|0|0,0:0|0:0|0:0|0:0,0:0:0:0:
481,153,20427,38,0,P|407:121|395:79,1,120.750002303124,4|0,0:0|0:0,0:0:0:0:
402,44,20727,2,0,L|287:67,1,80.5000015354157,8|4,0:0|0:0,0:0:0:0:
243,19,21027,2,0,P|186:76|143:72,1,120.750002303124,4|0,0:0|0:0,0:0:0:0:
109,60,21327,1,8,0:0:0:0:
48,124,21477,1,4,0:0:0:0:
136,189,21627,6,0,L|121:142,4,40.2500007677078,4|0|4|0|8,0:0|0:0|0:0|0:0|0:0,0:0:0:0:
96,271,22077,1,4,0:0:0:0:
96,271,22227,1,4,0:0:0:0:
257,197,22527,2,0,P|298:237|337:235,1,80.5000015354157,8|4,0:0|0:0,0:0:0:0:
383,311,22827,38,0,P|451:291|473:248,1,120.750002303124,4|0,0:0|0:0,0:0:0:0:
507,222,23127,2,0,L|482:109,1,80.5000015354157,8|4,0:0|0:0,0:0:0:0:
503,56,23427,2,0,L|370:99,1,120.750002303124,4|0,0:0|0:0,0:0:0:0:
371,134,23727,1,8,0:0:0:0:
294,89,23877,1,4,0:0:0:0:
325,6,24027,6,0,L|372:23,4,40.2500007677078,4|0|0|0|8,0:0|0:0|0:0|0:0|0:0,0:0:0:0:
276,80,24477,2,0,L|192:110,1,80.5000015354157,4|4,0:0|0:0,0:0:0:0:
83,184,24777,1,4,0:0:0:0:
22,119,24927,2,0,L|105:149,1,80.5000015354157,8|4,0:0|0:0,0:0:0:0:
170,196,25227,38,0,P|187:272|130:307,1,120.750002303124,4|0,0:0|0:0,0:0:0:0:
120,282,25527,2,0,L|36:251,1,80.5000015354157,8|4,0:0|0:0,0:0:0:0:
4,333,25827,2,0,L|145:384,1,120.750002303124,4|0,0:0|0:0,0:0:0:0:
161,380,26127,1,8,0:0:0:0:
243,347,26277,1,4,0:0:0:0:
324,312,26427,6,0,L|301:239,4,40.2500007677078,4|0|4|0|8,0:0|0:0|0:0|0:0|0:0,0:0:0:0:
416,318,26877,1,4,0:0:0:0:
416,318,27027,1,4,0:0:0:0:
342,148,27327,2,0,P|333:196|310:238,1,80.5000015354157,8|4,0:0|0:0,0:0:0:0:
233,271,27627,38,0,L|80:215,1,161.000003070831,4|8,0:0|0:0,0:0:0:0:
20,151,28077,1,0,0:0:0:0:
101,109,28227,6,0,L|263:164,1,161.000003070831,4|8,0:0|0:0,0:0:0:0:
413,51,28827,1,4,0:0:0:0:
409,39,28977,1,4,0:0:0:0:
319,22,29127,1,8,0:0:0:0:
309,32,29277,1,4,0:0:0:0:
346,109,29427,38,0,L|335:163,2,40.2500007677078,4|0|4,0:0|0:0|0:0,0:0:0:0:
408,206,29727,2,0,L|231:163,1,161.000003070831,8|14,0:0|0:0,0:0:0:0:
397,9,39627,5,6,0:0:0:0:
492,129,39927,2,0,P|445:139|429:187,1,70,8|4,0:0|0:0,0:0:0:0:
397,230,40227,1,4,0:0:0:0:
397,230,40377,1,6,0:0:0:0:
323,189,40527,2,0,P|261:173|202:235,1,140,8|4,0:0|0:0,0:0:0:0:
91,342,41127,37,8,0:0:0:0:
91,342,41277,1,4,0:0:0:0:
26,288,41427,2,0,P|15:249|-3:215,1,70,0|6,0:0|0:0,0:0:0:0:
83,195,41727,2,0,P|91:228|105:260,1,70,8|4,0:0|0:0,0:0:0:0:
187,352,42027,6,0,P|261:301|325:326,1,140,4|8,0:0|0:0,0:0:0:0:
483,275,42627,2,0,P|393:266|360:206,1,140,4|8,0:0|0:0,0:0:0:0:
305,173,43077,1,4,0:0:0:0:
367,116,43227,38,0,L|442:146,1,70,4|0,0:0|0:0,0:0:0:0:
494,85,43527,1,8,0:0:0:0:
494,85,43677,1,4,0:0:0:0:
435,25,43827,5,4,0:0:0:0:
268,24,44127,1,0,0:0:0:0:
213,87,44277,2,0,L|225:126,2,35,0|0|4,0:0|0:0|0:0,0:0:0:0:
335,221,44727,37,8,0:0:0:0:
282,286,44877,1,4,0:0:0:0:
282,286,44952,1,0,0:0:0:0:
282,286,45027,2,0,P|252:256|199:261,1,70,0|6,0:0|0:0,0:0:0:0:
162,196,45327,2,0,P|97:213|62:289,1,140,8|4,0:0|0:0,0:0:0:0:
9,114,45927,6,0,L|29:31,1,70,12|0,0:0|0:0,0:0:0:0:
104,10,46227,1,0,0:0:0:0:
104,10,46377,1,6,0:0:0:0:
160,71,46527,2,0,L|140:154,1,70,8|0,0:0|0:0,0:0:0:0:
77,192,46827,38,0,P|130:215|134:241,1,70,4|0,0:0|0:0,0:0:0:0:
190,282,47127,2,0,P|236:247|260:257,1,70,8|0,0:0|0:0,0:0:0:0:
323,274,47427,2,0,P|339:317|340:362,1,70,2|4,0:2|0:0,0:0:0:0:
413,254,47727,2,0,P|416:288|432:322,1,70,8|8,0:0|0:0,0:0:0:0:
351,198,48027,5,4,0:0:0:0:
399,129,48177,2,0,L|447:142,2,35,8|8|8,0:0|0:0|0:0,0:0:0:0:
341,67,48477,1,4,0:0:0:0:
276,122,48627,38,0,L|204:101,1,70,4|0,0:0|0:0,0:0:0:0:
133,138,48927,2,0,L|61:117,1,70,8|4,0:0|0:0,0:0:0:0:
0,161,49227,6,0,L|38:30,2,119.000002269745,2|14|2,1:2|0:0|0:2,0:0:0:0:
83,306,50127,1,12,0:0:0:0:
41,240,50277,2,0,L|168:280,2,119.000002269745,2|2|2,0:0|0:0|0:0,0:0:0:0:
77,172,51027,1,6,0:0:0:0:
243,333,51477,37,0,0:0:0:0:
308,292,51627,2,0,P|286:248|293:221,1,59.5000011348725,6|2,1:2|0:0,0:0:0:0:
209,233,51927,2,0,P|187:277|162:288,1,59.5000011348725,10|2,0:0|0:0,0:0:0:0:
117,329,52227,2,0,P|182:347|244:374,1,119.000002269745,2|10,0:0|0:0,0:0:0:0:
312,380,52677,1,2,0:0:0:0:
383,339,52827,2,0,P|426:298|474:263,2,119.000002269745,6|10|2,1:2|0:0|0:0,0:0:0:0:
312,380,53577,2,0,L|302:333,2,29.7500005674362,12|8|8,0:0|0:0|0:0,0:0:0:0:
270,179,54027,5,2,1:2:0:0:
405,104,54327,2,0,L|390:172,1,59.5000011348725,12|0,0:0|0:0,0:0:0:0:
374,237,54627,1,2,0:0:0:0:
234,303,54927,2,0,L|219:235,1,59.5000011348725,14|2,0:0|0:0,0:0:0:0:
221,244,55227,1,0,1:2:0:0:
167,188,55377,2,0,P|82:204|68:238,1,119.000002269745,2|2,0:0|0:0,0:0:0:0:
8,272,55827,1,6,0:0:0:0:
92,75,56277,37,4,1:2:0:0:
92,75,56352,1,0,1:0:0:0:
92,75,56427,2,0,L|196:105,1,80.5000015354157,10|8,0:0|0:0,0:0:0:0:
238,29,56727,2,0,L|134:-1,1,80.5000015354157,14|12,0:0|0:0,0:0:0:0:
192,178,57027,2,0,L|296:208,1,80.5000015354157,14|12,0:0|0:0,0:0:0:0:
386,145,57327,2,0,L|282:115,1,80.5000015354157,14|12,0:0|0:0,0:0:0:0:
192,178,57627,5,14,0:0:0:0:
211,272,57777,1,8,0:0:0:0:
307,274,57927,37,14,0:0:0:0:
326,368,58077,1,8,0:0:0:0:
421,380,58227,5,14,0:0:0:0:
503,231,58527,38,0,B|522:199|522:199|502:155,1,78.7500030040742,10|0,0:0|0:0,0:0:0:0:
510,106,58827,22,0,L|298:150,1,181.999991668702,6|8,0:0|0:0,0:0:0:0:
266,66,59277,1,0,2:0:0:0:
207,148,59427,2,0,P|212:192|237:246,1,90.9999958343508,2|2,0:0|0:0,0:0:0:0:
133,260,59727,2,0,P|128:216|103:162,1,90.9999958343508,8|2,0:0|0:0,0:0:0:0:
10,96,60027,6,0,P|56:35|155:58,1,181.999991668702,2|10,0:0|0:0,0:0:0:0:
150,52,60477,1,0,2:0:0:0:
241,12,60627,2,0,L|401:56,1,136.499993751526,2|0,0:0|0:0,0:0:0:0:
415,22,60927,2,0,P|445:66|426:110,1,90.9999958343508,8|0,0:0|2:0,0:0:0:0:
342,136,61227,2,0,P|303:215|374:287,1,181.999991668702,2|8,0:0|0:0,0:0:0:0:
404,376,61677,1,0,2:0:0:0:
404,376,61827,38,0,P|454:337|494:354,1,90.9999958343508,2|2,0:0|0:0,0:0:0:0:
484,242,62127,2,0,P|423:222|414:180,1,90.9999958343508,10|2,0:0|0:0,0:0:0:0:
355,282,62427,1,2,0:0:0:0:
210,124,62727,1,8,0:0:0:0:
131,185,62877,1,0,2:0:0:0:
193,263,63027,2,0,L|297:224,1,90.9999958343508,2|8,0:0|2:0,0:0:0:0:
209,368,63327,2,0,L|105:329,1,90.9999958343508,8|0,0:0|2:0,0:0:0:0:
9,366,63627,6,0,L|55:173,1,181.999991668702,2|8,0:0|0:0,0:0:0:0:
151,165,64077,1,2,0:0:0:0:
151,165,64227,2,0,L|122:47,1,90.9999958343508,2|0,0:0|2:0,0:0:0:0:
64,0,64527,1,8,0:0:0:0:
49,199,64827,38,0,P|131:212|254:272,1,181.999991668702,2|8,0:0|0:0,0:0:0:0:
288,326,65277,1,2,0:0:0:0:
288,326,65427,2,0,P|349:297|401:305,1,90.9999958343508,2|0,0:0|2:0,0:0:0:0:
458,247,65727,1,8,0:0:0:0:
274,167,66027,6,0,B|301:86|301:86|309:86|309:86|337:-10,1,181.999991668702,2|8,0:0|0:0,0:0:0:0:
489,127,66627,2,0,L|385:148,1,90.9999958343508,2|0,0:0|2:0,0:0:0:0:
368,240,66927,2,0,L|278:258,1,90.9999958343508,8|0,0:0|2:0,0:0:0:0:
190,210,67227,2,0,P|120:280|41:269,1,181.999991668702,2|8,0:0|0:0,0:0:0:0:
44,270,67677,1,2,0:0:0:0:
3,179,67827,5,2,0:0:0:0:
147,317,68127,1,2,0:0:0:0:
270,170,68427,38,0,B|228:138|228:138|264:228|264:228|290:239|299:261,1,181.999991668702,6|8,0:0|0:0,0:0:0:0:
282,347,68877,1,4,2:0:0:0:
378,373,69027,2,0,L|486:345,1,90.9999958343508,2|6,0:0|0:2,0:0:0:0:
469,249,69327,2,0,L|361:277,1,90.9999958343508,10|6,0:0|0:2,0:0:0:0:
282,347,69627,38,0,P|203:363|146:282,1,181.999991668702,2|8,0:0|0:0,0:0:0:0:
64,348,70077,1,4,2:0:0:0:
4,267,70227,2,0,P|83:283|140:202,1,181.999991668702,2|8,0:0|0:0,0:0:0:0:
139,210,70677,1,4,2:0:0:0:
234,179,70827,2,0,L|190:-8,1,181.999991668702,2|8,0:0|0:0,0:0:0:0:
117,67,71277,1,4,2:0:0:0:
26,24,71427,6,0,P|14:87|35:110,1,90.9999958343508,2|6,0:0|0:2,0:0:0:0:
124,151,71727,2,0,P|136:88|115:65,1,90.9999958343508,10|6,0:0|0:2,0:0:0:0:
27,198,72027,1,2,0:0:0:0:
181,325,72327,38,0,P|236:291|275:299,1,90.9999958343508,8|4,0:0|2:0,0:0:0:0:
404,348,72627,2,0,L|384:237,1,90.9999958343508,2|4,0:0|2:0,0:0:0:0:
466,181,72927,2,0,P|402:171|377:140,1,90.9999958343508,8|4,0:0|2:0,0:0:0:0:
334,74,73227,5,8,0:0:0:0:
334,74,73377,1,6,0:2:0:0:
271,148,73527,2,0,L|291:34,1,90.9999958343508,8|6,0:0|0:2,0:0:0:0:
428,29,73827,37,8,0:0:0:0:
428,29,73977,1,6,0:2:0:0:
493,105,74127,2,0,L|473:-9,1,90.9999958343508,8|6,0:0|0:2,0:0:0:0:
402,128,74427,1,10,0:0:0:0:
218,26,74727,5,8,0:0:0:0:
218,26,74877,1,2,0:0:0:0:
161,108,75027,2,0,P|94:89|20:170,1,181.999991668702,2|8,0:0|0:0,0:0:0:0:
146,295,75627,5,6,1:0:0:0:
281,221,75927,6,0,L|266:141,1,70,8|4,0:0|0:0,0:0:0:0:
349,112,76227,2,0,L|364:192,1,70,4|4,2:0|0:0,0:0:0:0:
452,189,76527,2,0,L|437:109,1,70,8|4,0:0|2:0,0:0:0:0:
381,266,76827,37,6,0:0:0:0:
381,266,76977,1,4,2:0:0:0:
458,314,77127,2,0,P|406:338|404:368,1,70,8|4,0:0|0:0,0:0:0:0:
320,383,77427,1,4,2:0:0:0:
275,303,77577,1,4,0:0:0:0:
196,348,77727,2,0,P|175:320|141:316,1,70,8|4,0:0|2:0,0:0:0:0:
141,316,78027,5,6,0:0:0:0:
57,280,78177,2,0,L|78:206,2,70,4|8|4,2:0|0:0|0:0,0:0:0:0:
162,233,78627,1,4,2:0:0:0:
245,195,78777,2,0,L|224:121,2,70,4|8|4,0:0|0:0|2:0,0:0:0:0:
301,266,79227,38,0,P|330:229|370:229,1,70,6|4,0:0|2:0,0:0:0:0:
416,160,79527,2,0,P|445:197|485:197,1,70,8|4,0:0|0:0,0:0:0:0:
492,113,79827,1,4,2:0:0:0:
413,66,79977,2,0,L|431:-2,2,70,4|8|4,0:0|0:0|2:0,0:0:0:0:
338,115,80427,5,6,0:0:0:0:
338,115,80577,1,4,2:0:0:0:
268,55,80727,2,0,P|211:88|209:103,1,70,8|4,0:0|0:0,0:0:0:0:
140,142,81027,2,0,L|123:41,1,70,4|6,2:0|0:0,0:0:0:0:
38,59,81327,2,0,L|55:160,1,70,8|4,0:0|2:0,0:0:0:0:
6,208,81627,37,6,0:0:0:0:
80,260,81777,2,0,L|156:229,1,70,4|8,2:0|0:0,0:0:0:0:
229,200,82077,1,4,0:0:0:0:
267,288,82227,1,4,2:0:0:0:
267,288,82377,2,0,L|191:319,2,70,6|8|4,0:0|0:0|2:0,0:0:0:0:
335,347,82827,6,0,P|361:311|402:309,1,70,6|4,0:0|2:0,0:0:0:0:
456,250,83127,2,0,P|413:223|407:185,1,70,8|4,0:0|0:0,0:0:0:0:
317,192,83427,1,4,2:0:0:0:
317,192,83577,1,6,0:0:0:0:
357,110,83727,2,0,L|335:22,1,70,8|4,0:0|2:0,0:0:0:0:
255,7,84027,38,0,P|207:24|199:53,1,70,6|0,0:0|0:0,0:0:0:0:
123,87,84327,2,0,P|171:104|179:133,1,70,12|4,0:0|0:0,0:0:0:0:
230,192,84627,1,4,0:0:0:0:
230,192,84702,1,0,0:0:0:0:
230,192,84777,1,6,0:0:0:0:
175,264,84927,2,0,B|85:231|85:231|81:224|81:224|25:201,1,140,8|6,0:0|0:0,0:0:0:0:
369,365,86127,6,0,B|434:339|434:339|438:330|438:330|499:307,1,140,6|6,0:0|0:0,0:0:0:0:
310,32,87327,38,0,B|323:82|323:82|320:88|320:88|333:134,1,105,6|0,0:0|0:0,0:0:0:0:
367,161,87627,2,0,P|418:171|469:95,1,140,6|6,0:0|0:0,0:0:0:0:
378,266,88227,2,0,P|327:276|276:200,1,140,6|6,0:0|0:0,0:0:0:0:
126,109,88827,2,0,B|92:62|92:62|137:41|189:31|230:81|220:126,1,210,6|2,0:0|0:0,0:0:0:0:
294,133,89427,1,6,0:0:0:0:
217,291,89727,6,0,B|206:280|206:280|102:310,1,105,12|0,0:0|0:0,0:0:0:0:
78,324,90027,38,0,B|27:272|27:272|81:200,1,140,6|0,1:2|0:0,0:0:0:0:
134,156,90477,1,10,0:0:0:0:
10,22,90777,1,4,1:2:0:0:
99,6,90927,2,0,L|65:102,1,70,10|0,0:0|0:0,0:0:0:0:
134,156,91227,6,0,B|201:182|201:182|246:104,1,140,6|0,1:0|0:0,0:0:0:0:
164,67,91677,1,10,0:0:0:0:
301,185,91977,1,4,1:2:0:0:
365,120,92127,2,0,L|446:155,1,70,10|0,0:0|0:0,0:0:0:0:
486,218,92427,38,0,P|443:234|427:278,1,70,6|0,1:2|0:0,0:0:0:0:
358,325,92727,2,0,P|342:282|298:266,1,70,0|10,0:0|0:0,0:0:0:0:
237,238,93027,2,0,P|192:250|173:293,1,70,4|4,1:2|1:2,0:0:0:0:
133,189,93327,2,0,P|120:144|77:125,1,70,10|0,0:0|0:0,0:0:0:0:
12,149,93627,2,0,P|-1:185|79:249,1,140,6|8,1:2|0:0,0:0:0:0:
152,282,94077,5,8,0:0:0:0:
163,270,94152,1,8,0:0:0:0:
179,268,94227,1,12,0:0:0:0:
274,246,94377,2,0,L|254:337,1,70,12|8,0:0|0:0,0:0:0:0:
182,376,94677,1,12,0:0:0:0:
35,121,95127,38,0,P|78:69|168:95,1,140,10|4,0:0|0:0,0:0:0:0:
219,128,95577,1,4,0:0:0:0:
277,58,95727,2,0,L|354:82,1,70,12|4,0:0|0:0,0:0:0:0:
419,27,96027,1,2,0:0:0:0:
499,190,96327,5,12,0:0:0:0:
499,190,96477,1,4,0:0:0:0:
438,257,96627,2,0,P|393:223|368:224,1,70,0|4,1:0|0:0,0:0:0:0:
299,262,96927,2,0,P|287:317|298:339,1,70,12|4,0:0|0:0,0:0:0:0:
367,378,97227,2,0,L|519:331,1,140,2|12,1:0|0:0,0:0:0:0:
308,264,97827,2,0,L|156:217,1,140,0|12,0:0|0:0,0:0:0:0:
51,357,98427,38,0,B|7:302|7:302|46:224,1,140,2|12,1:2|0:0,0:0:0:0:
97,170,98877,1,4,0:0:0:0:
30,108,99027,5,0,0:0:0:0:
216,61,99327,1,4,0:0:0:0:
195,155,99477,1,8,0:0:0:0:
195,155,99552,1,8,0:0:0:0:
195,155,99627,1,2,0:0:0:0:
316,290,99927,38,0,P|341:264|397:271,1,70,12|4,0:0|0:0,0:0:0:0:
464,234,100227,1,0,0:0:0:0:
464,234,100377,1,4,0:0:0:0:
414,157,100527,2,0,P|355:142|318:55,1,140,12|2,0:0|1:2,0:0:0:0:
162,174,101127,6,0,P|118:234|38:218,1,140,12|0,0:0|0:0,0:0:0:0:
5,308,101577,1,4,0:0:0:0:
5,308,101727,2,0,L|21:395,1,70,12|4,0:0|0:0,0:0:0:0:
100,339,102027,38,0,L|183:361,1,70,2|0,0:0|0:0,0:0:0:0:
240,301,102327,2,0,L|323:323,1,70,12|0,0:0|0:0,0:0:0:0:
382,266,102627,2,0,P|412:233|405:195,1,70,0|4,0:0|0:0,0:0:0:0:
328,171,102927,2,0,P|298:204|305:242,1,70,12|4,0:0|0:0,0:0:0:0:
307,318,103227,5,2,1:2:0:0:
440,48,104427,1,6,0:3:0:0:
29,232,114027,38,0,P|47:286|57:359,3,125.999996154785,2|0|0|0,0:0|0:0|0:0|0:0,0:0:0:0:
145,336,115077,1,0,0:0:0:0:
145,336,115227,2,0,P|127:282|117:209,3,125.999996154785
56,152,116427,1,2,0:0:0:0:
446,50,117477,21,0,0:0:0:0:
366,125,117627,2,0,B|393:169|393:169|369:226,1,90.9999958343508,10|10,0:0|0:0,0:0:0:0:
269,220,117927,2,0,B|242:176|242:176|266:119,1,90.9999958343508,10|10,0:0|0:0,0:0:0:0:
298,66,118227,21,2,0:0:0:0:
334,279,118527,1,0,0:0:0:0:
150,361,118827,38,0,L|162:317,3,41.9999987182618,6|0|2|0,0:0|0:0|0:0|0:0,0:0:0:0:
134,277,119127,2,0,L|146:233,3,41.9999987182618,2|0|2|0,0:0|0:0|0:0|0:0,0:0:0:0:
194,228,119427,38,0,L|206:184,3,41.9999987182618,2|0|2|0,0:0|0:0|0:0|0:0,0:0:0:0:
171,149,119727,2,0,L|183:105,3,41.9999987182618,2|0|6|0,0:0|0:0|0:0|0:0,0:0:0:0:
236,105,120027,6,0,P|257:58|244:23,1,83.9999974365235,2|2,0:0|0:0,0:0:0:0:
149,11,120327,2,0,P|127:57|140:92,1,83.9999974365235,2|2,0:0|0:0,0:0:0:0:
51,140,120627,1,2,0:0:0:0:
114,324,120927,38,0,B|138:327|138:327|174:293,3,41.9999987182618,6|0|2|0,0:0|0:0|0:0|0:0,0:0:0:0:
176,271,121227,2,0,B|190:257|190:257|214:261,3,41.9999987182618,2|0|2|0,0:0|0:0|0:0|0:0,0:0:0:0:
259,280,121527,2,0,B|282:283|282:283|297:270,3,41.9999987182618,2|0|2|0,0:0|0:0|0:0|0:0,0:0:0:0:
334,239,121827,2,0,B|348:225|348:225|372:229,3,41.9999987182618,2|0|6|0,0:0|0:0|0:0|0:0,0:0:0:0:
421,229,122127,6,0,L|396:329,1,83.9999974365235,2|2,0:0|0:0,0:0:0:0:
494,346,122427,2,0,L|518:248,1,83.9999974365235,2|2,0:0|0:0,0:0:0:0:
491,166,122727,1,2,0:0:0:0:
329,55,123027,38,0,P|298:94|213:90,1,125.999996154785,6|0,0:0|0:0,0:0:0:0:
200,142,123327,2,0,P|160:136|129:75,1,83.9999974365235,10|2,0:0|0:0,0:0:0:0:
67,26,123627,1,10,0:0:0:0:
7,107,123777,2,0,L|29:214,1,83.9999974365235,2|2,0:0|0:0,0:0:0:0:
110,240,124077,1,14,0:0:0:0:
19,284,124227,6,0,L|219:329,1,167.999994873047,2|10,0:0|0:0,0:0:0:0:
260,256,124677,2,0,L|368:231,1,83.9999974365235,2|10,0:0|0:0,0:0:0:0:
440,61,125127,38,0,B|387:127|387:127|426:207,1,167.999994873047,6|10,0:0|0:0,0:0:0:0:
508,256,125577,1,2,0:0:0:0:
454,341,125727,2,0,L|345:316,1,83.9999974365235,10|2,0:0|0:0,0:0:0:0:
327,347,125952,1,0,0:0:0:0:
327,347,126027,1,2,0:0:0:0:
255,275,126177,1,14,0:0:0:0:
164,319,126327,6,0,L|150:272,3,41.9999987182618,10|8|10|8,0:0|0:0|0:0|0:0,0:0:0:0:
183,239,126627,2,0,L|197:192,3,41.9999987182618,10|10|10|10,0:0|0:0|0:0|0:0,0:0:0:0:
159,163,126927,1,10,0:0:0:0:
12,79,127227,6,0,B|-4:105|-4:105|31:232,1,140,10|10,0:0|0:0,0:0:0:0:
164,319,127827,1,10,0:0:0:0:
223,250,127977,2,0,L|210:195,2,35,4|0|4,0:0|0:0|0:0,0:0:0:0:
289,320,128277,1,12,0:0:0:0:
289,320,128427,2,0,L|443:269,1,140,6|12,0:0|0:0,0:0:0:0:
504,313,128877,2,0,L|517:368,2,35,4|0|14,0:0|0:0|0:0,0:0:0:0:
462,135,129327,5,0,0:0:0:0:
303,45,129627,37,2,0:0:0:0:
372,103,129777,2,0,L|394:43,2,35,6|0|2,0:0|0:0|0:0,0:0:0:0:
335,186,130077,5,2,0:0:0:0:
266,128,130227,2,0,L|244:188,2,35,6|0|2,0:0|0:0|0:0,0:0:0:0:
195,69,130527,2,0,L|108:102,1,70,2|2,0:0|0:0,0:0:0:0:
38,99,130827,37,6,0:0:0:0:
30,114,130977,1,2,0:0:0:0:
84,187,131127,1,2,0:0:0:0:
76,202,131277,1,2,0:0:0:0:
124,279,131427,1,2,0:0:0:0:
296,192,131727,6,0,P|321:228|363:235,1,78.7500030040742,2|0,0:0|0:0,0:0:0:0:
383,287,132027,6,0,P|473:279|511:204,1,181.999991668702,6|8,0:0|0:0,0:0:0:0:
434,128,132477,1,0,2:0:0:0:
511,51,132627,2,0,P|459:32|441:-5,1,90.9999958343508,2|2,0:0|0:0,0:0:0:0:
338,37,132927,2,0,P|347:91|324:125,1,90.9999958343508,8|2,0:0|0:0,0:0:0:0:
248,222,133227,6,0,B|171:196|171:196|168:187|168:187|63:150,1,181.999991668702,2|10,0:0|0:0,0:0:0:0:
81,156,133677,1,0,2:0:0:0:
0,230,133827,2,0,B|-20:298|-20:298|37:344,1,136.499993751526,2|0,0:0|0:0,0:0:0:0:
64,383,134127,2,0,L|166:342,1,90.9999958343508,8|0,0:0|2:0,0:0:0:0:
195,250,134427,2,0,L|366:319,1,181.999991668702,2|8,0:0|0:0,0:0:0:0:
459,261,134877,37,0,2:0:0:0:
459,261,135027,2,0,P|417:240|407:194,1,90.9999958343508,2|2,0:0|0:0,0:0:0:0:
372,95,135327,2,0,P|351:136|305:147,1,90.9999958343508,10|2,0:0|0:0,0:0:0:0:
308,256,135627,1,2,0:0:0:0:
93,297,135927,5,8,0:0:0:0:
178,228,136077,1,0,2:0:0:0:
88,164,136227,2,0,L|-17:197,1,90.9999958343508,2|8,0:0|2:0,0:0:0:0:
5,301,136527,2,0,L|110:268,1,90.9999958343508,8|0,0:0|2:0,0:0:0:0:
221,299,136827,38,0,L|173:86,1,181.999991668702,2|8,0:0|0:0,0:0:0:0:
287,88,137277,1,2,0:0:0:0:
287,88,137427,2,0,L|312:-25,1,90.9999958343508,2|0,0:0|2:0,0:0:0:0:
200,25,137727,1,8,0:0:0:0:
413,84,138027,6,0,L|365:297,1,181.999991668702,2|8,0:0|0:0,0:0:0:0:
479,295,138477,1,2,0:0:0:0:
479,295,138627,2,0,L|504:408,1,90.9999958343508,2|0,0:0|2:0,0:0:0:0:
391,359,138927,1,8,0:0:0:0:
225,216,139227,38,0,P|138:223|77:318,1,181.999991668702,2|8,0:0|0:0,0:0:0:0:
280,382,139827,2,0,P|263:336|210:323,1,90.9999958343508,2|0,0:0|2:0,0:0:0:0:
212,211,140127,2,0,P|258:194|271:141,1,90.9999958343508,8|0,0:0|2:0,0:0:0:0:
357,87,140427,2,0,L|171:32,1,181.999991668702,2|8,0:0|0:0,0:0:0:0:
182,35,140877,1,2,0:0:0:0:
99,106,141027,21,2,0:0:0:0:
298,16,141327,1,2,0:0:0:0:
410,203,141627,22,0,B|430:233|430:233|333:209|333:209|308:226|276:223,1,181.999991668702,6|8,0:0|0:0,0:0:0:0:
192,173,142077,1,4,2:0:0:0:
159,277,142227,2,0,P|179:340|179:375,1,90.9999958343508,2|6,0:0|0:2,0:0:0:0:
286,338,142527,2,0,P|266:275|266:240,1,90.9999958343508,10|6,0:0|0:2,0:0:0:0:
190,178,142827,6,0,L|225:0,1,181.999991668702,2|8,0:0|0:0,0:0:0:0:
300,79,143277,1,4,2:0:0:0:
400,36,143427,2,0,L|365:214,1,181.999991668702,2|8,0:0|0:0,0:0:0:0:
364,214,143877,1,4,2:0:0:0:
412,312,144027,38,0,P|324:306|250:373,1,181.999991668702,2|8,0:0|0:0,0:0:0:0:
176,287,144477,1,4,2:0:0:0:
100,365,144627,2,0,L|3:335,1,90.9999958343508,2|6,0:0|0:2,0:0:0:0:
28,229,144927,2,0,L|125:199,1,90.9999958343508,10|6,0:0|0:2,0:0:0:0:
223,193,145227,1,2,0:0:0:0:
120,0,145527,6,0,P|103:58|133:95,1,90.9999958343508,8|4,0:0|2:0,0:0:0:0:
287,97,145827,2,0,P|304:39|274:2,1,90.9999958343508,2|4,0:0|2:0,0:0:0:0:
203,80,146127,2,0,L|191:198,1,90.9999958343508,8|4,0:0|2:0,0:0:0:0:
297,243,146427,37,8,0:0:0:0:
297,243,146577,1,6,0:2:0:0:
362,155,146727,2,0,L|484:188,1,90.9999958343508,8|6,0:0|0:2,0:0:0:0:
512,300,147027,5,8,0:0:0:0:
512,300,147177,1,2,0:2:0:0:
436,379,147327,2,0,L|314:346,1,90.9999958343508,8|2,0:0|0:2,0:0:0:0:
407,263,147627,1,2,0:0:0:0:
210,358,147927,37,8,0:0:0:0:
210,358,148077,1,10,0:0:0:0:
138,275,148227,2,0,B|183:196|183:196|274:277,1,181.999991668702,2|8,0:0|0:0,0:0:0:0:
388,159,148827,21,14,0:0:0:0:
388,159,148977,2,0,L|399:118,2,35,4|0|4,0:0|0:0|0:0,0:0:0:0:
305,126,149277,1,10,0:0:0:0:
305,126,149427,2,0,L|316:85,2,35,4|0|4,0:0|0:0|0:0,0:0:0:0:
231,174,149727,5,10,0:0:0:0:
231,174,149877,2,0,L|242:215,2,35,4|0|4,0:0|0:0|0:0,0:0:0:0:
148,207,150177,1,10,0:0:0:0:
148,207,150327,2,0,L|159:248,2,35,4|0|4,0:0|0:0|0:0,0:0:0:0:
0,96,151227,37,10,0:0:0:0:
65,148,151377,2,0,L|50:200,2,35,4|0|4,0:0|0:0|0:0,0:0:0:0:
127,92,151677,1,10,0:0:0:0:
193,144,151827,2,0,L|178:196,2,35,4|0|4,0:0|0:0|0:0,0:0:0:0:
261,95,152127,5,10,0:0:0:0:
326,43,152277,2,0,L|311:-9,2,35,4|0|4,0:0|0:0|0:0,0:0:0:0:
392,94,152577,1,10,0:0:0:0:
457,42,152727,2,0,L|442:-10,2,35,4|0|4,0:0|0:0|0:0,0:0:0:0:
507,115,153027,1,10,0:0:0:0:
507,115,153177,1,8,0:0:0:0:
438,163,153327,2,0,L|453:215,3,35
478,224,153627,37,6,0:0:0:0:
443,300,153777,2,0,P|373:306|317:364,1,140,4|4,0:0|0:0,0:0:0:0:
249,310,154227,2,0,P|219:285|219:248,1,70,0|4,0:0|0:0,0:0:0:0:
141,219,154527,2,0,P|134:256|101:275,1,70,8|4,0:0|0:0,0:0:0:0:
51,334,154827,1,6,0:0:0:0:
3,264,154977,2,0,L|37:109,1,140,4|4,0:0|0:0,0:0:0:0:
24,43,155427,6,0,L|96:67,1,59.5000011348725,4|4,0:0|0:0,0:0:0:0:
158,31,155727,2,0,L|173:105,1,59.5000011348725,4|4,0:0|0:0,0:0:0:0:
138,182,156027,1,6,0:0:0:0:
353,168,156327,38,0,P|339:129|350:100,2,38.5000011749268,8|0|12,0:0|0:0|0:0,0:0:0:0:
277,242,156627,2,0,P|235:243|211:223,2,38.5000011749268,8|12|12,0:0|0:0|0:0,0:0:0:0:
326,337,156927,2,0,P|314:376|288:393,2,38.5000011749268,12|12|12,0:0|0:0|0:0,0:0:0:0:
433,323,157227,2,0,P|467:346|475:376,2,38.5000011749268,4|0|4,0:3|0:0|0:0,0:0:0:0:
447,216,157527,2,0,P|479:190|510:192,2,38.5000011749268,0|0|4,3:0|3:0|0:3,0:0:0:0:
367,256,158127,5,2,0:0:0:0:
221,70,158427,6,0,B|144:40|144:40|85:110,1,167.999994873047,6|2,0:0|0:0,0:0:0:0:
116,203,158877,2,0,B|193:233|193:233|252:163,1,167.999994873047,6|2,0:0|0:0,0:0:0:0:
371,155,159327,6,0,B|448:125|448:125|507:195,1,167.999994873047,6|2,0:0|0:0,0:0:0:0:
476,288,159777,2,0,B|399:318|399:318|340:248,1,167.999994873047,6|2,0:0|0:0,0:0:0:0:
260,309,160227,38,0,L|271:366,2,41.9999987182618,6|2|2,0:0|0:0|0:0,0:0:0:0:
199,235,160527,1,2,0:0:0:0:
199,235,160677,1,2,0:0:0:0:
128,307,160827,6,0,B|89:294|89:294|88:289|88:289|26:269,1,83.9999974365235,6|2,0:0|0:0,0:0:0:0:
7,187,161127,2,0,B|46:174|46:174|47:169|47:169|109:149,1,83.9999974365235,2|6,0:0|0:0,0:0:0:0:
136,71,161427,2,0,L|121:17,2,41.9999987182618,2|0|2,0:0|0:0|0:0,0:0:0:0:
223,120,161727,1,6,0:0:0:0:
303,58,161877,37,2,0:0:0:0:
303,58,161952,1,0,0:0:0:0:
303,58,162027,2,0,B|332:87|332:87|312:156,1,83.9999974365235,2|6,0:0|0:0,0:0:0:0:
253,204,162327,2,0,B|241:245|241:245|270:274,1,83.9999974365235,6|2,0:0|0:0,0:0:0:0:
352,332,162627,2,0,L|401:309,3,41.9999987182618,6|2|2|2,0:0|0:0|0:0|0:0,0:0:0:0:
421,274,162927,2,0,L|470:297,3,41.9999987182618,2|2|2|2,0:0|0:0|0:0|0:0,0:0:0:0:
498,322,163227,6,0,L|456:143,1,167.999994873047,6|2,0:0|0:0,0:0:0:0:
387,87,163677,2,0,L|397:42,2,41.9999987182618,6|0|2,0:0|0:0|0:0,0:0:0:0:
319,162,163977,1,2,0:0:0:0:
319,162,164127,2,0,L|225:127,1,83.9999974365235,6|2,0:0|0:0,0:0:0:0:
188,59,164427,1,2,0:0:0:0:
188,59,164502,1,0,0:0:0:0:
188,59,164577,2,0,L|94:94,1,83.9999974365235,6|6,0:0|0:0,0:0:0:0:
11,64,164877,38,0,B|-8:105|-8:105|37:150,1,83.9999974365235,2|6,0:0|0:0,0:0:0:0:
112,174,165177,2,0,B|131:133|131:133|86:88,1,83.9999974365235,2|2,0:0|0:0,0:0:0:0:
30,218,165477,1,2,0:0:0:0:
30,218,165627,2,0,B|37:230|37:230|30:236|30:236|41:246|41:246|46:267,6,41.9999987182618,6|2|2|2|2|0|6,0:0|0:0|0:0|0:0|0:0|0:0|0:0,0:0:0:0:
127,264,166227,2,0,B|125:279|125:279|134:278|134:278|121:299,6,48.9999985046387,2|2|2|0|6|2|2,0:0|0:0|0:0|0:0|0:0|0:0|0:0,0:0:0:0:
210,206,166827,6,0,B|230:197|230:197|239:204|239:204|275:197,3,41.9999987182618,2|0|6|0,0:0|0:0|0:0|0:0,0:0:0:0:
284,236,167127,2,0,B|304:227|304:227|313:234|313:234|349:227,3,41.9999987182618,6|0|2|0,0:0|0:0|0:0|0:0,0:0:0:0:
361,201,167427,38,0,B|506:273|506:273|515:269|515:269|465:248|435:195|435:195|473:161,1,293.999991027832,6|2,0:0|0:0,0:0:0:0:
484,176,168027,22,0,L|455:16,1,140,10|8,0:0|0:0,0:0:0:0:
302,140,168627,2,0,L|273:-20,1,140,8|8,0:0|0:0,0:0:0:0:
141,100,169227,2,0,L|170:260,1,140,8|8,0:0|0:0,0:0:0:0:
277,363,169827,2,0,L|262:283,2,70,8|4|12,0:0|0:0|0:0,0:0:0:0:
85,366,170427,2,0,L|56:206,1,140,8|8,0:0|0:0,0:0:0:0:
161,94,171027,2,0,L|190:254,1,140,8|8,0:0|0:0,0:0:0:0:
267,45,171627,2,0,L|296:205,1,140,8|8,0:0|0:0,0:0:0:0:
81,139,172227,2,0,L|52:-21,1,140,12|8,0:0|0:0,0:0:0:0:
56,1,172677,1,4,0:0:0:0:
153,3,172827,2,0,L|182:163,1,140,12|8,0:0|0:0,0:0:0:0:
344,116,173427,2,0,L|373:276,1,140,8|8,0:0|0:0,0:0:0:0:
497,145,174027,2,0,L|468:-15,1,140,8|8,0:0|0:0,0:0:0:0:
306,37,174627,2,0,L|318:105,2,70,8|4|8,0:0|0:0|0:0,0:0:0:0:
139,60,175227,2,0,L|165:205,1,140,8|8,0:0|0:0,0:0:0:0:
331,201,175827,2,0,L|357:346,1,140,8|8,0:0|0:0,0:0:0:0:
497,248,176427,2,0,L|470:102,1,140,8|8,0:0|0:0,0:0:0:0:
311,158,177027,2,0,L|284:12,1,140,8|8,0:0|0:0,0:0:0:0:
118,30,177627,5,2,0:0:0:0:
196,76,178227,1,0,0:0:0:0:
122,124,178827,37,0,0:0:0:0:
200,170,179427,1,0,0:0:0:0:
125,217,180027,5,0,0:0:0:0:
203,263,180627,1,0,0:0:0:0:
128,311,181227,37,0,0:0:0:0:
206,357,181827,1,0,0:0:0:0:
408,88,182427,22,0,B|419:156|419:156|425:162|425:162|437:241,2,140,12|12|12,0:3|0:3|0:3,0:0:0:0:
256,192,183327,1,10,0:0:0:0:
256,192,183477,12,0,185427,2:0:0:0:
21,331,186027,22,0,L|167:356,1,140
305,272,186627,5,8,0:0:0:0:
168,173,186927,1,8,0:0:0:0:
299,68,187227,2,0,L|280:14,3,35,8|8|12|0,0:0|0:0|0:0|1:2,0:0:0:0:
249,16,187527,1,4,1:2:0:0:
187,73,187677,1,0,1:2:0:0:
364,127,187977,38,0,L|383:181,3,35,8|8|12|0,0:0|0:0|0:0|1:2,0:0:0:0:
416,172,188277,1,4,1:2:0:0:
393,253,188427,1,12,0:0:0:0:
163,148,188877,5,0,0:0:0:0:
107,210,189027,2,0,L|126:293,1,70,8|12,0:0|0:0,0:0:0:0:
40,296,189327,2,0,L|21:213,1,70,0|4,1:2|1:2,0:0:0:0:
45,146,189627,2,0,L|35:104,3,35,12|8|12|8,0:0|0:0|0:0|0:0,0:0:0:0:
64,79,189927,2,0,L|54:37,3,35,8|8|12|8,0:0|0:0|0:0|0:0,0:0:0:0:
20,22,190227,1,12,0:0:0:0:
182,64,190527,1,12,0:0:0:0:
344,108,190827,38,0,L|325:36,1,70,6|8,0:0|0:0,0:0:0:0:
408,23,191127,2,0,L|427:95,1,70,4|8,0:0|0:0,0:0:0:0:
377,190,191427,6,0,L|359:257,1,70,4|8,0:0|0:0,0:0:0:0:
270,236,191727,2,0,L|287:168,1,70,4|8,0:0|0:0,0:0:0:0:
204,131,192027,37,4,0:0:0:0:
204,131,192177,1,8,0:0:0:0:
127,180,192327,1,4,0:0:0:0:
135,188,192477,1,8,0:0:0:0:
51,224,192627,1,4,0:0:0:0:
65,242,192777,1,8,0:0:0:0:
136,297,192927,2,0,L|224:260,1,70,4|8,0:0|0:0,0:0:0:0:
271,326,193227,5,2,0:0:0:0:
49,41,194427,37,8,0:0:0:0:
225,83,194727,1,8,0:0:0:0:
93,209,195027,5,8,0:0:0:0:
269,251,195327,1,8,0:0:0:0:
399,120,195627,38,0,P|404:79|362:49,1,77.0000023498536,8|4,0:0|0:0,0:0:0:0:
292,78,195927,2,0,P|287:119|329:149,1,77.0000023498536,8|4,0:0|0:0,0:0:0:0:
343,254,196227,6,0,P|353:289|334:321,1,77.0000023498536,8|4,0:0|0:0,0:0:0:0:
241,309,196527,2,0,P|230:273|249:241,1,77.0000023498536,8|4,0:0|0:0,0:0:0:0:
323,154,196827,38,0,L|425:186,1,77.0000023498536,8|8,0:0|0:0,0:0:0:0:
216,121,197127,2,0,L|114:89,1,77.0000023498536,8|8,0:0|0:0,0:0:0:0:
293,56,197427,1,8,0:0:0:0:
43,364,198627,5,2,0:0:0:0:
18,236,199227,6,0,P|110:273|205:300,1,181.999991668702,6|8,0:0|0:0,0:0:0:0:
256,221,199677,1,0,2:0:0:0:
349,257,199827,2,0,P|366:299|338:343,1,90.9999958343508,2|2,0:0|0:0,0:0:0:0:
433,384,200127,2,0,P|460:348|512:350,1,90.9999958343508,8|2,0:0|0:0,0:0:0:0:
512,238,200427,6,0,P|420:206|410:107,1,181.999991668702,2|10,0:0|0:0,0:0:0:0:
401,131,200877,1,0,2:0:0:0:
433,36,201027,2,0,L|278:79,1,136.499993751526,2|0,0:0|0:0,0:0:0:0:
286,120,201327,2,0,L|175:89,1,90.9999958343508,8|0,0:0|2:0,0:0:0:0:
120,33,201627,2,0,L|178:247,1,181.999991668702,2|8,0:0|0:0,0:0:0:0:
262,255,202077,1,0,2:0:0:0:
262,255,202227,38,0,P|204:282|195:321,1,90.9999958343508,2|2,0:0|0:0,0:0:0:0:
117,367,202527,2,0,P|70:325|26:336,1,90.9999958343508,10|2,0:0|0:0,0:0:0:0:
4,235,202827,1,2,0:0:0:0:
146,94,203127,1,8,0:0:0:0:
216,165,203277,1,0,2:0:0:0:
296,105,203427,2,0,L|274:11,1,90.9999958343508,2|8,0:0|2:0,0:0:0:0:
374,2,203727,2,0,L|396:96,1,90.9999958343508,8|0,0:0|2:0,0:0:0:0:
476,148,204027,6,0,B|383:134|383:134|336:225,1,181.999991668702,2|10,0:0|0:0,0:0:0:0:
251,254,204477,1,0,0:0:0:0:
251,254,204627,2,0,L|276:363,1,90.9999958343508,2|0,0:0|2:0,0:0:0:0:
365,377,204927,1,8,0:0:0:0:
322,181,205227,38,0,B|246:124|246:124|162:183,1,181.999991668702,2|10,0:0|0:0,0:0:0:0:
83,212,205677,1,0,0:0:0:0:
83,212,205827,2,0,L|53:319,1,90.9999958343508,2|0,0:0|2:0,0:0:0:0:
125,374,206127,1,8,0:0:0:0:
309,295,206427,6,0,P|399:303|470:378,1,181.999991668702,2|10,0:0|0:0,0:0:0:0:
488,164,207027,2,0,P|456:214|465:254,1,90.9999958343508,2|0,0:0|2:0,0:0:0:0:
384,178,207327,1,10,0:0:0:0:
384,178,207477,1,2,0:0:0:0:
277,183,207627,2,0,P|309:133|300:93,1,90.9999958343508,2|0,0:0|2:0,0:0:0:0:
411,93,207927,1,8,0:0:0:0:
411,93,208077,1,2,0:0:0:0:
352,11,208227,5,2,0:0:0:0:
186,123,208527,1,2,0:0:0:0:
16,16,208827,38,0,B|0:52|0:52|91:95|101:187,1,181.999991668702,6|8,0:0|0:0,0:0:0:0:
172,216,209277,1,6,2:0:0:0:
172,216,209427,2,0,L|58:256,1,90.9999958343508,2|6,0:0|0:2,0:0:0:0:
20,321,209727,2,0,L|134:361,1,90.9999958343508,10|6,0:0|0:2,0:0:0:0:
204,367,210027,38,0,B|267:302|267:302|379:338,1,181.999991668702,2|8,0:0|0:0,0:0:0:0:
454,317,210477,1,4,2:0:0:0:
444,217,210627,2,0,B|381:152|381:152|269:188,1,181.999991668702,2|8,0:0|0:0,0:0:0:0:
293,179,211077,1,4,2:0:0:0:
194,163,211227,2,0,B|223:79|223:79|230:84|230:84|259:-6,1,181.999991668702,2|8,0:0|0:0,0:0:0:0:
329,71,211677,1,4,2:0:0:0:
417,24,211827,6,0,L|522:54,1,90.9999958343508,2|6,0:0|0:2,0:0:0:0:
504,149,212127,2,0,L|399:119,1,90.9999958343508,10|6,0:0|0:2,0:0:0:0:
328,171,212427,1,2,0:0:0:0:
152,267,212727,38,0,P|107:229|52:237,1,90.9999958343508,8|4,0:0|2:0,0:0:0:0:
249,241,213027,2,0,P|281:192|336:184,1,90.9999958343508,2|4,0:0|2:0,0:0:0:0:
216,325,213327,2,0,L|176:152,1,157.500006008148,8|0,0:0|0:0,0:0:0:0:
139,143,213627,5,0,1:0:0:0:
139,143,213777,1,6,2:0:0:0:
224,90,213927,2,0,P|230:41|184:13,1,90.9999958343508,8|2,0:0|0:0,0:0:0:0:
105,6,214227,37,0,0:0:0:0:
105,6,214377,1,2,0:0:0:0:
20,59,214527,2,0,P|14:108|60:136,1,90.9999958343508,8|2,0:0|0:0,0:0:0:0:
139,143,214827,1,2,0:0:0:0:
100,339,215127,6,0,B|158:269|158:269|254:313,2,181.999991668702,8|2|8,0:0|0:0|0:0,0:0:0:0:
297,372,216027,6,0,P|329:330|314:277,1,90.9999958343508,14|0,0:0|0:0,0:0:0:0:
421,268,216327,2,0,P|400:219|347:205,1,90.9999958343508,8|0,0:0|0:0,0:0:0:0:
294,137,216627,2,0,P|352:120|364:87,1,90.9999958343508,8|0,0:0|0:0,0:0:0:0:
459,123,216927,2,0,P|473:64|450:37,1,90.9999958343508,8|0,0:0|0:0,0:0:0:0:
374,0,217227,5,8,0:0:0:0:
48,327,218127,38,0,L|70:237,1,70,4|8,0:0|0:0,0:0:0:0:
156,242,218427,2,0,L|123:109,1,120.750002303124,4|0,0:0|0:0,0:0:0:0:
93,99,218727,2,0,P|119:71|180:81,1,80.5000015354157,8|4,0:0|0:0,0:0:0:0:
230,12,219027,2,0,P|255:57|339:64,1,120.750002303124,4|0,0:0|0:0,0:0:0:0:
346,40,219327,1,8,0:0:0:0:
420,94,219477,1,4,0:0:0:0:
368,172,219627,22,0,L|384:236,4,40.2500007677078,4|0|4|0|8,0:0|0:0|0:0|0:0|0:0,0:0:0:0:
281,156,220077,1,4,0:0:0:0:
281,156,220227,1,4,0:0:0:0:
166,271,220527,2,0,L|189:364,1,80.5000015354157,8|4,0:0|0:0,0:0:0:0:
92,338,220827,6,0,L|57:200,1,120.750002303124,4|0,0:0|0:0,0:0:0:0:
24,203,221127,2,0,L|46:112,1,80.5000015354157,8|4,0:0|0:0,0:0:0:0:
112,67,221427,2,0,P|187:65|208:116,1,120.750002303124,4|0,0:0|0:0,0:0:0:0:
244,121,221727,1,8,0:0:0:0:
195,198,221877,1,4,0:0:0:0:
273,246,222027,38,0,L|260:308,4,40.2500007677078,4|0|4|0|8,0:0|0:0|0:0|0:0|0:0,0:0:0:0:
355,202,222477,2,0,L|335:107,1,80.5000015354157,4|4,0:0|0:0,0:0:0:0:
415,35,222777,1,4,0:0:0:0:
435,124,222927,2,0,L|454:218,1,80.5000015354157,8|4,0:0|0:0,0:0:0:0:
510,283,223227,22,0,P|442:293|413:338,1,120.750002303124,4|0,0:0|0:0,0:0:0:0:
386,363,223527,2,0,P|346:330|306:336,1,80.5000015354157,8|4,0:0|0:0,0:0:0:0:
246,277,223827,2,0,L|120:313,1,120.750002303124,4|0,0:0|0:0,0:0:0:0:
109,347,224127,1,8,0:0:0:0:
43,282,224277,1,4,0:0:0:0:
114,216,224427,6,0,L|170:198,4,40.2500007677078,0|0|4|0|8,0:0|0:0|0:0|0:0|0:0,0:0:0:0:
31,175,224877,1,4,0:0:0:0:
31,175,225027,1,4,0:0:0:0:
160,24,225327,2,0,P|207:55|205:88,1,80.5000015354157,8|4,0:0|0:0,0:0:0:0:
256,170,225627,38,0,L|423:206,1,161.000003070831,4|8,0:0|0:0,0:0:0:0:
488,142,226077,1,4,0:0:0:0:
449,53,226227,2,0,L|282:17,1,161.000003070831,4|8,0:0|0:0,0:0:0:0:
141,141,226827,6,0,P|134:186|166:221,1,80.5000015354157,4|4,0:0|0:0,0:0:0:0:
238,256,227127,1,8,0:0:0:0:
188,341,227277,1,4,0:0:0:0:
188,341,227352,1,0,0:0:0:0:
188,341,227427,2,0,L|120:308,3,40.2500007677078,4|0|0|0,0:0|0:0|0:0|0:0,0:0:0:0:
108,300,227727,2,0,L|40:333,3,40.2500007677078,8|0|0|0,0:0|0:0|0:0|0:0,0:0:0:0:
18,333,228027,6,0,P|-10:291|17:242,1,90.9999958343508,4|4,0:0|0:0,0:0:0:0:
90,210,228327,2,0,P|100:167|73:132,1,90.9999958343508,10|4,0:0|0:0,0:0:0:0:
10,61,228627,1,10,0:0:0:0:
10,61,228777,1,4,0:0:0:0:
95,9,228927,2,0,L|209:38,1,90.9999958343508,8|4,0:0|0:0,0:0:0:0:
283,25,229227,6,0,B|263:96|263:96|268:109|268:109|240:214,2,181.999991668702,8|8|8,0:0|0:0|0:0,0:0:0:0:
382,36,229977,2,0,L|392:-11,2,45.4999979171754,4|0|8,0:0|0:0|0:0,0:0:0:0:
468,88,230277,1,4,0:0:0:0:
468,88,230427,38,0,P|414:98|395:134,1,90.9999958343508,8|4,0:0|0:0,0:0:0:0:
336,206,230727,2,0,L|455:241,1,90.9999958343508,10|4,0:0|0:0,0:0:0:0:
492,312,231027,1,10,0:0:0:0:
492,312,231177,1,4,0:0:0:0:
416,378,231327,2,0,L|297:343,1,90.9999958343508,8|4,0:0|0:0,0:0:0:0:
230,329,231627,6,0,B|250:258|250:258|245:245|245:245|273:140,2,181.999991668702,8|8|8,0:0|0:0|0:0,0:0:0:0:
172,137,232527,38,0,P|102:138|67:208,1,136.499993751526,8|0,0:0|0:0,0:0:0:0:
19,201,232827,2,0,P|-22:277|30:359,1,181.999991668702,8|10,0:0|0:0,0:0:0:0:
124,374,233277,1,4,0:0:0:0:
124,374,233427,2,0,L|225:353,1,90.9999958343508,10|4,0:0|0:0,0:0:0:0:
259,265,233727,2,0,L|367:243,1,90.9999958343508,8|4,0:0|0:0,0:0:0:0:
414,323,234027,1,0,0:0:0:0:
512,154,234327,6,0,B|453:87|453:87|360:129,2,181.999991668702,8|8|8,0:0|0:0|0:0,0:0:0:0:
263,166,235227,2,0,L|176:133,1,90.9999958343508,8|4,0:0|0:0,0:0:0:0:
226,32,235527,2,0,L|313:62,1,90.9999958343508,10|4,0:0|0:0,0:0:0:0:
353,159,235827,2,0,P|348:225|311:239,1,90.9999958343508,10|4,0:0|0:0,0:0:0:0:
233,252,236127,2,0,P|238:186|275:172,1,90.9999958343508,8|4,0:0|0:0,0:0:0:0:
293,318,236427,38,0,L|281:378,2,45.4999979171754,8|0|4,0:0|0:0|0:0,0:0:0:0:
196,372,236727,2,0,L|208:312,2,45.4999979171754,8|0|4,0:0|0:0|0:0,0:0:0:0:
123,303,237027,1,8,0:0:0:0:
39,357,237177,1,4,0:0:0:0:
20,353,237252,1,0,0:0:0:0:
6,341,237327,2,0,P|-7:295|30:250,1,90.9999958343508,8|4,0:0|0:0,0:0:0:0:
96,203,237627,21,2,0:0:0:0:
