osu file format v14

[General]
AudioFilename: audio.mp3
AudioLeadIn: 0
PreviewTime: 196550
Countdown: 0
SampleSet: Soft
StackLeniency: 0.7
Mode: 3
LetterboxInBreaks: 0
SpecialStyle: 0
WidescreenStoryboard: 1

[Editor]
Bookmarks: 11151,22122,44065,55037,66008,76980,87951,98922,109894,120865,131837,142808,153780,164751,175722,197665,219608,241551,252607,263494,274550,285437,307380,329322
DistanceSpacing: 0.5
BeatDivisor: 4
GridSize: 32
TimelineZoom: 2

[Metadata]
Title:Shang A Lang (kamome sano Remix)
TitleUnicode:Shang A Lang (kamome sano Remix)
Artist:you vs. ETIA.
ArtistUnicode:you vs. ETIA.
Creator:_Kobii
Version:Vivacity // 7K
Source:
Tags:feat. nayuta Diamond Smile J-NERATION 2 J-core Electronic Japanese JNEX-0001 c88 Drum & And Bass
BeatmapID:1906189
BeatmapSetID:896709

[Difficulty]
HPDrainRate:8
CircleSize:7
OverallDifficulty:8
ApproachRate:5
SliderMultiplier:1.4
SliderTickRate:1

[Events]
//Background and Video events
0,0,"BG.jpg",0,0
//Break Periods
//Storyboard Layer 0 (Background)
//Storyboard Layer 1 (Fail)
//Storyboard Layer 2 (Pass)
//Storyboard Layer 3 (Foreground)
//Storyboard Sound Samples

[TimingPoints]
265,342.857142857143,4,2,1,38,1,0
44150,-100,4,2,1,20,0,0
55122,-100,4,2,1,30,0,0
57865,-100,4,2,1,38,0,0
175722,-100,4,2,1,38,0,1
196122,-100,4,2,1,38,0,0
197665,-100,4,2,1,38,0,1
218322,-100,4,2,1,38,0,0
285522,-100,4,2,1,38,0,1
296065,-100,4,2,1,38,0,0
296493,-100,4,2,1,38,0,1
307122,-100,4,2,1,38,0,0
307465,-100,4,2,1,38,0,1
318093,-100,4,2,1,38,0,0
318436,-100,4,2,1,38,0,1
329407,-100,4,2,1,38,0,0

[HitObjects]
36,192,265,5,0,0:0:0:100:kick_2.wav
109,192,265,1,0,0:0:0:50:crash.wav
256,192,265,1,0,0:0:0:0:
402,192,265,1,0,0:0:0:0:
475,192,265,1,0,0:0:0:0:
475,192,436,1,0,0:0:0:0:
182,192,607,1,0,0:0:0:100:kick_2.wav
329,192,607,1,0,0:0:0:0:
475,192,607,1,0,0:0:0:0:
36,192,779,1,0,0:0:0:0:
36,192,950,1,0,0:0:0:100:kick_2.wav
256,192,950,1,0,0:0:0:0:
402,192,950,1,0,0:0:0:0:
36,192,1122,1,0,0:0:0:0:
182,192,1293,1,0,0:0:0:100:kick_2.wav
329,192,1293,1,0,0:0:0:0:
475,192,1293,1,0,0:0:0:0:
475,192,1465,1,0,0:0:0:0:
109,192,1636,1,0,0:0:0:100:kick_2.wav
256,192,1636,1,0,0:0:0:0:
475,192,1636,1,0,0:0:0:0:
36,192,1807,1,0,0:0:0:0:
36,192,1979,1,0,0:0:0:100:kick_2.wav
329,192,1979,1,0,0:0:0:0:
475,192,1979,1,0,0:0:0:0:
36,192,2150,1,0,0:0:0:0:
182,192,2322,1,0,0:0:0:100:kick_2.wav
402,192,2322,1,0,0:0:0:0:
475,192,2322,1,0,0:0:0:0:
182,192,2493,1,0,0:0:0:0:
36,192,2665,1,0,0:0:0:100:kick_2.wav
109,192,2665,1,0,0:0:0:0:
329,192,2665,1,0,0:0:0:0:
329,192,2836,1,0,0:0:0:0:
36,192,3007,1,0,0:0:0:100:kick_2.wav
256,192,3007,1,0,0:0:0:0:
402,192,3007,1,0,0:0:0:0:
36,192,3179,1,0,0:0:0:0:
36,192,3350,1,0,0:0:0:100:kick_2.wav
182,192,3350,1,0,0:0:0:0:
329,192,3350,1,0,0:0:0:0:
475,192,3522,1,0,0:0:0:0:
109,192,3693,1,0,0:0:0:100:kick_2.wav
256,192,3693,1,0,0:0:0:0:
475,192,3693,1,0,0:0:0:0:
475,192,3865,1,0,0:0:0:0:
36,192,4036,1,0,0:0:0:100:kick_2.wav
182,192,4036,1,0,0:0:0:0:
329,192,4036,1,0,0:0:0:0:
36,192,4207,1,0,0:0:0:0:
36,192,4379,1,0,0:0:0:100:kick_2.wav
256,192,4379,1,0,0:0:0:0:
402,192,4379,1,0,0:0:0:0:
182,192,4550,1,0,0:0:0:0:
36,192,4722,1,0,0:0:0:100:kick_2.wav
182,192,4722,1,0,0:0:0:0:
475,192,4722,1,0,0:0:0:0:
182,192,4893,1,0,0:0:0:0:
36,192,5065,1,0,0:0:0:100:kick_2.wav
109,192,5065,1,0,0:0:0:0:
329,192,5065,1,0,0:0:0:0:
329,192,5236,1,0,0:0:0:0:
182,192,5407,1,0,0:0:0:100:kick_2.wav
402,192,5407,1,0,0:0:0:0:
475,192,5407,1,0,0:0:0:0:
182,192,5579,1,0,0:0:0:0:
109,192,5750,1,0,0:0:0:100:kick_2.wav
256,192,5750,1,0,0:0:0:0:
329,192,5750,1,0,0:0:0:0:
329,192,5922,1,0,0:0:0:0:
36,192,6093,1,0,0:0:0:100:kick_2.wav
329,192,6093,1,0,0:0:0:0:
475,192,6093,1,0,0:0:0:0:
182,192,6265,1,0,0:0:0:0:
36,192,6436,1,0,0:0:0:100:kick_2.wav
182,192,6436,1,0,0:0:0:0:
402,192,6436,1,0,0:0:0:0:
182,192,6607,1,0,0:0:0:0:
256,192,6779,1,0,0:0:0:100:kick_2.wav
329,192,6779,1,0,0:0:0:0:
475,192,6779,1,0,0:0:0:0:
329,192,6950,1,0,0:0:0:0:
36,192,7122,1,0,0:0:0:100:kick_2.wav
109,192,7122,1,0,0:0:0:0:
329,192,7122,1,0,0:0:0:0:
182,192,7293,1,0,0:0:0:0:
182,192,7465,1,0,0:0:0:100:kick_2.wav
329,192,7465,1,0,0:0:0:0:
475,192,7465,1,0,0:0:0:0:
182,192,7636,1,0,0:0:0:0:
36,192,7807,1,0,0:0:0:100:kick_2.wav
256,192,7807,1,0,0:0:0:0:
402,192,7807,1,0,0:0:0:0:
402,192,7979,1,0,0:0:0:0:
109,192,8150,1,0,0:0:0:100:kick_2.wav
256,192,8150,1,0,0:0:0:0:
475,192,8150,1,0,0:0:0:0:
109,192,8322,1,0,0:0:0:0:
182,192,8493,1,0,0:0:0:100:kick_2.wav
256,192,8493,1,0,0:0:0:0:
402,192,8493,1,0,0:0:0:0:
182,192,8665,1,0,0:0:0:0:
36,192,8836,1,0,0:0:0:100:kick_2.wav
182,192,8836,1,0,0:0:0:0:
475,192,8836,1,0,0:0:0:0:
329,192,9007,1,0,0:0:0:0:
109,192,9179,1,0,0:0:0:100:kick_2.wav
329,192,9179,1,0,0:0:0:0:
402,192,9179,1,0,0:0:0:0:
329,192,9350,1,0,0:0:0:0:
36,192,9522,1,0,0:0:0:100:kick_2.wav
182,192,9522,1,0,0:0:0:0:
256,192,9522,1,0,0:0:0:0:
182,192,9693,1,0,0:0:0:0:
182,192,9865,1,0,0:0:0:100:kick_2.wav
329,192,9865,1,0,0:0:0:0:
402,192,9865,1,0,0:0:0:0:
475,192,10036,1,0,0:0:0:0:
36,192,10207,1,0,0:0:0:100:kick_2.wav
182,192,10207,1,0,0:0:0:0:
475,192,10207,1,0,0:0:0:0:
475,192,10379,1,0,0:0:0:0:
109,192,10550,1,0,0:0:0:100:kick_2.wav
256,192,10550,1,0,0:0:0:0:
329,192,10550,1,0,0:0:0:0:
109,192,10722,1,0,0:0:0:0:
182,192,10893,1,0,0:0:0:100:kick_2.wav
256,192,10893,1,0,0:0:0:0:
402,192,10893,1,0,0:0:0:0:
402,192,11065,1,0,0:0:0:0:
36,192,11236,1,0,0:0:0:100:kick_2.wav
109,192,11236,1,0,0:0:0:0:
329,192,11236,1,0,0:0:0:0:
36,192,11407,1,0,0:0:0:0:
36,192,11579,1,0,0:0:0:100:kick_2.wav
256,192,11579,1,0,0:0:0:0:
402,192,11579,1,0,0:0:0:0:
329,192,11750,1,0,0:0:0:0:
109,192,11922,1,0,0:0:0:100:kick_2.wav
329,192,11922,1,0,0:0:0:0:
475,192,11922,1,0,0:0:0:0:
329,192,12093,1,0,0:0:0:0:
36,192,12265,1,0,0:0:0:100:kick_2.wav
182,192,12265,1,0,0:0:0:0:
402,192,12265,1,0,0:0:0:0:
36,192,12436,1,0,0:0:0:0:
182,192,12436,1,0,0:0:0:0:
36,192,12607,1,0,0:0:0:100:kick_2.wav
256,192,12607,1,0,0:0:0:0:
475,192,12607,1,0,0:0:0:0:
329,192,12779,1,0,0:0:0:0:
182,192,12950,1,0,0:0:0:100:kick_2.wav
329,192,12950,1,0,0:0:0:0:
475,192,12950,1,0,0:0:0:0:
329,192,13122,1,0,0:0:0:0:
475,192,13122,1,0,0:0:0:0:
36,192,13293,1,0,0:0:0:100:kick_2.wav
109,192,13293,1,0,0:0:0:0:
256,192,13293,1,0,0:0:0:0:
109,192,13465,1,0,0:0:0:0:
182,192,13636,1,0,0:0:0:100:kick_2.wav
329,192,13636,1,0,0:0:0:0:
402,192,13636,1,0,0:0:0:0:
329,192,13807,1,0,0:0:0:0:
402,192,13807,1,0,0:0:0:0:
36,192,13979,1,0,0:0:0:100:kick_2.wav
256,192,13979,1,0,0:0:0:0:
475,192,13979,1,0,0:0:0:0:
475,192,14150,1,0,0:0:0:0:
109,192,14322,1,0,0:0:0:100:kick_2.wav
329,192,14322,1,0,0:0:0:0:
475,192,14322,1,0,0:0:0:0:
182,192,14493,1,0,0:0:0:0:
329,192,14493,1,0,0:0:0:0:
36,192,14665,1,0,0:0:0:100:kick_2.wav
182,192,14665,1,0,0:0:0:0:
256,192,14665,1,0,0:0:0:0:
182,192,14836,1,0,0:0:0:0:
109,192,15007,1,0,0:0:0:100:kick_2.wav
329,192,15007,1,0,0:0:0:0:
475,192,15007,1,0,0:0:0:0:
329,192,15179,1,0,0:0:0:0:
475,192,15179,1,0,0:0:0:0:
182,192,15350,1,0,0:0:0:100:kick_2.wav
256,192,15350,1,0,0:0:0:0:
475,192,15350,1,0,0:0:0:0:
36,192,15522,1,0,0:0:0:0:
36,192,15693,1,0,0:0:0:100:kick_2.wav
182,192,15693,1,0,0:0:0:0:
329,192,15693,1,0,0:0:0:0:
36,192,15865,1,0,0:0:0:0:
182,192,15865,1,0,0:0:0:0:
256,192,16036,1,0,0:0:0:100:kick_2.wav
402,192,16036,1,0,0:0:0:0:
475,192,16036,1,0,0:0:0:0:
402,192,16207,1,0,0:0:0:0:
109,192,16379,1,0,0:0:0:100:kick_2.wav
182,192,16379,1,0,0:0:0:0:
475,192,16379,1,0,0:0:0:0:
109,192,16550,1,0,0:0:0:0:
36,192,16722,1,0,0:0:0:100:kick_2.wav
256,192,16722,1,0,0:0:0:0:
329,192,16722,1,0,0:0:0:0:
329,192,16893,1,0,0:0:0:0:
109,192,17065,1,0,0:0:0:100:kick_2.wav
329,192,17065,1,0,0:0:0:0:
475,192,17065,1,0,0:0:0:0:
36,192,17236,1,0,0:0:0:0:
36,192,17407,1,0,0:0:0:100:kick_2.wav
182,192,17407,1,0,0:0:0:0:
402,192,17407,1,0,0:0:0:0:
36,192,17579,1,0,0:0:0:0:
109,192,17750,1,0,0:0:0:100:kick_2.wav
256,192,17750,1,0,0:0:0:0:
475,192,17750,1,0,0:0:0:0:
475,192,17922,1,0,0:0:0:0:
36,192,18093,1,0,0:0:0:100:kick_2.wav
329,192,18093,1,0,0:0:0:0:
475,192,18093,1,0,0:0:0:0:
182,192,18265,1,0,0:0:0:0:
109,192,18436,1,0,0:0:0:100:kick_2.wav
182,192,18436,1,0,0:0:0:0:
402,192,18436,1,0,0:0:0:0:
182,192,18607,1,0,0:0:0:0:
256,192,18779,1,0,0:0:0:100:kick_2.wav
329,192,18779,1,0,0:0:0:0:
475,192,18779,1,0,0:0:0:0:
475,192,18950,1,0,0:0:0:0:
36,192,19122,1,0,0:0:0:100:kick_2.wav
109,192,19122,1,0,0:0:0:0:
402,192,19122,1,0,0:0:0:0:
36,192,19293,1,0,0:0:0:0:
182,192,19465,1,0,0:0:0:100:kick_2.wav
329,192,19465,1,0,0:0:0:0:
475,192,19465,1,0,0:0:0:0:
182,192,19636,1,0,0:0:0:0:
36,192,19807,1,0,0:0:0:100:kick_2.wav
182,192,19807,1,0,0:0:0:0:
402,192,19807,1,0,0:0:0:0:
329,192,19979,1,0,0:0:0:0:
109,192,20150,1,0,0:0:0:100:kick_2.wav
329,192,20150,1,0,0:0:0:0:
475,192,20150,1,0,0:0:0:0:
329,192,20322,1,0,0:0:0:0:
36,192,20493,1,0,0:0:0:100:kick_2.wav
109,192,20493,1,0,0:0:0:0:
256,192,20493,1,0,0:0:0:0:
182,192,20665,128,0,20836:0:0:0:0:
329,192,20750,128,0,20922:0:0:0:0:
36,192,20836,128,0,21093:0:0:0:100:kick_2.wav
256,192,20836,128,0,21093:0:0:0:0:
475,192,20836,128,0,21093:0:0:0:0:
109,192,20922,128,0,21179:0:0:0:0:
182,192,21007,128,0,21265:0:0:0:0:
329,192,21093,128,0,21265:0:0:0:0:
36,192,21179,128,0,21436:0:0:0:100:kick_2.wav
256,192,21179,128,0,21436:0:0:0:0:
475,192,21179,128,0,21436:0:0:0:0:
402,192,21265,128,0,21522:0:0:0:0:
109,192,21350,128,0,21522:0:0:0:0:
329,192,21350,128,0,21607:0:0:0:0:
182,192,21436,128,0,21607:0:0:0:0:
36,192,21522,128,0,21779:0:0:0:100:kick_2.wav
256,192,21522,128,0,21779:0:0:0:0:
475,192,21522,128,0,21779:0:0:0:0:
109,192,21607,128,0,21865:0:0:0:0:
182,192,21693,128,0,21950:0:0:0:0:
402,192,21693,128,0,21865:0:0:0:0:
329,192,21779,128,0,21950:0:0:0:0:
36,192,21865,128,0,22122:0:0:0:100:kick_2.wav
256,192,21865,128,0,22122:0:0:0:0:
475,192,21865,128,0,22036:0:0:0:0:
402,192,21950,128,0,22122:0:0:0:0:
109,192,22036,128,0,22207:0:0:0:0:
329,192,22036,128,0,22207:0:0:0:0:
182,192,22122,128,0,22207:0:0:0:0:
36,192,22207,1,0,0:0:0:50:kick.wav
256,192,22207,1,0,0:0:0:50:crash.wav
402,192,22207,1,0,0:0:0:0:
475,192,22207,1,0,0:0:0:0:
329,192,22293,1,0,0:0:0:0:
182,192,22379,1,0,0:0:0:0:
475,192,22379,1,0,0:0:0:0:
36,192,22465,1,0,0:0:0:0:
256,192,22550,1,0,0:0:0:50:kick.wav
402,192,22550,1,0,0:0:0:50:electronic01.wav
475,192,22550,1,0,0:0:0:0:
109,192,22636,1,0,0:0:0:0:
36,192,22722,1,0,0:0:0:0:
329,192,22722,1,0,0:0:0:0:
475,192,22807,1,0,0:0:0:0:
36,192,22893,1,0,0:0:0:50:kick.wav
109,192,22893,1,0,0:0:0:0:
256,192,22893,1,0,0:0:0:0:
402,192,22979,1,0,0:0:0:0:
36,192,23065,1,0,0:0:0:0:
182,192,23065,1,0,0:0:0:0:
329,192,23150,1,0,0:0:0:0:
109,192,23236,1,0,0:0:0:50:kick.wav
402,192,23236,1,0,0:0:0:50:electronic01.wav
475,192,23236,1,0,0:0:0:0:
256,192,23322,1,0,0:0:0:0:
36,192,23407,1,0,0:0:0:0:
402,192,23407,1,0,0:0:0:0:
475,192,23407,1,0,0:0:0:0:
182,192,23493,1,0,0:0:0:0:
109,192,23579,1,0,0:0:0:50:kick.wav
329,192,23579,1,0,0:0:0:0:
475,192,23579,1,0,0:0:0:0:
182,192,23665,1,0,0:0:0:0:
36,192,23750,1,0,0:0:0:0:
402,192,23750,1,0,0:0:0:0:
256,192,23836,1,0,0:0:0:0:
36,192,23922,1,0,0:0:0:50:kick.wav
109,192,23922,1,0,0:0:0:50:electronic01.wav
475,192,23922,1,0,0:0:0:0:
329,192,24007,1,0,0:0:0:0:
36,192,24093,1,0,0:0:0:0:
109,192,24093,1,0,0:0:0:0:
256,192,24093,1,0,0:0:0:0:
182,192,24179,1,0,0:0:0:0:
329,192,24265,1,0,0:0:0:50:kick.wav
402,192,24265,1,0,0:0:0:0:
475,192,24265,1,0,0:0:0:0:
36,192,24350,1,0,0:0:0:0:
256,192,24436,1,0,0:0:0:0:
402,192,24436,1,0,0:0:0:0:
329,192,24522,1,0,0:0:0:0:
36,192,24607,1,0,0:0:0:50:kick.wav
109,192,24607,1,0,0:0:0:50:electronic01.wav
182,192,24607,1,0,0:0:0:0:
475,192,24693,1,0,0:0:0:0:
109,192,24779,1,0,0:0:0:0:
182,192,24779,1,0,0:0:0:0:
329,192,24779,1,0,0:0:0:0:
402,192,24865,1,0,0:0:0:0:
36,192,24950,1,0,0:0:0:50:kick.wav
256,192,24950,1,0,0:0:0:0:
475,192,24950,1,0,0:0:0:0:
329,192,25036,1,0,0:0:0:0:
36,192,25122,1,0,0:0:0:0:
182,192,25122,1,0,0:0:0:0:
402,192,25207,1,0,0:0:0:0:
36,192,25293,1,0,0:0:0:50:kick.wav
109,192,25293,1,0,0:0:0:50:electronic01.wav
329,192,25293,1,0,0:0:0:0:
182,192,25379,1,0,0:0:0:0:
256,192,25465,1,0,0:0:0:0:
475,192,25465,1,0,0:0:0:0:
109,192,25550,1,0,0:0:0:0:
182,192,25636,1,0,0:0:0:50:kick.wav
402,192,25636,1,0,0:0:0:0:
475,192,25636,1,0,0:0:0:0:
36,192,25722,1,0,0:0:0:0:
329,192,25807,1,0,0:0:0:0:
475,192,25807,1,0,0:0:0:0:
182,192,25893,1,0,0:0:0:0:
36,192,25979,1,0,0:0:0:50:kick.wav
109,192,25979,1,0,0:0:0:50:electronic01.wav
402,192,25979,1,0,0:0:0:0:
256,192,26065,1,0,0:0:0:0:
36,192,26150,1,0,0:0:0:0:
109,192,26150,1,0,0:0:0:0:
475,192,26150,1,0,0:0:0:0:
329,192,26236,1,0,0:0:0:0:
36,192,26322,1,0,0:0:0:50:kick.wav
182,192,26322,1,0,0:0:0:0:
402,192,26322,1,0,0:0:0:0:
329,192,26407,1,0,0:0:0:0:
109,192,26493,1,0,0:0:0:0:
475,192,26493,1,0,0:0:0:0:
256,192,26579,1,0,0:0:0:0:
36,192,26665,1,0,0:0:0:50:kick.wav
402,192,26665,1,0,0:0:0:50:electronic01.wav
475,192,26665,1,0,0:0:0:0:
182,192,26750,1,0,0:0:0:0:
402,192,26836,1,0,0:0:0:0:
475,192,26836,1,0,0:0:0:0:
329,192,26922,1,0,0:0:0:0:
36,192,27007,1,0,0:0:0:50:kick.wav
109,192,27007,1,0,0:0:0:0:
182,192,27007,1,0,0:0:0:0:
402,192,27093,1,0,0:0:0:0:
256,192,27179,1,0,0:0:0:0:
475,192,27179,1,0,0:0:0:0:
109,192,27265,1,0,0:0:0:0:
36,192,27350,1,0,0:0:0:50:kick.wav
329,192,27350,1,0,0:0:0:50:electronic01.wav
402,192,27350,1,0,0:0:0:0:
182,192,27436,1,0,0:0:0:0:
329,192,27522,1,0,0:0:0:0:
402,192,27522,1,0,0:0:0:0:
109,192,27607,1,0,0:0:0:0:
182,192,27693,1,0,0:0:0:50:kick.wav
256,192,27693,1,0,0:0:0:0:
475,192,27693,1,0,0:0:0:0:
36,192,27779,1,0,0:0:0:0:
182,192,27865,1,0,0:0:0:0:
329,192,27865,1,0,0:0:0:0:
402,192,27950,1,0,0:0:0:0:
109,192,28036,1,0,0:0:0:50:kick.wav
182,192,28036,1,0,0:0:0:50:electronic01.wav
475,192,28036,1,0,0:0:0:0:
256,192,28122,1,0,0:0:0:0:
36,192,28207,1,0,0:0:0:0:
329,192,28207,1,0,0:0:0:0:
475,192,28293,1,0,0:0:0:0:
182,192,28379,1,0,0:0:0:50:kick.wav
329,192,28379,1,0,0:0:0:0:
36,192,28465,1,0,0:0:0:0:
109,192,28550,1,0,0:0:0:0:
329,192,28550,1,0,0:0:0:0:
402,192,28636,1,0,0:0:0:0:
182,192,28722,1,0,0:0:0:50:kick.wav
256,192,28722,1,0,0:0:0:50:electronic01.wav
475,192,28722,1,0,0:0:0:0:
36,192,28807,1,0,0:0:0:0:
182,192,28893,1,0,0:0:0:0:
402,192,28893,1,0,0:0:0:0:
329,192,28979,1,0,0:0:0:0:
36,192,29065,1,0,0:0:0:50:kick.wav
182,192,29065,1,0,0:0:0:0:
475,192,29065,1,0,0:0:0:0:
256,192,29150,1,0,0:0:0:0:
109,192,29236,1,0,0:0:0:0:
329,192,29236,1,0,0:0:0:0:
475,192,29322,1,0,0:0:0:0:
36,192,29407,1,0,0:0:0:50:kick.wav
182,192,29407,1,0,0:0:0:50:electronic01.wav
329,192,29407,1,0,0:0:0:0:
402,192,29493,1,0,0:0:0:0:
109,192,29579,1,0,0:0:0:0:
329,192,29579,1,0,0:0:0:0:
475,192,29665,1,0,0:0:0:0:
36,192,29750,1,0,0:0:0:50:kick.wav
182,192,29750,1,0,0:0:0:0:
402,192,29750,1,0,0:0:0:0:
329,192,29836,1,0,0:0:0:0:
36,192,29922,1,0,0:0:0:0:
109,192,29922,1,0,0:0:0:0:
256,192,29922,1,0,0:0:0:0:
402,192,30007,1,0,0:0:0:0:
109,192,30093,1,0,0:0:0:50:kick.wav
329,192,30093,1,0,0:0:0:50:electronic01.wav
475,192,30093,1,0,0:0:0:0:
182,192,30179,1,0,0:0:0:0:
256,192,30265,1,0,0:0:0:0:
475,192,30265,1,0,0:0:0:0:
109,192,30350,1,0,0:0:0:0:
36,192,30436,1,0,0:0:0:50:kick.wav
256,192,30436,1,0,0:0:0:0:
329,192,30436,1,0,0:0:0:0:
475,192,30522,1,0,0:0:0:0:
182,192,30607,1,0,0:0:0:0:
329,192,30607,1,0,0:0:0:0:
109,192,30693,1,0,0:0:0:0:
36,192,30779,1,0,0:0:0:50:kick.wav
329,192,30779,1,0,0:0:0:50:electronic01.wav
402,192,30779,1,0,0:0:0:0:
256,192,30865,1,0,0:0:0:0:
182,192,30950,1,0,0:0:0:0:
475,192,30950,1,0,0:0:0:0:
36,192,31036,1,0,0:0:0:0:
182,192,31122,1,0,0:0:0:50:kick.wav
256,192,31122,1,0,0:0:0:0:
329,192,31122,1,0,0:0:0:0:
475,192,31207,1,0,0:0:0:0:
182,192,31293,1,0,0:0:0:0:
402,192,31293,1,0,0:0:0:0:
109,192,31379,1,0,0:0:0:0:
36,192,31465,1,0,0:0:0:50:kick.wav
256,192,31465,1,0,0:0:0:50:electronic01.wav
329,192,31465,1,0,0:0:0:0:
475,192,31550,1,0,0:0:0:0:
109,192,31636,1,0,0:0:0:0:
329,192,31636,128,0,31807:0:0:0:0:
182,192,31722,128,0,31893:0:0:0:0:
36,192,31807,128,0,32065:0:0:0:50:kick.wav
256,192,31807,128,0,32065:0:0:0:0:
475,192,31807,128,0,32065:0:0:0:0:
402,192,31893,128,0,32150:0:0:0:0:
329,192,31979,128,0,32236:0:0:0:0:
182,192,32065,128,0,32236:0:0:0:0:
36,192,32150,128,0,32407:0:0:0:50:kick.wav
256,192,32150,128,0,32407:0:0:0:50:electronic01.wav
475,192,32150,128,0,32407:0:0:0:0:
109,192,32236,128,0,32493:0:0:0:0:
182,192,32322,128,0,32579:0:0:0:0:
329,192,32407,128,0,32579:0:0:0:0:
36,192,32493,128,0,32750:0:0:0:50:kick.wav
256,192,32493,128,0,32750:0:0:0:0:
475,192,32493,128,0,32750:0:0:0:0:
402,192,32579,128,0,32836:0:0:0:0:
329,192,32665,128,0,32922:0:0:0:0:
182,192,32750,128,0,32922:0:0:0:0:
36,192,32836,128,0,33007:0:0:0:50:kick.wav
256,192,32836,128,0,33093:0:0:0:50:electronic01.wav
475,192,32836,128,0,33093:0:0:0:0:
109,192,32922,128,0,33093:0:0:0:0:
182,192,33007,128,0,33179:0:0:0:0:
329,192,33093,128,0,33179:0:0:0:0:
36,192,33179,1,0,0:0:0:50:kick.wav
256,192,33179,1,0,0:0:0:0:
475,192,33179,1,0,0:0:0:0:
402,192,33265,1,0,0:0:0:0:
36,192,33350,1,0,0:0:0:0:
182,192,33350,1,0,0:0:0:0:
329,192,33436,1,0,0:0:0:0:
36,192,33522,1,0,0:0:0:50:kick.wav
109,192,33522,1,0,0:0:0:50:electronic01.wav
475,192,33522,1,0,0:0:0:0:
256,192,33607,1,0,0:0:0:0:
329,192,33693,1,0,0:0:0:0:
402,192,33693,1,0,0:0:0:0:
182,192,33779,1,0,0:0:0:0:
36,192,33865,1,0,0:0:0:50:kick.wav
329,192,33865,1,0,0:0:0:0:
475,192,33865,1,0,0:0:0:0:
256,192,33950,1,0,0:0:0:0:
109,192,34036,1,0,0:0:0:0:
329,192,34036,1,0,0:0:0:0:
475,192,34122,1,0,0:0:0:0:
36,192,34207,1,0,0:0:0:50:kick.wav
182,192,34207,1,0,0:0:0:50:electronic01.wav
402,192,34207,1,0,0:0:0:0:
329,192,34293,1,0,0:0:0:0:
36,192,34379,1,0,0:0:0:0:
182,192,34379,1,0,0:0:0:0:
256,192,34379,1,0,0:0:0:0:
475,192,34465,1,0,0:0:0:0:
36,192,34550,1,0,0:0:0:50:kick.wav
109,192,34550,1,0,0:0:0:0:
402,192,34550,1,0,0:0:0:0:
182,192,34636,1,0,0:0:0:0:
256,192,34722,1,0,0:0:0:0:
329,192,34722,1,0,0:0:0:0:
109,192,34807,1,0,0:0:0:0:
36,192,34893,1,0,0:0:0:50:kick.wav
329,192,34893,1,0,0:0:0:50:electronic01.wav
475,192,34893,1,0,0:0:0:0:
256,192,34979,1,0,0:0:0:0:
182,192,35065,1,0,0:0:0:0:
329,192,35065,1,0,0:0:0:0:
475,192,35065,1,0,0:0:0:0:
402,192,35150,1,0,0:0:0:0:
36,192,35236,1,0,0:0:0:50:kick.wav
109,192,35236,1,0,0:0:0:0:
256,192,35236,1,0,0:0:0:0:
329,192,35322,1,0,0:0:0:0:
109,192,35407,1,0,0:0:0:0:
475,192,35407,1,0,0:0:0:0:
182,192,35493,1,0,0:0:0:0:
36,192,35579,1,0,0:0:0:50:kick.wav
329,192,35579,1,0,0:0:0:50:electronic01.wav
402,192,35579,1,0,0:0:0:0:
256,192,35665,1,0,0:0:0:0:
109,192,35750,1,0,0:0:0:0:
329,192,35750,1,0,0:0:0:0:
402,192,35750,1,0,0:0:0:0:
182,192,35836,1,0,0:0:0:0:
109,192,35922,1,0,0:0:0:50:kick.wav
256,192,35922,1,0,0:0:0:0:
475,192,35922,1,0,0:0:0:0:
36,192,36007,1,0,0:0:0:0:
329,192,36093,1,0,0:0:0:0:
475,192,36093,1,0,0:0:0:0:
109,192,36179,1,0,0:0:0:0:
256,192,36265,1,0,0:0:0:50:kick.wav
402,192,36265,1,0,0:0:0:50:electronic01.wav
475,192,36265,1,0,0:0:0:0:
36,192,36350,1,0,0:0:0:0:
182,192,36436,1,0,0:0:0:0:
329,192,36436,1,0,0:0:0:0:
36,192,36522,1,0,0:0:0:0:
182,192,36607,1,0,0:0:0:50:kick.wav
256,192,36607,1,0,0:0:0:0:
475,192,36607,1,0,0:0:0:0:
329,192,36693,1,0,0:0:0:0:
36,192,36779,1,0,0:0:0:0:
182,192,36779,1,0,0:0:0:0:
256,192,36865,1,0,0:0:0:0:
109,192,36950,1,0,0:0:0:50:kick.wav
329,192,36950,1,0,0:0:0:50:electronic01.wav
475,192,36950,1,0,0:0:0:0:
182,192,37036,1,0,0:0:0:0:
36,192,37122,1,0,0:0:0:0:
329,192,37122,1,0,0:0:0:0:
475,192,37122,1,0,0:0:0:0:
109,192,37207,1,0,0:0:0:0:
256,192,37293,1,0,0:0:0:50:kick.wav
402,192,37293,1,0,0:0:0:0:
475,192,37293,1,0,0:0:0:0:
182,192,37379,1,0,0:0:0:0:
36,192,37465,1,0,0:0:0:0:
329,192,37465,1,0,0:0:0:0:
402,192,37550,1,0,0:0:0:0:
36,192,37636,1,0,0:0:0:50:kick.wav
109,192,37636,1,0,0:0:0:50:electronic01.wav
256,192,37636,1,0,0:0:0:0:
475,192,37722,1,0,0:0:0:0:
36,192,37807,1,0,0:0:0:0:
329,192,37807,1,0,0:0:0:0:
182,192,37893,1,0,0:0:0:0:
256,192,37979,1,0,0:0:0:50:kick.wav
402,192,37979,1,0,0:0:0:0:
475,192,37979,1,0,0:0:0:0:
36,192,38065,1,0,0:0:0:0:
182,192,38150,1,0,0:0:0:0:
402,192,38150,1,0,0:0:0:0:
329,192,38236,1,0,0:0:0:0:
109,192,38322,1,0,0:0:0:50:kick.wav
256,192,38322,1,0,0:0:0:50:electronic01.wav
475,192,38322,1,0,0:0:0:0:
402,192,38407,1,0,0:0:0:0:
36,192,38493,1,0,0:0:0:0:
109,192,38493,1,0,0:0:0:0:
256,192,38579,1,0,0:0:0:0:
109,192,38665,1,0,0:0:0:50:kick.wav
329,192,38665,1,0,0:0:0:0:
475,192,38665,1,0,0:0:0:0:
182,192,38750,1,0,0:0:0:0:
256,192,38836,1,0,0:0:0:0:
402,192,38836,1,0,0:0:0:0:
475,192,38836,1,0,0:0:0:0:
36,192,38922,1,0,0:0:0:0:
109,192,39007,1,0,0:0:0:50:kick.wav
329,192,39007,1,0,0:0:0:50:electronic01.wav
475,192,39007,1,0,0:0:0:0:
256,192,39093,1,0,0:0:0:0:
36,192,39179,1,0,0:0:0:0:
182,192,39179,1,0,0:0:0:0:
402,192,39179,1,0,0:0:0:0:
329,192,39265,1,0,0:0:0:0:
36,192,39350,1,0,0:0:0:50:kick.wav
109,192,39350,1,0,0:0:0:0:
256,192,39350,1,0,0:0:0:0:
475,192,39436,1,0,0:0:0:0:
36,192,39522,1,0,0:0:0:0:
182,192,39522,1,0,0:0:0:0:
402,192,39522,1,0,0:0:0:0:
256,192,39607,1,0,0:0:0:0:
109,192,39693,1,0,0:0:0:50:kick.wav
329,192,39693,1,0,0:0:0:50:electronic01.wav
475,192,39693,1,0,0:0:0:0:
182,192,39779,1,0,0:0:0:0:
256,192,39865,1,0,0:0:0:0:
402,192,39865,1,0,0:0:0:0:
475,192,39865,1,0,0:0:0:0:
36,192,39950,1,0,0:0:0:0:
109,192,40036,1,0,0:0:0:50:kick.wav
329,192,40036,1,0,0:0:0:0:
475,192,40036,1,0,0:0:0:0:
256,192,40122,1,0,0:0:0:0:
36,192,40207,1,0,0:0:0:0:
182,192,40207,1,0,0:0:0:0:
402,192,40207,1,0,0:0:0:0:
329,192,40293,1,0,0:0:0:0:
36,192,40379,1,0,0:0:0:50:kick.wav
109,192,40379,1,0,0:0:0:50:electronic01.wav
475,192,40379,1,0,0:0:0:0:
402,192,40465,1,0,0:0:0:0:
36,192,40550,1,0,0:0:0:0:
182,192,40550,1,0,0:0:0:0:
256,192,40550,1,0,0:0:0:0:
329,192,40636,1,0,0:0:0:0:
109,192,40722,1,0,0:0:0:50:kick.wav
402,192,40722,1,0,0:0:0:0:
475,192,40722,1,0,0:0:0:0:
182,192,40807,1,0,0:0:0:0:
329,192,40893,1,0,0:0:0:0:
402,192,40893,1,0,0:0:0:0:
475,192,40893,1,0,0:0:0:0:
256,192,40979,1,0,0:0:0:0:
36,192,41065,1,0,0:0:0:50:kick.wav
109,192,41065,1,0,0:0:0:50:electronic01.wav
182,192,41065,1,0,0:0:0:0:
402,192,41150,1,0,0:0:0:0:
36,192,41236,1,0,0:0:0:0:
109,192,41236,1,0,0:0:0:0:
256,192,41236,1,0,0:0:0:0:
329,192,41322,1,0,0:0:0:0:
182,192,41407,1,0,0:0:0:50:kick.wav
256,192,41407,1,0,0:0:0:0:
402,192,41407,1,0,0:0:0:0:
475,192,41407,1,0,0:0:0:0:
109,192,41493,1,0,0:0:0:0:
36,192,41579,1,0,0:0:0:0:
329,192,41579,1,0,0:0:0:0:
475,192,41579,1,0,0:0:0:0:
256,192,41665,1,0,0:0:0:0:
109,192,41750,1,0,0:0:0:50:kick.wav
182,192,41750,1,0,0:0:0:50:electronic01.wav
402,192,41750,1,0,0:0:0:0:
475,192,41750,1,0,0:0:0:0:
329,192,41836,1,0,0:0:0:0:
36,192,41922,1,0,0:0:0:0:
109,192,41922,1,0,0:0:0:0:
182,192,41922,1,0,0:0:0:0:
329,192,42007,1,0,0:0:0:0:
36,192,42093,1,0,0:0:0:50:kick.wav
256,192,42093,1,0,0:0:0:0:
402,192,42093,1,0,0:0:0:0:
475,192,42093,1,0,0:0:0:0:
182,192,42179,1,0,0:0:0:0:
36,192,42265,1,0,0:0:0:0:
109,192,42265,1,0,0:0:0:0:
329,192,42265,1,0,0:0:0:0:
402,192,42350,1,0,0:0:0:0:
109,192,42436,1,0,0:0:0:50:kick.wav
182,192,42436,1,0,0:0:0:50:electronic01.wav
256,192,42436,1,0,0:0:0:0:
475,192,42436,1,0,0:0:0:0:
329,192,42522,1,0,0:0:0:0:
182,192,42607,1,0,0:0:0:0:
402,192,42607,1,0,0:0:0:0:
475,192,42607,1,0,0:0:0:0:
36,192,42693,1,0,0:0:0:0:
109,192,42779,1,0,0:0:0:50:kick.wav
256,192,42779,1,0,0:0:0:0:
329,192,42779,1,0,0:0:0:0:
475,192,42779,1,0,0:0:0:0:
402,192,42865,1,0,0:0:0:0:
36,192,42950,1,0,0:0:0:0:
182,192,42950,1,0,0:0:0:0:
256,192,42950,1,0,0:0:0:0:
329,192,43036,1,0,0:0:0:0:
109,192,43122,1,0,0:0:0:50:kick.wav
182,192,43122,1,0,0:0:0:50:electronic01.wav
402,192,43122,1,0,0:0:0:0:
475,192,43122,1,0,0:0:0:0:
256,192,43207,1,0,0:0:0:0:
36,192,43293,1,0,0:0:0:0:
182,192,43293,1,0,0:0:0:0:
329,192,43293,1,0,0:0:0:0:
109,192,43379,1,0,0:0:0:0:
36,192,43465,1,0,0:0:0:50:kick.wav
256,192,43465,1,0,0:0:0:0:
402,192,43465,1,0,0:0:0:0:
475,192,43465,1,0,0:0:0:0:
182,192,43550,1,0,0:0:0:0:
329,192,43636,1,0,0:0:0:0:
402,192,43636,1,0,0:0:0:0:
475,192,43636,1,0,0:0:0:0:
182,192,43722,1,0,0:0:0:0:
36,192,43807,1,0,0:0:0:50:kick.wav
109,192,43807,1,0,0:0:0:50:electronic01.wav
256,192,43807,1,0,0:0:0:0:
329,192,43807,1,0,0:0:0:0:
475,192,43893,1,0,0:0:0:0:
36,192,43979,1,0,0:0:0:0:
109,192,43979,1,0,0:0:0:0:
182,192,43979,1,0,0:0:0:0:
329,192,44065,1,0,0:0:0:0:
256,192,44150,1,0,0:0:0:0:
402,192,44322,1,0,0:0:0:0:
109,192,44493,1,0,0:0:0:0:
475,192,44493,128,0,44836:0:0:0:0:
256,192,44665,1,0,0:0:0:0:
329,192,44836,128,0,45179:0:0:0:0:
475,192,45179,128,0,45350:0:0:0:0:
36,192,45350,1,0,0:0:0:0:
329,192,45350,128,0,45693:0:0:0:0:
109,192,45693,1,0,0:0:0:0:
256,192,45865,128,0,46207:0:0:0:0:
402,192,45865,1,0,0:0:0:0:
475,192,46036,1,0,0:0:0:0:
182,192,46207,128,0,46550:0:0:0:0:
402,192,46379,1,0,0:0:0:0:
36,192,46550,128,0,46893:0:0:0:0:
329,192,46550,1,0,0:0:0:0:
109,192,46893,128,0,47236:0:0:0:0:
256,192,46893,1,0,0:0:0:0:
329,192,47065,1,0,0:0:0:0:
402,192,47236,1,0,0:0:0:0:
256,192,47407,128,0,48607:0:0:0:0:
475,192,47407,1,0,0:0:0:0:
109,192,47750,1,0,0:0:0:0:
402,192,47922,1,0,0:0:0:0:
36,192,48093,1,0,0:0:0:0:
475,192,48265,1,0,0:0:0:0:
182,192,48436,1,0,0:0:0:0:
329,192,48607,1,0,0:0:0:0:
402,192,48779,128,0,49636:0:0:0:0:
36,192,49636,1,0,0:0:0:0:
182,192,49807,1,0,0:0:0:0:
256,192,49979,1,0,0:0:0:0:
329,192,49979,128,0,50322:0:0:0:0:
475,192,50150,1,0,0:0:0:0:
182,192,50322,128,0,50665:0:0:0:0:
329,192,50665,128,0,50836:0:0:0:0:
182,192,50836,128,0,51179:0:0:0:0:
256,192,51007,1,0,0:0:0:0:
329,192,51179,1,0,0:0:0:0:
109,192,51350,128,0,51693:0:0:0:0:
402,192,51350,1,0,0:0:0:0:
475,192,51522,1,0,0:0:0:0:
36,192,51693,128,0,52036:0:0:0:0:
402,192,52036,128,0,52379:0:0:0:0:
36,192,52379,1,0,0:0:0:0:
109,192,52379,128,0,52722:0:0:0:0:
256,192,52550,1,0,0:0:0:0:
475,192,52722,1,0,0:0:0:0:
329,192,52893,128,0,53236:0:0:0:0:
329,192,53407,128,0,53665:0:0:0:0:
36,192,53750,128,0,54007:0:0:0:0:
475,192,53750,128,0,54007:0:0:0:0:
109,192,54265,1,0,0:0:0:0:
182,192,54307,1,0,0:0:0:0:
402,192,54350,1,0,0:0:0:0:
329,192,54393,1,0,0:0:0:0:
36,192,54522,1,0,0:0:0:0:
109,192,54522,1,0,0:0:0:0:
329,192,54607,1,0,0:0:0:0:
475,192,54607,1,0,0:0:0:0:
329,192,54693,1,0,0:0:0:0:
475,192,54693,1,0,0:0:0:0:
36,192,54779,1,0,0:0:0:0:
109,192,54779,1,0,0:0:0:0:
182,192,54779,1,0,0:0:0:0:
329,192,54836,1,0,0:0:0:0:
402,192,54836,1,0,0:0:0:0:
475,192,54836,1,0,0:0:0:0:
36,192,54893,1,0,0:0:0:0:
109,192,54893,1,0,0:0:0:0:
182,192,54893,1,0,0:0:0:0:
256,192,54950,1,0,0:0:0:0:
329,192,55007,1,0,0:0:0:0:
402,192,55007,1,0,0:0:0:0:
475,192,55007,1,0,0:0:0:0:
36,192,55122,1,0,0:0:0:0:
109,192,55122,1,0,0:0:0:0:
182,192,55122,1,0,0:0:0:0:
36,192,55293,1,0,0:0:0:0:
182,192,55293,1,0,0:0:0:0:
256,192,55465,1,0,0:0:0:0:
329,192,55465,128,0,55807:0:0:0:0:
475,192,55465,1,0,0:0:0:0:
36,192,55636,1,0,0:0:0:0:
109,192,55636,1,0,0:0:0:0:
182,192,55636,1,0,0:0:0:0:
182,192,55807,128,0,56150:0:0:0:0:
256,192,55979,1,0,0:0:0:0:
402,192,55979,1,0,0:0:0:0:
475,192,55979,1,0,0:0:0:0:
329,192,56150,128,0,56322:0:0:0:0:
182,192,56322,128,0,56836:0:0:0:0:
402,192,56836,128,0,57007:0:0:0:0:
256,192,57179,128,0,57522:0:0:0:0:
109,192,57522,1,0,0:0:0:0:
109,192,57693,128,0,57865:0:0:0:0:
36,192,57865,1,0,0:0:0:0:
182,192,57865,1,0,0:0:0:0:
329,192,57865,1,0,0:0:0:0:
182,192,58036,1,0,0:0:0:0:
329,192,58036,1,0,0:0:0:0:
36,192,58207,1,0,0:0:0:0:
256,192,58207,1,0,0:0:0:0:
402,192,58207,1,0,0:0:0:0:
182,192,58379,1,0,0:0:0:0:
329,192,58379,1,0,0:0:0:0:
475,192,58379,1,0,0:0:0:0:
182,192,58550,1,0,0:0:0:0:
329,192,58550,1,0,0:0:0:0:
36,192,58722,1,0,0:0:0:0:
402,192,58722,1,0,0:0:0:0:
475,192,58722,1,0,0:0:0:0:
182,192,59236,1,0,0:0:0:0:
329,192,59236,1,0,0:0:0:0:
475,192,59236,1,0,0:0:0:0:
329,192,59407,1,0,0:0:0:0:
475,192,59407,1,0,0:0:0:0:
36,192,59579,1,0,0:0:0:0:
109,192,59579,1,0,0:0:0:0:
256,192,59579,1,0,0:0:0:0:
182,192,59750,1,0,0:0:0:0:
329,192,59750,1,0,0:0:0:0:
475,192,59750,1,0,0:0:0:0:
329,192,59922,1,0,0:0:0:0:
475,192,59922,1,0,0:0:0:0:
36,192,60093,1,0,0:0:0:0:
182,192,60093,1,0,0:0:0:0:
256,192,60093,1,0,0:0:0:0:
36,192,60607,1,0,0:0:0:0:
182,192,60607,1,0,0:0:0:0:
475,192,60607,1,0,0:0:0:0:
36,192,60779,1,0,0:0:0:0:
182,192,60779,1,0,0:0:0:0:
109,192,60950,1,0,0:0:0:0:
256,192,60950,1,0,0:0:0:0:
402,192,60950,1,0,0:0:0:0:
36,192,61122,1,0,0:0:0:0:
329,192,61122,1,0,0:0:0:0:
475,192,61122,1,0,0:0:0:0:
329,192,61293,1,0,0:0:0:0:
475,192,61293,1,0,0:0:0:0:
36,192,61465,1,0,0:0:0:0:
182,192,61465,1,0,0:0:0:0:
256,192,61465,1,0,0:0:0:0:
329,192,61636,1,0,0:0:0:0:
402,192,61636,1,0,0:0:0:0:
475,192,61636,128,0,61979:0:0:0:0:
109,192,61807,1,0,0:0:0:0:
329,192,61807,1,0,0:0:0:0:
36,192,61979,128,0,62322:0:0:0:0:
256,192,61979,1,0,0:0:0:0:
402,192,62065,1,0,0:0:0:0:
182,192,62150,1,0,0:0:0:0:
329,192,62236,1,0,0:0:0:0:
109,192,62322,1,0,0:0:0:0:
402,192,62322,1,0,0:0:0:0:
475,192,62322,1,0,0:0:0:0:
182,192,62493,1,0,0:0:0:0:
256,192,62493,128,0,62836:0:0:0:0:
329,192,62579,1,0,0:0:0:0:
475,192,62579,1,0,0:0:0:0:
36,192,62665,1,0,0:0:0:0:
182,192,62707,1,0,0:0:0:0:
475,192,62750,1,0,0:0:0:0:
402,192,62793,1,0,0:0:0:0:
329,192,62836,1,0,0:0:0:0:
109,192,62922,1,0,0:0:0:0:
182,192,63007,1,0,0:0:0:0:
475,192,63007,128,0,64036:0:0:0:0:
36,192,63179,128,0,63350:0:0:0:0:
256,192,63350,1,0,0:0:0:0:
402,192,63350,1,0,0:0:0:0:
109,192,63465,1,0,0:0:0:0:
36,192,63636,1,0,0:0:0:0:
182,192,63636,1,0,0:0:0:0:
329,192,63807,1,0,0:0:0:0:
329,192,64036,1,0,0:0:0:0:
36,192,64207,128,0,64550:0:0:0:0:
182,192,64207,128,0,64550:0:0:0:0:
329,192,64379,128,0,64550:0:0:0:0:
475,192,64379,128,0,64550:0:0:0:0:
256,192,64550,128,0,66093:0:0:0:0:
402,192,64550,1,0,0:0:0:0:
36,192,66093,128,0,67122:0:0:0:50:kick.wav
109,192,66093,1,0,0:0:0:50:crash.wav
329,192,66093,128,0,66607:0:0:0:0:
402,192,66093,1,0,0:0:0:0:
475,192,66093,1,0,0:0:0:0:
182,192,66265,1,0,0:0:0:0:
475,192,66436,1,0,0:0:0:0:
109,192,66607,128,0,67636:0:0:0:0:
256,192,66607,1,0,0:0:0:0:
402,192,66607,128,0,67122:0:0:0:0:
182,192,66779,1,0,0:0:0:0:
329,192,66950,1,0,0:0:0:0:
182,192,67122,128,0,68150:0:0:0:50:kick.wav
256,192,67122,1,0,0:0:0:0:
475,192,67122,128,0,69179:0:0:0:0:
402,192,67293,1,0,0:0:0:0:
36,192,67465,1,0,0:0:0:0:
329,192,67636,1,0,0:0:0:0:
256,192,67807,1,0,0:0:0:0:
402,192,67979,1,0,0:0:0:0:
36,192,68150,1,0,0:0:0:70:Snare_4.wav
109,192,68150,1,0,0:0:0:0:
182,192,68365,1,0,0:0:0:50:kick.wav
256,192,68365,1,0,0:0:0:0:
329,192,68365,1,0,0:0:0:0:
402,192,68493,1,0,0:0:0:0:
109,192,68665,1,0,0:0:0:0:
36,192,68836,1,0,0:0:0:50:kick.wav
256,192,68836,1,0,0:0:0:0:
329,192,68836,1,0,0:0:0:0:
109,192,69007,1,0,0:0:0:0:
182,192,69179,1,0,0:0:0:0:
402,192,69350,1,0,0:0:0:0:
329,192,69522,1,0,0:0:0:0:
182,192,69693,1,0,0:0:0:0:
36,192,69865,1,0,0:0:0:50:kick.wav
256,192,69865,1,0,0:0:0:0:
475,192,69865,128,0,70122:0:0:0:0:
329,192,70036,1,0,0:0:0:0:
329,192,70207,128,0,70465:0:0:0:0:
475,192,70207,1,0,0:0:0:0:
182,192,70379,1,0,0:0:0:0:
182,192,70550,128,0,70807:0:0:0:50:kick.wav
256,192,70550,1,0,0:0:0:0:
329,192,70550,1,0,0:0:0:0:
36,192,70722,1,0,0:0:0:0:
475,192,70807,1,0,0:0:0:70:Snare_4.wav
329,192,70850,1,0,0:0:0:70:Snare_4.wav
36,192,70893,128,0,71150:0:0:0:70:Snare_4.wav
182,192,70893,1,0,0:0:0:0:
256,192,71107,1,0,0:0:0:50:kick.wav
329,192,71107,1,0,0:0:0:0:
402,192,71107,1,0,0:0:0:0:
36,192,71236,1,0,0:0:0:0:
475,192,71236,128,0,71579:0:0:0:0:
109,192,71407,1,0,0:0:0:70:Snare_4.wav
182,192,71450,1,0,0:0:0:70:Snare_4.wav
256,192,71493,1,0,0:0:0:70:Snare_4.wav
329,192,71536,1,0,0:0:0:70:Snare_4.wav
36,192,71579,128,0,72607:0:0:0:50:kick.wav
109,192,71579,128,0,72093:0:0:0:0:
402,192,71579,1,0,0:0:0:0:
182,192,71750,1,0,0:0:0:0:
256,192,71922,1,0,0:0:0:0:
182,192,72093,128,0,73122:0:0:0:0:
329,192,72093,128,0,72607:0:0:0:0:
402,192,72093,1,0,0:0:0:0:
475,192,72265,1,0,0:0:0:0:
109,192,72436,1,0,0:0:0:0:
256,192,72607,1,0,0:0:0:50:kick.wav
402,192,72607,128,0,73636:0:0:0:0:
475,192,72607,128,0,75693:0:0:0:0:
36,192,72779,1,0,0:0:0:0:
109,192,72950,1,0,0:0:0:0:
256,192,73122,1,0,0:0:0:0:
109,192,73293,1,0,0:0:0:0:
329,192,73465,1,0,0:0:0:0:
36,192,73636,1,0,0:0:0:70:Snare_4.wav
182,192,73636,1,0,0:0:0:0:
109,192,73850,1,0,0:0:0:50:kick.wav
256,192,73850,1,0,0:0:0:0:
329,192,73850,1,0,0:0:0:0:
402,192,73979,1,0,0:0:0:0:
182,192,74150,1,0,0:0:0:0:
36,192,74322,1,0,0:0:0:50:kick.wav
109,192,74322,1,0,0:0:0:0:
256,192,74322,1,0,0:0:0:0:
329,192,74493,1,0,0:0:0:0:
402,192,74665,1,0,0:0:0:0:
109,192,74836,1,0,0:0:0:0:
329,192,75007,1,0,0:0:0:0:
182,192,75179,1,0,0:0:0:0:
36,192,75350,1,0,0:0:0:50:kick.wav
109,192,75350,1,0,0:0:0:0:
256,192,75350,1,0,0:0:0:0:
402,192,75522,1,0,0:0:0:0:
182,192,75693,1,0,0:0:0:0:
329,192,75865,1,0,0:0:0:0:
36,192,76036,1,0,0:0:0:50:kick.wav
256,192,76036,1,0,0:0:0:0:
475,192,76036,1,0,0:0:0:0:
109,192,76293,1,0,0:0:0:70:Snare_4.wav
182,192,76336,1,0,0:0:0:70:Snare_4.wav
256,192,76379,1,0,0:0:0:70:Snare_4.wav
402,192,76379,1,0,0:0:0:0:
36,192,76493,1,0,0:0:0:50:kick.wav
329,192,76493,1,0,0:0:0:0:
475,192,76493,1,0,0:0:0:0:
256,192,76722,1,0,0:0:0:0:
329,192,76765,1,0,0:0:0:50:kick.wav
402,192,76765,1,0,0:0:0:0:
475,192,76765,1,0,0:0:0:0:
36,192,76807,1,0,0:0:0:70:Snare_4.wav
109,192,76850,1,0,0:0:0:70:Snare_4.wav
182,192,76893,1,0,0:0:0:70:Snare_4.wav
256,192,76936,1,0,0:0:0:70:Snare_4.wav
475,192,76979,1,0,0:0:0:70:Snare_4.wav
329,192,77022,1,0,0:0:0:70:Snare_4.wav
36,192,77065,1,0,0:0:0:50:kick.wav
109,192,77065,1,0,0:0:0:0:
182,192,77065,1,0,0:0:0:0:
256,192,77150,1,0,0:0:0:0:
475,192,77236,1,0,0:0:0:0:
182,192,77322,1,0,0:0:0:0:
402,192,77407,1,0,0:0:0:0:
109,192,77493,1,0,0:0:0:0:
182,192,77579,1,0,0:0:0:0:
329,192,77579,1,0,0:0:0:0:
475,192,77579,1,0,0:0:0:0:
36,192,77665,1,0,0:0:0:0:
256,192,77750,1,0,0:0:0:0:
475,192,77836,1,0,0:0:0:0:
182,192,77922,1,0,0:0:0:0:
402,192,78007,1,0,0:0:0:0:
36,192,78093,1,0,0:0:0:50:kick.wav
109,192,78093,1,0,0:0:0:0:
475,192,78093,1,0,0:0:0:0:
256,192,78179,1,0,0:0:0:0:
36,192,78265,1,0,0:0:0:0:
329,192,78350,1,0,0:0:0:0:
109,192,78436,1,0,0:0:0:0:
402,192,78522,1,0,0:0:0:0:
182,192,78607,1,0,0:0:0:0:
475,192,78693,1,0,0:0:0:0:
256,192,78779,1,0,0:0:0:0:
36,192,78865,1,0,0:0:0:0:
329,192,78950,1,0,0:0:0:0:
109,192,79036,1,0,0:0:0:0:
182,192,79122,1,0,0:0:0:50:snare.wav
256,192,79122,1,0,0:0:0:0:
402,192,79122,1,0,0:0:0:0:
475,192,79122,1,0,0:0:0:0:
36,192,79293,1,0,0:0:0:0:
109,192,79322,1,0,0:0:0:0:
182,192,79350,1,0,0:0:0:0:
475,192,79379,1,0,0:0:0:0:
402,192,79407,1,0,0:0:0:0:
329,192,79436,1,0,0:0:0:0:
256,192,79465,1,0,0:0:0:0:
36,192,79550,1,0,0:0:0:0:
329,192,79636,1,0,0:0:0:0:
109,192,79722,1,0,0:0:0:0:
256,192,79807,1,0,0:0:0:50:kick.wav
402,192,79807,1,0,0:0:0:0:
475,192,79807,1,0,0:0:0:0:
182,192,79893,1,0,0:0:0:0:
36,192,79979,1,0,0:0:0:0:
256,192,80065,1,0,0:0:0:0:
109,192,80150,1,0,0:0:0:0:
329,192,80236,1,0,0:0:0:0:
182,192,80322,1,0,0:0:0:0:
402,192,80407,1,0,0:0:0:0:
256,192,80493,1,0,0:0:0:0:
475,192,80579,1,0,0:0:0:0:
329,192,80665,1,0,0:0:0:0:
182,192,80750,1,0,0:0:0:0:
36,192,80836,1,0,0:0:0:50:kick.wav
109,192,80836,1,0,0:0:0:0:
402,192,80836,1,0,0:0:0:0:
329,192,80922,1,0,0:0:0:0:
475,192,81007,1,0,0:0:0:0:
256,192,81093,1,0,0:0:0:0:
36,192,81179,1,0,0:0:0:0:
329,192,81179,1,0,0:0:0:0:
402,192,81179,1,0,0:0:0:0:
182,192,81265,1,0,0:0:0:0:
329,192,81350,1,0,0:0:0:0:
109,192,81436,1,0,0:0:0:0:
256,192,81522,1,0,0:0:0:0:
402,192,81522,1,0,0:0:0:0:
475,192,81522,1,0,0:0:0:0:
36,192,81607,1,0,0:0:0:0:
182,192,81693,1,0,0:0:0:0:
256,192,81779,1,0,0:0:0:70:Snare_4.wav
329,192,81822,1,0,0:0:0:70:Snare_4.wav
36,192,81865,1,0,0:0:0:50:snare.wav
109,192,81865,1,0,0:0:0:0:
402,192,81865,1,0,0:0:0:0:
475,192,81865,1,0,0:0:0:0:
182,192,82036,1,0,0:0:0:0:
256,192,82065,1,0,0:0:0:0:
329,192,82093,1,0,0:0:0:50:kick.wav
402,192,82093,1,0,0:0:0:0:
475,192,82093,1,0,0:0:0:0:
36,192,82207,1,0,0:0:0:0:
109,192,82236,1,0,0:0:0:0:
182,192,82265,1,0,0:0:0:0:
256,192,82293,1,0,0:0:0:0:
329,192,82322,1,0,0:0:0:50:kick.wav
402,192,82322,1,0,0:0:0:0:
475,192,82322,1,0,0:0:0:0:
109,192,82379,1,0,0:0:0:70:Snare_4.wav
182,192,82422,1,0,0:0:0:70:Snare_4.wav
329,192,82465,1,0,0:0:0:70:Snare_4.wav
402,192,82507,1,0,0:0:0:70:Snare_4.wav
36,192,82550,1,0,0:0:0:50:kick.wav
109,192,82550,1,0,0:0:0:0:
256,192,82550,1,0,0:0:0:0:
182,192,82636,1,0,0:0:0:0:
475,192,82722,1,0,0:0:0:0:
36,192,82807,1,0,0:0:0:0:
402,192,82893,1,0,0:0:0:0:
109,192,82979,1,0,0:0:0:0:
256,192,83065,1,0,0:0:0:0:
329,192,83065,1,0,0:0:0:0:
475,192,83065,1,0,0:0:0:0:
182,192,83150,1,0,0:0:0:0:
36,192,83236,1,0,0:0:0:50:snare.wav
109,192,83236,1,0,0:0:0:0:
256,192,83236,1,0,0:0:0:0:
402,192,83236,1,0,0:0:0:0:
475,192,83407,1,0,0:0:0:0:
402,192,83436,1,0,0:0:0:0:
329,192,83465,1,0,0:0:0:0:
36,192,83493,1,0,0:0:0:0:
109,192,83522,1,0,0:0:0:0:
182,192,83550,1,0,0:0:0:0:
256,192,83579,1,0,0:0:0:50:kick.wav
402,192,83579,1,0,0:0:0:0:
475,192,83579,1,0,0:0:0:0:
329,192,83665,1,0,0:0:0:0:
182,192,83750,1,0,0:0:0:0:
402,192,83836,1,0,0:0:0:0:
109,192,83922,1,0,0:0:0:0:
475,192,84007,1,0,0:0:0:0:
36,192,84093,1,0,0:0:0:0:
329,192,84179,1,0,0:0:0:0:
109,192,84265,1,0,0:0:0:50:snare.wav
182,192,84265,1,0,0:0:0:0:
402,192,84265,1,0,0:0:0:0:
475,192,84265,1,0,0:0:0:0:
36,192,84436,1,0,0:0:0:0:
109,192,84465,1,0,0:0:0:0:
182,192,84493,1,0,0:0:0:0:
256,192,84522,1,0,0:0:0:0:
475,192,84550,1,0,0:0:0:0:
402,192,84579,1,0,0:0:0:0:
36,192,84607,1,0,0:0:0:50:kick.wav
109,192,84607,1,0,0:0:0:0:
329,192,84607,1,0,0:0:0:0:
182,192,84665,1,0,0:0:0:0:
256,192,84722,1,0,0:0:0:0:
329,192,84779,1,0,0:0:0:0:
402,192,84836,1,0,0:0:0:0:
475,192,84893,1,0,0:0:0:0:
36,192,84950,1,0,0:0:0:0:
109,192,85007,1,0,0:0:0:0:
182,192,85065,1,0,0:0:0:0:
256,192,85122,1,0,0:0:0:0:
475,192,85179,1,0,0:0:0:0:
402,192,85236,1,0,0:0:0:0:
329,192,85293,1,0,0:0:0:0:
182,192,85336,1,0,0:0:0:0:
109,192,85379,1,0,0:0:0:0:
36,192,85422,1,0,0:0:0:0:
475,192,85465,1,0,0:0:0:0:
402,192,85507,1,0,0:0:0:0:
329,192,85550,1,0,0:0:0:0:
256,192,85593,1,0,0:0:0:0:
182,192,85636,1,0,0:0:0:0:
109,192,85679,1,0,0:0:0:0:
36,192,85722,1,0,0:0:0:0:
475,192,85765,1,0,0:0:0:0:
402,192,85807,1,0,0:0:0:0:
329,192,85850,1,0,0:0:0:0:
36,192,85893,1,0,0:0:0:0:
109,192,85936,1,0,0:0:0:0:
182,192,85979,1,0,0:0:0:0:
475,192,86007,1,0,0:0:0:0:
402,192,86036,1,0,0:0:0:0:
329,192,86065,1,0,0:0:0:0:
36,192,86093,1,0,0:0:0:0:
109,192,86122,1,0,0:0:0:0:
182,192,86150,1,0,0:0:0:0:
475,192,86179,1,0,0:0:0:0:
402,192,86207,1,0,0:0:0:0:
329,192,86236,1,0,0:0:0:0:
36,192,86265,1,0,0:0:0:0:
109,192,86293,1,0,0:0:0:0:
182,192,86322,1,0,0:0:0:0:
475,192,86350,1,0,0:0:0:0:
402,192,86379,1,0,0:0:0:0:
329,192,86407,1,0,0:0:0:0:
36,192,86436,1,0,0:0:0:0:
109,192,86465,1,0,0:0:0:0:
182,192,86493,1,0,0:0:0:50:kick.wav
256,192,86493,1,0,0:0:0:0:
475,192,86493,128,0,87350:0:0:0:0:
109,192,87179,128,0,87265:0:0:0:0:
182,192,87350,128,0,87436:0:0:0:0:
256,192,87522,128,0,87607:0:0:0:0:
329,192,87693,128,0,87779:0:0:0:0:
402,192,87865,128,0,87950:0:0:0:0:
36,192,88036,128,0,88722:0:0:0:50:kick.wav
182,192,88036,128,0,88722:0:0:0:50:crash.wav
329,192,88036,128,0,89065:0:0:0:0:
475,192,88036,128,0,88722:0:0:0:0:
36,192,88893,128,0,89065:0:0:0:0:
182,192,88893,128,0,89065:0:0:0:0:
475,192,89065,128,0,89236:0:0:0:0:
109,192,89236,128,0,89922:0:0:0:0:
256,192,89236,128,0,89922:0:0:0:0:
402,192,89236,128,0,89922:0:0:0:0:
182,192,89922,128,0,90436:0:0:0:0:
329,192,89922,128,0,90436:0:0:0:0:
256,192,90436,128,0,90779:0:0:0:0:
402,192,90436,128,0,90779:0:0:0:0:
36,192,90607,128,0,91122:0:0:0:0:
329,192,90779,128,0,91465:0:0:0:0:
475,192,90779,128,0,91465:0:0:0:0:
182,192,91122,128,0,91465:0:0:0:0:
109,192,91465,128,0,91807:0:0:0:0:
256,192,91636,128,0,91807:0:0:0:0:
402,192,91636,128,0,91807:0:0:0:0:
182,192,91807,128,0,91979:0:0:0:0:
36,192,91979,128,0,92493:0:0:0:0:
329,192,91979,128,0,92493:0:0:0:0:
475,192,91979,128,0,92493:0:0:0:0:
109,192,92493,128,0,92836:0:0:0:0:
182,192,92665,128,0,93179:0:0:0:0:
329,192,92665,128,0,93179:0:0:0:0:
402,192,92836,128,0,93179:0:0:0:0:
36,192,93179,128,0,93522:0:0:0:0:
109,192,93179,128,0,93522:0:0:0:0:
256,192,93179,128,0,93522:0:0:0:0:
182,192,93522,128,0,94207:0:0:0:0:
329,192,93522,128,0,94207:0:0:0:0:
475,192,93522,128,0,94207:0:0:0:0:
329,192,94379,128,0,94550:0:0:0:0:
475,192,94379,128,0,94550:0:0:0:0:
109,192,94550,128,0,94722:0:0:0:0:
182,192,94722,128,0,95407:0:0:0:0:
329,192,94722,128,0,95407:0:0:0:0:
475,192,94722,128,0,95407:0:0:0:0:
109,192,95407,128,0,95922:0:0:0:0:
402,192,95407,128,0,95922:0:0:0:0:
256,192,95750,128,0,95922:0:0:0:0:
182,192,95922,128,0,96265:0:0:0:0:
329,192,95922,128,0,96093:0:0:0:0:
475,192,95922,128,0,96265:0:0:0:0:
36,192,96093,128,0,96950:0:0:0:0:
256,192,96265,128,0,96950:0:0:0:0:
402,192,96265,128,0,96950:0:0:0:0:
182,192,97122,128,0,97293:0:0:0:0:
329,192,97122,128,0,97293:0:0:0:0:
475,192,97122,128,0,97293:0:0:0:0:
109,192,97465,128,0,97807:0:0:0:0:
256,192,97465,128,0,97979:0:0:0:0:
36,192,97636,128,0,97979:0:0:0:0:
475,192,97722,128,0,97979:0:0:0:0:
402,192,97807,128,0,98065:0:0:0:0:
329,192,97893,128,0,98150:0:0:0:0:
109,192,97979,128,0,98236:0:0:0:0:
182,192,98065,128,0,98322:0:0:0:0:
36,192,98150,128,0,98493:0:0:0:0:
256,192,98150,128,0,98493:0:0:0:0:
475,192,98150,128,0,98493:0:0:0:0:
402,192,98236,128,0,98579:0:0:0:0:
329,192,98322,128,0,98665:0:0:0:0:
109,192,98407,128,0,98579:0:0:0:0:
182,192,98493,128,0,98665:0:0:0:0:
36,192,98665,128,0,98922:0:0:0:70:clap_wave.wav
109,192,98665,128,0,98922:0:0:0:0:
256,192,98665,128,0,98922:0:0:0:0:
402,192,98665,128,0,98922:0:0:0:0:
475,192,98665,128,0,98922:0:0:0:0:
36,192,99007,128,0,99693:0:0:0:50:kick.wav
109,192,99007,1,0,0:0:0:50:crash.wav
182,192,99007,128,0,99693:0:0:0:0:
256,192,99007,128,0,99179:0:0:0:0:
402,192,99007,1,0,0:0:0:0:
475,192,99179,128,0,99350:0:0:0:0:
402,192,99350,128,0,99522:0:0:0:0:
329,192,99522,128,0,99693:0:0:0:0:
475,192,99693,128,0,99865:0:0:0:0:
36,192,99865,128,0,100036:0:0:0:0:
182,192,99865,128,0,100036:0:0:0:0:
402,192,99865,128,0,100036:0:0:0:0:
329,192,100036,128,0,100207:0:0:0:0:
36,192,100207,128,0,100893:0:0:0:0:
182,192,100207,128,0,100893:0:0:0:0:
475,192,100207,128,0,100379:0:0:0:0:
402,192,100379,128,0,100550:0:0:0:0:
329,192,100550,128,0,100722:0:0:0:0:
475,192,100722,128,0,100893:0:0:0:0:
109,192,100893,128,0,101407:0:0:0:0:
256,192,100893,128,0,101407:0:0:0:0:
402,192,100893,128,0,101065:0:0:0:0:
329,192,101065,128,0,101236:0:0:0:0:
475,192,101236,128,0,101407:0:0:0:0:
36,192,101407,128,0,101750:0:0:0:0:
182,192,101407,128,0,101750:0:0:0:0:
329,192,101407,128,0,101579:0:0:0:0:
402,192,101579,128,0,101750:0:0:0:0:
109,192,101750,128,0,101922:0:0:0:0:
329,192,101750,128,0,102436:0:0:0:0:
475,192,101750,128,0,102436:0:0:0:0:
256,192,101922,128,0,102093:0:0:0:0:
182,192,102093,128,0,102265:0:0:0:0:
36,192,102265,128,0,102436:0:0:0:0:
109,192,102436,128,0,102607:0:0:0:0:
256,192,102607,128,0,102779:0:0:0:0:
402,192,102607,128,0,102779:0:0:0:0:
475,192,102607,128,0,102779:0:0:0:0:
109,192,102779,128,0,102950:0:0:0:0:
36,192,102950,128,0,103122:0:0:0:0:
182,192,102950,128,0,103465:0:0:0:0:
329,192,102950,128,0,103465:0:0:0:0:
475,192,103122,128,0,103293:0:0:0:0:
402,192,103293,128,0,103465:0:0:0:0:
36,192,103465,128,0,103636:0:0:0:0:
109,192,103636,128,0,104150:0:0:0:0:
256,192,103636,128,0,104150:0:0:0:0:
329,192,103636,128,0,103807:0:0:0:0:
475,192,103807,128,0,103979:0:0:0:0:
402,192,103979,128,0,104150:0:0:0:0:
36,192,104150,128,0,104493:0:0:0:0:
182,192,104150,128,0,104493:0:0:0:0:
329,192,104150,128,0,104493:0:0:0:0:
475,192,104322,128,0,104493:0:0:0:0:
109,192,104493,128,0,104665:0:0:0:0:
256,192,104493,128,0,105179:0:0:0:0:
402,192,104493,128,0,105179:0:0:0:0:
182,192,104665,128,0,105007:0:0:0:0:
109,192,104836,128,0,105179:0:0:0:0:
36,192,105007,128,0,105350:0:0:0:0:
182,192,105179,128,0,105522:0:0:0:0:
109,192,105350,128,0,105693:0:0:0:0:
256,192,105350,128,0,105522:0:0:0:0:
402,192,105350,128,0,105522:0:0:0:0:
36,192,105522,128,0,105865:0:0:0:0:
256,192,105693,128,0,106036:0:0:0:0:
329,192,105693,128,0,106379:0:0:0:0:
475,192,105693,128,0,106379:0:0:0:0:
182,192,105865,128,0,106207:0:0:0:0:
109,192,106036,128,0,106379:0:0:0:0:
256,192,106207,128,0,106550:0:0:0:0:
36,192,106379,128,0,107065:0:0:0:0:
182,192,106379,128,0,107236:0:0:0:0:
402,192,106379,128,0,106722:0:0:0:0:
329,192,106550,128,0,106893:0:0:0:0:
475,192,106722,128,0,107065:0:0:0:0:
402,192,106893,128,0,107236:0:0:0:0:
329,192,107065,128,0,107236:0:0:0:0:
36,192,107236,128,0,108607:0:0:0:0:
109,192,107236,128,0,107579:0:0:0:0:
475,192,107236,128,0,108436:0:0:0:0:
402,192,107407,128,0,107922:0:0:0:0:
256,192,107579,128,0,107750:0:0:0:0:
109,192,107750,128,0,108265:0:0:0:0:
256,192,107922,128,0,108093:0:0:0:0:
402,192,108093,128,0,108436:0:0:0:0:
256,192,108265,128,0,108607:0:0:0:0:
109,192,108436,128,0,108607:0:0:0:0:
402,192,108522,128,0,108607:0:0:0:0:
475,192,108607,128,0,109465:0:0:0:0:
329,192,108693,128,0,108779:0:0:0:0:
402,192,108779,128,0,109293:0:0:0:0:
256,192,108865,128,0,109036:0:0:0:0:
329,192,108950,128,0,109122:0:0:0:0:
182,192,109036,128,0,109207:0:0:0:0:
36,192,109122,128,0,109550:0:0:0:0:
256,192,109207,128,0,109379:0:0:0:0:
109,192,109293,128,0,109550:0:0:0:0:
329,192,109379,128,0,109550:0:0:0:0:
182,192,109465,128,0,109550:0:0:0:0:
402,192,109550,128,0,109636:0:0:0:0:
36,192,109636,128,0,109979:0:0:0:70:clap_wave.wav
109,192,109636,128,0,109722:0:0:0:0:
182,192,109636,128,0,109807:0:0:0:0:
475,192,109636,128,0,109979:0:0:0:0:
256,192,109722,128,0,109893:0:0:0:0:
329,192,109807,128,0,109979:0:0:0:0:
402,192,109893,128,0,109979:0:0:0:0:
109,192,109979,1,0,0:0:0:50:kick.wav
182,192,109979,1,0,0:0:0:0:
256,192,109979,1,0,0:0:0:0:
36,192,110150,1,0,0:0:0:0:
329,192,110150,1,0,0:0:0:0:
109,192,110322,1,0,0:0:0:0:
256,192,110322,1,0,0:0:0:0:
402,192,110322,1,0,0:0:0:0:
182,192,110493,1,0,0:0:0:0:
329,192,110579,1,0,0:0:0:0:
475,192,110579,1,0,0:0:0:0:
109,192,110665,1,0,0:0:0:0:
256,192,110750,1,0,0:0:0:0:
402,192,110750,1,0,0:0:0:0:
36,192,110836,1,0,0:0:0:0:
109,192,111007,1,0,0:0:0:0:
182,192,111007,1,0,0:0:0:0:
329,192,111007,1,0,0:0:0:0:
256,192,111179,1,0,0:0:0:0:
402,192,111179,1,0,0:0:0:0:
36,192,111265,1,0,0:0:0:0:
109,192,111265,1,0,0:0:0:0:
182,192,111265,1,0,0:0:0:0:
329,192,111350,1,0,0:0:0:0:
475,192,111350,1,0,0:0:0:0:
109,192,111522,1,0,0:0:0:0:
256,192,111522,1,0,0:0:0:0:
182,192,111693,1,0,0:0:0:0:
402,192,111693,1,0,0:0:0:0:
475,192,111693,1,0,0:0:0:0:
329,192,111865,1,0,0:0:0:0:
36,192,111950,1,0,0:0:0:0:
182,192,111950,1,0,0:0:0:0:
402,192,112036,1,0,0:0:0:0:
109,192,112122,1,0,0:0:0:0:
256,192,112122,1,0,0:0:0:0:
329,192,112207,1,0,0:0:0:0:
475,192,112207,1,0,0:0:0:0:
36,192,112293,1,0,0:0:0:0:
182,192,112293,1,0,0:0:0:0:
329,192,112379,1,0,0:0:0:0:
402,192,112379,1,0,0:0:0:0:
475,192,112379,1,0,0:0:0:0:
109,192,112465,1,0,0:0:0:0:
329,192,112550,1,0,0:0:0:0:
402,192,112550,1,0,0:0:0:0:
475,192,112550,1,0,0:0:0:0:
36,192,112636,1,0,0:0:0:0:
109,192,112636,1,0,0:0:0:0:
182,192,112636,1,0,0:0:0:0:
256,192,112722,1,0,0:0:0:0:
402,192,112722,1,0,0:0:0:0:
109,192,112893,1,0,0:0:0:0:
329,192,112893,1,0,0:0:0:0:
36,192,113065,1,0,0:0:0:0:
182,192,113065,1,0,0:0:0:0:
475,192,113065,1,0,0:0:0:0:
329,192,113236,1,0,0:0:0:0:
109,192,113322,1,0,0:0:0:0:
182,192,113322,1,0,0:0:0:0:
475,192,113407,1,0,0:0:0:0:
256,192,113493,1,0,0:0:0:0:
329,192,113493,1,0,0:0:0:0:
109,192,113579,1,0,0:0:0:0:
402,192,113665,1,0,0:0:0:0:
36,192,113750,1,0,0:0:0:0:
182,192,113750,1,0,0:0:0:0:
256,192,113750,1,0,0:0:0:0:
329,192,113922,1,0,0:0:0:0:
475,192,113922,1,0,0:0:0:0:
36,192,114007,1,0,0:0:0:0:
109,192,114007,1,0,0:0:0:0:
256,192,114007,1,0,0:0:0:0:
402,192,114093,1,0,0:0:0:0:
475,192,114093,1,0,0:0:0:0:
182,192,114265,1,0,0:0:0:0:
329,192,114265,1,0,0:0:0:0:
36,192,114436,1,0,0:0:0:0:
109,192,114436,1,0,0:0:0:0:
256,192,114436,1,0,0:0:0:0:
182,192,114607,1,0,0:0:0:0:
329,192,114693,1,0,0:0:0:0:
402,192,114693,1,0,0:0:0:0:
36,192,114779,1,0,0:0:0:0:
182,192,114865,1,0,0:0:0:0:
256,192,114865,1,0,0:0:0:0:
402,192,114950,1,0,0:0:0:0:
109,192,115036,1,0,0:0:0:0:
256,192,115122,1,0,0:0:0:0:
329,192,115122,1,0,0:0:0:0:
475,192,115122,1,0,0:0:0:0:
256,192,115293,1,0,0:0:0:0:
329,192,115293,1,0,0:0:0:0:
475,192,115293,1,0,0:0:0:0:
36,192,115379,1,0,0:0:0:0:
109,192,115379,1,0,0:0:0:0:
182,192,115379,1,0,0:0:0:0:
329,192,115465,128,0,115550:0:0:0:0:
475,192,115465,128,0,115550:0:0:0:0:
329,192,115636,128,0,115722:0:0:0:0:
475,192,115636,128,0,115722:0:0:0:0:
36,192,115807,1,0,0:0:0:0:
182,192,115807,1,0,0:0:0:0:
329,192,115807,128,0,115893:0:0:0:0:
475,192,115807,128,0,115893:0:0:0:0:
329,192,115979,128,0,116150:0:0:0:0:
475,192,115979,128,0,116150:0:0:0:0:
36,192,116065,1,0,0:0:0:0:
182,192,116065,1,0,0:0:0:0:
402,192,116150,1,0,0:0:0:0:
109,192,116236,1,0,0:0:0:0:
256,192,116236,1,0,0:0:0:0:
329,192,116322,128,0,116493:0:0:0:0:
475,192,116322,128,0,116493:0:0:0:0:
36,192,116407,1,0,0:0:0:0:
109,192,116493,1,0,0:0:0:0:
182,192,116493,1,0,0:0:0:0:
402,192,116493,1,0,0:0:0:0:
329,192,116665,128,0,116922:0:0:0:0:
475,192,116665,128,0,116922:0:0:0:0:
256,192,116750,1,0,0:0:0:0:
36,192,116836,1,0,0:0:0:0:
109,192,116836,1,0,0:0:0:0:
329,192,117007,128,0,117179:0:0:0:0:
475,192,117007,128,0,117179:0:0:0:0:
36,192,117179,1,0,0:0:0:0:
109,192,117179,1,0,0:0:0:0:
182,192,117179,1,0,0:0:0:0:
36,192,117350,128,0,117865:0:0:0:0:
182,192,117350,128,0,117865:0:0:0:0:
329,192,117436,1,0,0:0:0:0:
475,192,117436,1,0,0:0:0:0:
109,192,117522,1,0,0:0:0:0:
256,192,117607,1,0,0:0:0:0:
402,192,117607,1,0,0:0:0:0:
475,192,117693,1,0,0:0:0:0:
329,192,117779,1,0,0:0:0:0:
109,192,117865,128,0,118207:0:0:0:0:
256,192,117865,128,0,118207:0:0:0:0:
475,192,117865,1,0,0:0:0:0:
329,192,118036,1,0,0:0:0:0:
475,192,118036,1,0,0:0:0:0:
329,192,118122,1,0,0:0:0:0:
475,192,118122,1,0,0:0:0:0:
36,192,118207,128,0,118293:0:0:0:0:
182,192,118207,128,0,118293:0:0:0:0:
36,192,118379,128,0,118465:0:0:0:0:
182,192,118379,128,0,118465:0:0:0:0:
36,192,118550,128,0,118636:0:0:0:0:
182,192,118550,128,0,118636:0:0:0:0:
329,192,118550,1,0,0:0:0:0:
475,192,118550,1,0,0:0:0:0:
36,192,118722,128,0,118893:0:0:0:0:
182,192,118722,128,0,118893:0:0:0:0:
329,192,118807,1,0,0:0:0:0:
475,192,118807,1,0,0:0:0:0:
109,192,118893,1,0,0:0:0:0:
256,192,118979,1,0,0:0:0:0:
402,192,118979,1,0,0:0:0:0:
36,192,119065,128,0,119236:0:0:0:0:
182,192,119065,128,0,119236:0:0:0:0:
475,192,119150,1,0,0:0:0:0:
109,192,119236,1,0,0:0:0:0:
329,192,119236,1,0,0:0:0:0:
402,192,119236,1,0,0:0:0:0:
36,192,119407,128,0,119493:0:0:0:0:
182,192,119407,128,0,119493:0:0:0:0:
256,192,119493,1,0,0:0:0:0:
36,192,119579,128,0,119665:0:0:0:0:
182,192,119579,128,0,119665:0:0:0:0:
402,192,119579,1,0,0:0:0:0:
475,192,119579,1,0,0:0:0:0:
36,192,119750,128,0,119922:0:0:0:0:
182,192,119750,128,0,119922:0:0:0:0:
329,192,119922,1,0,0:0:0:0:
402,192,119922,1,0,0:0:0:0:
475,192,119922,1,0,0:0:0:0:
109,192,120093,128,0,120607:0:0:0:0:
256,192,120093,128,0,120607:0:0:0:0:
402,192,120179,1,0,0:0:0:0:
475,192,120179,1,0,0:0:0:0:
36,192,120265,1,0,0:0:0:0:
182,192,120350,1,0,0:0:0:0:
329,192,120350,1,0,0:0:0:0:
475,192,120436,1,0,0:0:0:0:
402,192,120522,1,0,0:0:0:0:
36,192,120607,128,0,120779:0:0:0:0:
182,192,120607,128,0,120779:0:0:0:0:
329,192,120607,1,0,0:0:0:0:
329,192,120779,1,0,0:0:0:0:
475,192,120779,1,0,0:0:0:0:
329,192,120865,1,0,0:0:0:0:
475,192,120865,1,0,0:0:0:0:
36,192,120950,1,0,0:0:0:50:snare.wav
182,192,120950,1,0,0:0:0:0:
256,192,120950,1,0,0:0:0:0:
402,192,120950,1,0,0:0:0:0:
36,192,121122,1,0,0:0:0:0:
109,192,121293,1,0,0:0:0:50:snare.wav
256,192,121293,1,0,0:0:0:0:
329,192,121293,1,0,0:0:0:0:
475,192,121293,1,0,0:0:0:0:
109,192,121465,1,0,0:0:0:0:
36,192,121636,1,0,0:0:0:50:snare.wav
182,192,121636,1,0,0:0:0:0:
329,192,121636,1,0,0:0:0:0:
402,192,121636,1,0,0:0:0:0:
182,192,121807,1,0,0:0:0:0:
36,192,121979,1,0,0:0:0:50:snare.wav
109,192,121979,1,0,0:0:0:0:
256,192,121979,1,0,0:0:0:0:
475,192,121979,1,0,0:0:0:0:
256,192,122150,1,0,0:0:0:0:
109,192,122322,1,0,0:0:0:50:snare.wav
182,192,122322,1,0,0:0:0:0:
329,192,122322,1,0,0:0:0:0:
475,192,122322,1,0,0:0:0:0:
475,192,122493,1,0,0:0:0:0:
36,192,122665,1,0,0:0:0:50:snare.wav
182,192,122665,1,0,0:0:0:0:
256,192,122665,1,0,0:0:0:0:
402,192,122665,1,0,0:0:0:0:
402,192,122836,1,0,0:0:0:0:
109,192,123007,1,0,0:0:0:50:snare.wav
182,192,123007,1,0,0:0:0:0:
329,192,123007,1,0,0:0:0:0:
475,192,123007,1,0,0:0:0:0:
329,192,123179,1,0,0:0:0:0:
36,192,123350,1,0,0:0:0:50:snare.wav
256,192,123350,1,0,0:0:0:0:
402,192,123350,1,0,0:0:0:0:
475,192,123350,1,0,0:0:0:0:
256,192,123522,1,0,0:0:0:0:
36,192,123693,1,0,0:0:0:50:snare.wav
182,192,123693,1,0,0:0:0:0:
329,192,123693,1,0,0:0:0:0:
402,192,123693,1,0,0:0:0:0:
182,192,123865,1,0,0:0:0:0:
36,192,124036,1,0,0:0:0:50:snare.wav
109,192,124036,1,0,0:0:0:0:
256,192,124036,1,0,0:0:0:0:
402,192,124036,1,0,0:0:0:0:
109,192,124207,1,0,0:0:0:0:
329,192,124207,1,0,0:0:0:0:
475,192,124207,1,0,0:0:0:0:
36,192,124379,1,0,0:0:0:50:snare.wav
182,192,124379,1,0,0:0:0:0:
402,192,124379,1,0,0:0:0:0:
475,192,124379,1,0,0:0:0:0:
182,192,124550,1,0,0:0:0:0:
329,192,124550,1,0,0:0:0:0:
475,192,124550,1,0,0:0:0:0:
109,192,124722,1,0,0:0:0:50:snare.wav
256,192,124722,1,0,0:0:0:0:
402,192,124722,1,0,0:0:0:0:
475,192,124722,1,0,0:0:0:0:
36,192,124893,1,0,0:0:0:0:
182,192,124893,1,0,0:0:0:0:
402,192,124893,1,0,0:0:0:0:
36,192,125065,1,0,0:0:0:50:snare.wav
109,192,125065,1,0,0:0:0:0:
329,192,125065,1,0,0:0:0:0:
475,192,125065,1,0,0:0:0:0:
36,192,125236,1,0,0:0:0:0:
182,192,125236,1,0,0:0:0:0:
329,192,125236,1,0,0:0:0:0:
36,192,125407,1,0,0:0:0:50:snare.wav
109,192,125407,1,0,0:0:0:0:
256,192,125407,1,0,0:0:0:0:
402,192,125407,1,0,0:0:0:0:
109,192,125579,1,0,0:0:0:0:
329,192,125579,1,0,0:0:0:0:
475,192,125579,1,0,0:0:0:0:
36,192,125750,1,0,0:0:0:50:snare.wav
182,192,125750,1,0,0:0:0:0:
402,192,125750,1,0,0:0:0:0:
475,192,125750,1,0,0:0:0:0:
36,192,125922,1,0,0:0:0:0:
329,192,125922,1,0,0:0:0:0:
475,192,125922,1,0,0:0:0:0:
109,192,126093,1,0,0:0:0:50:snare.wav
256,192,126093,1,0,0:0:0:0:
402,192,126093,1,0,0:0:0:0:
36,192,126265,1,0,0:0:0:0:
182,192,126265,1,0,0:0:0:0:
475,192,126265,1,0,0:0:0:0:
36,192,126436,1,0,0:0:0:50:snare.wav
109,192,126436,1,0,0:0:0:0:
256,192,126436,1,0,0:0:0:0:
475,192,126522,1,0,0:0:0:0:
36,192,126607,1,0,0:0:0:50:snare.wav
182,192,126607,1,0,0:0:0:0:
329,192,126607,1,0,0:0:0:0:
402,192,126693,1,0,0:0:0:0:
36,192,126779,1,0,0:0:0:50:snare.wav
109,192,126779,1,0,0:0:0:0:
256,192,126779,1,0,0:0:0:0:
475,192,126779,1,0,0:0:0:0:
329,192,126865,1,0,0:0:0:0:
36,192,126950,1,0,0:0:0:50:snare.wav
182,192,126950,1,0,0:0:0:0:
402,192,126950,1,0,0:0:0:0:
256,192,127036,1,0,0:0:0:0:
36,192,127122,1,0,0:0:0:50:snare.wav
109,192,127122,1,0,0:0:0:0:
329,192,127122,1,0,0:0:0:0:
182,192,127207,1,0,0:0:0:0:
36,192,127293,1,0,0:0:0:50:snare.wav
256,192,127293,1,0,0:0:0:0:
402,192,127293,1,0,0:0:0:0:
475,192,127379,1,0,0:0:0:0:
36,192,127465,1,0,0:0:0:50:snare.wav
182,192,127465,1,0,0:0:0:0:
329,192,127465,1,0,0:0:0:0:
402,192,127550,1,0,0:0:0:0:
36,192,127636,1,0,0:0:0:50:snare.wav
109,192,127636,1,0,0:0:0:0:
256,192,127636,1,0,0:0:0:0:
329,192,127722,1,0,0:0:0:0:
182,192,127807,1,0,0:0:0:50:snare.wav
402,192,127807,1,0,0:0:0:0:
475,192,127807,1,0,0:0:0:0:
36,192,127893,1,0,0:0:0:0:
182,192,127979,1,0,0:0:0:50:snare.wav
329,192,127979,1,0,0:0:0:0:
475,192,127979,1,0,0:0:0:0:
109,192,128065,1,0,0:0:0:0:
36,192,128150,1,0,0:0:0:50:snare.wav
256,192,128150,1,0,0:0:0:0:
402,192,128150,1,0,0:0:0:0:
475,192,128150,1,0,0:0:0:0:
182,192,128236,1,0,0:0:0:0:
109,192,128322,1,0,0:0:0:50:snare.wav
329,192,128322,1,0,0:0:0:0:
475,192,128322,1,0,0:0:0:0:
256,192,128407,1,0,0:0:0:0:
182,192,128493,1,0,0:0:0:50:snare.wav
402,192,128493,1,0,0:0:0:0:
475,192,128493,1,0,0:0:0:0:
329,192,128579,1,0,0:0:0:0:
109,192,128665,1,0,0:0:0:50:snare.wav
256,192,128665,1,0,0:0:0:0:
475,192,128665,1,0,0:0:0:0:
36,192,128750,1,0,0:0:0:0:
182,192,128836,1,0,0:0:0:50:snare.wav
329,192,128836,1,0,0:0:0:0:
475,192,128836,1,0,0:0:0:0:
109,192,128922,1,0,0:0:0:0:
256,192,129007,1,0,0:0:0:50:snare.wav
402,192,129007,1,0,0:0:0:0:
475,192,129007,1,0,0:0:0:0:
182,192,129093,1,0,0:0:0:0:
36,192,129179,1,0,0:0:0:50:snare.wav
109,192,129179,1,0,0:0:0:0:
329,192,129179,1,0,0:0:0:0:
256,192,129265,1,0,0:0:0:50:snare.wav
402,192,129265,1,0,0:0:0:0:
475,192,129265,1,0,0:0:0:0:
36,192,129350,1,0,0:0:0:50:snare.wav
109,192,129350,1,0,0:0:0:0:
182,192,129350,1,0,0:0:0:0:
402,192,129436,1,0,0:0:0:50:snare.wav
475,192,129436,1,0,0:0:0:0:
36,192,129522,1,0,0:0:0:50:snare.wav
109,192,129522,1,0,0:0:0:0:
182,192,129522,1,0,0:0:0:0:
256,192,129522,1,0,0:0:0:0:
329,192,129607,1,0,0:0:0:50:snare.wav
402,192,129607,1,0,0:0:0:0:
36,192,129693,1,0,0:0:0:50:snare.wav
109,192,129693,1,0,0:0:0:0:
256,192,129693,1,0,0:0:0:0:
329,192,129779,1,0,0:0:0:50:snare.wav
402,192,129779,1,0,0:0:0:0:
475,192,129779,1,0,0:0:0:0:
36,192,129865,1,0,0:0:0:50:snare.wav
109,192,129865,1,0,0:0:0:0:
182,192,129865,1,0,0:0:0:0:
256,192,129950,1,0,0:0:0:50:snare.wav
329,192,129950,1,0,0:0:0:0:
36,192,130036,1,0,0:0:0:50:snare.wav
109,192,130036,1,0,0:0:0:0:
402,192,130036,1,0,0:0:0:0:
475,192,130036,1,0,0:0:0:0:
256,192,130122,1,0,0:0:0:50:snare.wav
329,192,130122,1,0,0:0:0:0:
36,192,130207,1,0,0:0:0:50:snare.wav
109,192,130207,1,0,0:0:0:0:
182,192,130207,1,0,0:0:0:0:
329,192,130293,1,0,0:0:0:50:snare.wav
402,192,130293,1,0,0:0:0:0:
475,192,130293,1,0,0:0:0:0:
256,192,130379,128,0,131579:0:0:0:0:
36,192,131579,128,0,131836:0:0:0:70:clap_wave.wav
109,192,131579,128,0,131836:0:0:0:0:
182,192,131579,128,0,131836:0:0:0:0:
329,192,131579,128,0,131836:0:0:0:0:
402,192,131579,128,0,131836:0:0:0:0:
475,192,131579,128,0,131836:0:0:0:0:
36,192,131922,128,0,132436:0:0:0:50:kick.wav
109,192,131922,128,0,132093:0:0:0:50:crash.wav
256,192,131922,1,0,0:0:0:0:
402,192,131922,1,0,0:0:0:0:
475,192,131922,1,0,0:0:0:0:
182,192,132093,1,0,0:0:0:0:
329,192,132093,1,0,0:0:0:0:
109,192,132265,1,0,0:0:0:50:snare.wav
256,192,132265,1,0,0:0:0:0:
402,192,132265,1,0,0:0:0:0:
475,192,132265,1,0,0:0:0:0:
329,192,132436,128,0,132522:0:0:0:0:
475,192,132436,128,0,132522:0:0:0:0:
182,192,132522,1,0,0:0:0:0:
256,192,132607,128,0,132693:0:0:0:0:
402,192,132607,128,0,132693:0:0:0:0:
109,192,132693,1,0,0:0:0:0:
182,192,132779,128,0,132865:0:0:0:50:kick.wav
329,192,132779,128,0,132865:0:0:0:0:
475,192,132779,1,0,0:0:0:0:
36,192,132950,1,0,0:0:0:50:snare.wav
109,192,132950,128,0,133036:0:0:0:0:
256,192,132950,128,0,133036:0:0:0:0:
402,192,132950,1,0,0:0:0:0:
36,192,133122,128,0,133207:0:0:0:0:
182,192,133122,128,0,133207:0:0:0:0:
329,192,133207,1,0,0:0:0:0:
36,192,133293,128,0,133465:0:0:0:50:kick.wav
402,192,133293,1,0,0:0:0:0:
475,192,133293,128,0,133636:0:0:0:0:
182,192,133465,1,0,0:0:0:0:
329,192,133465,1,0,0:0:0:0:
36,192,133636,128,0,133765:0:0:0:50:snare.wav
109,192,133636,128,0,133722:0:0:0:0:
182,192,133636,128,0,133679:0:0:0:0:
256,192,133636,1,0,0:0:0:0:
329,192,133807,128,0,134322:0:0:0:0:
475,192,133807,1,0,0:0:0:0:
182,192,133893,1,0,0:0:0:0:
36,192,133979,1,0,0:0:0:0:
256,192,133979,1,0,0:0:0:0:
109,192,134065,1,0,0:0:0:0:
182,192,134150,1,0,0:0:0:50:kick.wav
402,192,134150,1,0,0:0:0:0:
475,192,134150,1,0,0:0:0:0:
36,192,134322,1,0,0:0:0:50:snare.wav
182,192,134322,128,0,134665:0:0:0:0:
256,192,134322,1,0,0:0:0:0:
475,192,134322,1,0,0:0:0:0:
329,192,134493,1,0,0:0:0:0:
402,192,134493,1,0,0:0:0:0:
256,192,134579,1,0,0:0:0:0:
36,192,134665,128,0,135179:0:0:0:50:kick.wav
109,192,134665,1,0,0:0:0:0:
475,192,134665,128,0,134836:0:0:0:0:
256,192,134836,1,0,0:0:0:0:
402,192,134836,1,0,0:0:0:0:
109,192,135007,1,0,0:0:0:50:snare.wav
182,192,135007,1,0,0:0:0:0:
329,192,135007,1,0,0:0:0:0:
475,192,135007,1,0,0:0:0:0:
475,192,135179,128,0,135265:0:0:0:0:
402,192,135207,128,0,135293:0:0:0:0:
329,192,135236,128,0,135322:0:0:0:0:
36,192,135350,128,0,135436:0:0:0:0:
109,192,135379,128,0,135465:0:0:0:0:
182,192,135407,128,0,135493:0:0:0:0:
256,192,135522,1,0,0:0:0:50:kick.wav
402,192,135522,1,0,0:0:0:0:
475,192,135522,1,0,0:0:0:0:
36,192,135693,1,0,0:0:0:50:snare.wav
109,192,135693,1,0,0:0:0:0:
182,192,135693,1,0,0:0:0:0:
475,192,135693,128,0,135779:0:0:0:0:
402,192,135722,128,0,135807:0:0:0:0:
329,192,135750,128,0,135836:0:0:0:0:
36,192,135865,1,0,0:0:0:0:
256,192,135865,128,0,135950:0:0:0:0:
109,192,135950,1,0,0:0:0:0:
256,192,136036,128,0,136336:0:0:0:50:kick.wav
329,192,136036,1,0,0:0:0:0:
475,192,136036,1,0,0:0:0:0:
182,192,136207,128,0,136336:0:0:0:0:
402,192,136207,1,0,0:0:0:0:
109,192,136250,128,0,136336:0:0:0:0:
36,192,136293,128,0,136336:0:0:0:0:
256,192,136379,1,0,0:0:0:50:snare.wav
329,192,136379,128,0,136422:0:0:0:0:
402,192,136379,128,0,136465:0:0:0:0:
475,192,136379,128,0,136507:0:0:0:0:
182,192,136550,128,0,136893:0:0:0:0:
256,192,136550,1,0,0:0:0:0:
109,192,136636,1,0,0:0:0:0:
329,192,136722,1,0,0:0:0:0:
475,192,136722,1,0,0:0:0:0:
36,192,136807,1,0,0:0:0:0:
109,192,136893,1,0,0:0:0:50:kick.wav
256,192,136893,1,0,0:0:0:0:
475,192,136893,1,0,0:0:0:0:
36,192,137065,1,0,0:0:0:50:snare.wav
109,192,137065,128,0,137407:0:0:0:0:
182,192,137065,1,0,0:0:0:0:
329,192,137065,1,0,0:0:0:0:
402,192,137236,1,0,0:0:0:0:
475,192,137236,1,0,0:0:0:0:
329,192,137322,1,0,0:0:0:0:
36,192,137407,128,0,137750:0:0:0:50:kick.wav
256,192,137407,128,0,137579:0:0:0:0:
182,192,137579,1,0,0:0:0:0:
402,192,137579,1,0,0:0:0:0:
256,192,137750,1,0,0:0:0:50:snare.wav
329,192,137750,128,0,137793:0:0:0:0:
402,192,137750,128,0,137836:0:0:0:0:
475,192,137750,128,0,137879:0:0:0:0:
36,192,137922,128,0,138436:0:0:0:0:
182,192,137922,1,0,0:0:0:0:
402,192,138007,1,0,0:0:0:0:
109,192,138093,128,0,138265:0:0:0:0:
256,192,138093,1,0,0:0:0:0:
475,192,138179,1,0,0:0:0:0:
182,192,138265,128,0,138779:0:0:0:50:kick.wav
329,192,138265,1,0,0:0:0:0:
402,192,138265,1,0,0:0:0:0:
109,192,138436,128,0,138779:0:0:0:50:snare.wav
256,192,138436,1,0,0:0:0:0:
402,192,138436,1,0,0:0:0:0:
475,192,138436,1,0,0:0:0:0:
36,192,138607,128,0,138779:0:0:0:0:
329,192,138607,1,0,0:0:0:0:
402,192,138693,1,0,0:0:0:0:
256,192,138779,1,0,0:0:0:50:kick.wav
329,192,138779,1,0,0:0:0:0:
475,192,138779,1,0,0:0:0:0:
36,192,138950,128,0,139036:0:0:0:0:
109,192,138950,128,0,138993:0:0:0:0:
182,192,138950,1,0,0:0:0:0:
36,192,139122,128,0,139207:0:0:0:50:snare.wav
109,192,139122,128,0,139165:0:0:0:0:
182,192,139122,1,0,0:0:0:0:
329,192,139122,1,0,0:0:0:0:
256,192,139293,1,0,0:0:0:0:
402,192,139293,128,0,139807:0:0:0:0:
109,192,139379,1,0,0:0:0:0:
329,192,139465,1,0,0:0:0:0:
475,192,139465,1,0,0:0:0:0:
182,192,139550,1,0,0:0:0:0:
36,192,139636,1,0,0:0:0:50:kick.wav
109,192,139636,1,0,0:0:0:0:
256,192,139636,1,0,0:0:0:0:
36,192,139807,1,0,0:0:0:50:snare.wav
182,192,139807,1,0,0:0:0:0:
329,192,139807,1,0,0:0:0:0:
475,192,139807,128,0,140150:0:0:0:0:
109,192,139979,1,0,0:0:0:0:
256,192,139979,1,0,0:0:0:0:
329,192,140065,1,0,0:0:0:0:
36,192,140150,128,0,140665:0:0:0:50:kick.wav
182,192,140150,128,0,140322:0:0:0:0:
402,192,140150,1,0,0:0:0:0:
329,192,140322,1,0,0:0:0:0:
475,192,140322,1,0,0:0:0:0:
109,192,140493,128,0,140622:0:0:0:50:snare.wav
182,192,140493,128,0,140579:0:0:0:0:
256,192,140493,128,0,140536:0:0:0:0:
329,192,140493,1,0,0:0:0:0:
475,192,140665,128,0,140750:0:0:0:0:
402,192,140693,128,0,140779:0:0:0:0:
329,192,140722,128,0,140807:0:0:0:0:
36,192,140836,128,0,140922:0:0:0:0:
109,192,140865,128,0,140950:0:0:0:0:
182,192,140893,128,0,140979:0:0:0:0:
329,192,141007,1,0,0:0:0:50:kick.wav
402,192,141007,1,0,0:0:0:0:
475,192,141007,1,0,0:0:0:0:
256,192,141093,128,0,141179:0:0:0:0:
36,192,141179,1,0,0:0:0:50:snare.wav
109,192,141179,1,0,0:0:0:0:
182,192,141179,1,0,0:0:0:0:
475,192,141179,1,0,0:0:0:0:
402,192,141222,1,0,0:0:0:0:
329,192,141265,1,0,0:0:0:0:
256,192,141307,1,0,0:0:0:0:
36,192,141350,128,0,141436:0:0:0:0:
36,192,141522,128,0,141693:0:0:0:50:kick.wav
182,192,141522,1,0,0:0:0:0:
402,192,141522,1,0,0:0:0:0:
329,192,141693,128,0,141865:0:0:0:0:
109,192,141865,1,0,0:0:0:50:snare.wav
256,192,141865,1,0,0:0:0:0:
402,192,141865,1,0,0:0:0:0:
475,192,141865,1,0,0:0:0:0:
329,192,142036,128,0,142207:0:0:0:0:
475,192,142036,128,0,142379:0:0:0:0:
36,192,142122,128,0,142207:0:0:0:0:
109,192,142165,128,0,142250:0:0:0:0:
182,192,142207,128,0,142293:0:0:0:0:
402,192,142293,128,0,142379:0:0:0:0:
36,192,142379,1,0,0:0:0:50:kick.wav
256,192,142379,1,0,0:0:0:0:
329,192,142379,1,0,0:0:0:0:
109,192,142550,1,0,0:0:0:50:snare.wav
256,192,142550,1,0,0:0:0:0:
402,192,142550,1,0,0:0:0:0:
475,192,142550,1,0,0:0:0:0:
36,192,142722,1,0,0:0:0:50:kick.wav
109,192,142722,1,0,0:0:0:0:
182,192,142722,1,0,0:0:0:0:
329,192,142807,1,0,0:0:0:50:snare.wav
402,192,142807,1,0,0:0:0:0:
475,192,142807,1,0,0:0:0:0:
36,192,142893,1,0,0:0:0:50:kick.wav
109,192,142893,1,0,0:0:0:50:crash.wav
256,192,142893,1,0,0:0:0:0:
402,192,142893,128,0,143065:0:0:0:0:
475,192,142893,128,0,143407:0:0:0:0:
182,192,143065,1,0,0:0:0:0:
329,192,143065,1,0,0:0:0:0:
36,192,143236,1,0,0:0:0:50:snare.wav
109,192,143236,1,0,0:0:0:0:
256,192,143236,1,0,0:0:0:0:
402,192,143236,1,0,0:0:0:0:
36,192,143407,128,0,143493:0:0:0:0:
182,192,143407,128,0,143493:0:0:0:0:
329,192,143493,1,0,0:0:0:0:
109,192,143579,128,0,143665:0:0:0:0:
256,192,143579,128,0,143665:0:0:0:0:
402,192,143665,1,0,0:0:0:0:
36,192,143750,1,0,0:0:0:50:kick.wav
182,192,143750,128,0,143836:0:0:0:0:
329,192,143750,128,0,143836:0:0:0:0:
109,192,143922,1,0,0:0:0:50:snare.wav
256,192,143922,128,0,144007:0:0:0:0:
402,192,143922,128,0,144007:0:0:0:0:
475,192,143922,1,0,0:0:0:0:
329,192,144093,128,0,144179:0:0:0:0:
475,192,144093,128,0,144179:0:0:0:0:
182,192,144179,1,0,0:0:0:0:
36,192,144265,128,0,144779:0:0:0:50:kick.wav
256,192,144265,1,0,0:0:0:0:
475,192,144265,128,0,144436:0:0:0:0:
182,192,144436,1,0,0:0:0:0:
402,192,144436,1,0,0:0:0:0:
109,192,144607,128,0,144736:0:0:0:50:snare.wav
182,192,144607,128,0,144693:0:0:0:0:
256,192,144607,128,0,144650:0:0:0:0:
329,192,144607,1,0,0:0:0:0:
329,192,144779,128,0,145293:0:0:0:0:
402,192,144779,1,0,0:0:0:0:
182,192,144865,1,0,0:0:0:0:
36,192,144950,1,0,0:0:0:0:
475,192,144950,1,0,0:0:0:0:
256,192,145036,1,0,0:0:0:0:
109,192,145122,1,0,0:0:0:50:kick.wav
402,192,145122,1,0,0:0:0:0:
475,192,145122,1,0,0:0:0:0:
36,192,145293,1,0,0:0:0:50:snare.wav
109,192,145293,1,0,0:0:0:0:
182,192,145293,128,0,145636:0:0:0:0:
256,192,145293,1,0,0:0:0:0:
329,192,145465,1,0,0:0:0:0:
402,192,145465,1,0,0:0:0:0:
256,192,145550,1,0,0:0:0:0:
36,192,145636,128,0,145807:0:0:0:50:kick.wav
402,192,145636,1,0,0:0:0:0:
475,192,145636,128,0,146150:0:0:0:0:
109,192,145807,1,0,0:0:0:0:
256,192,145807,1,0,0:0:0:0:
36,192,145979,1,0,0:0:0:50:snare.wav
182,192,145979,1,0,0:0:0:0:
329,192,145979,1,0,0:0:0:0:
402,192,145979,1,0,0:0:0:0:
36,192,146150,128,0,146236:0:0:0:0:
109,192,146179,128,0,146265:0:0:0:0:
182,192,146207,128,0,146293:0:0:0:0:
475,192,146322,128,0,146407:0:0:0:0:
402,192,146350,128,0,146436:0:0:0:0:
329,192,146379,128,0,146465:0:0:0:0:
36,192,146493,1,0,0:0:0:50:kick.wav
109,192,146493,1,0,0:0:0:0:
256,192,146493,1,0,0:0:0:0:
36,192,146665,128,0,146750:0:0:0:50:snare.wav
329,192,146665,1,0,0:0:0:0:
402,192,146665,1,0,0:0:0:0:
475,192,146665,1,0,0:0:0:0:
109,192,146693,128,0,146779:0:0:0:0:
182,192,146722,128,0,146807:0:0:0:0:
256,192,146836,128,0,146922:0:0:0:0:
475,192,146836,1,0,0:0:0:0:
402,192,146922,1,0,0:0:0:0:
36,192,147007,1,0,0:0:0:50:kick.wav
182,192,147007,1,0,0:0:0:0:
256,192,147007,128,0,147307:0:0:0:0:
109,192,147179,1,0,0:0:0:0:
329,192,147179,128,0,147307:0:0:0:0:
402,192,147222,128,0,147307:0:0:0:0:
475,192,147265,128,0,147307:0:0:0:0:
36,192,147350,128,0,147479:0:0:0:50:snare.wav
109,192,147350,128,0,147436:0:0:0:0:
182,192,147350,128,0,147393:0:0:0:0:
256,192,147350,1,0,0:0:0:0:
256,192,147522,1,0,0:0:0:0:
329,192,147522,128,0,147865:0:0:0:0:
402,192,147607,1,0,0:0:0:0:
36,192,147693,1,0,0:0:0:0:
182,192,147693,1,0,0:0:0:0:
475,192,147779,1,0,0:0:0:0:
36,192,147865,1,0,0:0:0:50:kick.wav
256,192,147865,1,0,0:0:0:0:
402,192,147865,1,0,0:0:0:0:
109,192,148036,128,0,148379:0:0:0:50:snare.wav
182,192,148036,1,0,0:0:0:0:
329,192,148036,1,0,0:0:0:0:
475,192,148036,1,0,0:0:0:0:
36,192,148207,1,0,0:0:0:0:
402,192,148207,1,0,0:0:0:0:
329,192,148293,1,0,0:0:0:0:
256,192,148379,128,0,148550:0:0:0:50:kick.wav
475,192,148379,128,0,148722:0:0:0:0:
109,192,148550,1,0,0:0:0:0:
329,192,148550,1,0,0:0:0:0:
36,192,148722,128,0,148850:0:0:0:50:snare.wav
109,192,148722,128,0,148807:0:0:0:0:
182,192,148722,128,0,148765:0:0:0:0:
256,192,148722,1,0,0:0:0:0:
329,192,148893,128,0,149407:0:0:0:0:
475,192,148893,1,0,0:0:0:0:
182,192,148979,1,0,0:0:0:0:
256,192,149065,1,0,0:0:0:0:
402,192,149065,128,0,149236:0:0:0:0:
36,192,149150,1,0,0:0:0:0:
109,192,149236,1,0,0:0:0:50:kick.wav
182,192,149236,1,0,0:0:0:0:
475,192,149236,128,0,149750:0:0:0:0:
36,192,149407,1,0,0:0:0:50:snare.wav
182,192,149407,1,0,0:0:0:0:
256,192,149407,1,0,0:0:0:0:
402,192,149407,128,0,149750:0:0:0:0:
109,192,149579,1,0,0:0:0:0:
329,192,149579,128,0,149750:0:0:0:0:
182,192,149665,1,0,0:0:0:0:
36,192,149750,1,0,0:0:0:50:kick.wav
109,192,149750,1,0,0:0:0:0:
256,192,149750,1,0,0:0:0:0:
329,192,149922,1,0,0:0:0:0:
402,192,149922,128,0,149965:0:0:0:0:
475,192,149922,128,0,150007:0:0:0:0:
182,192,150093,1,0,0:0:0:50:snare.wav
329,192,150093,1,0,0:0:0:0:
402,192,150093,128,0,150136:0:0:0:0:
475,192,150093,128,0,150179:0:0:0:0:
109,192,150265,128,0,150779:0:0:0:0:
256,192,150265,1,0,0:0:0:0:
402,192,150350,1,0,0:0:0:0:
36,192,150436,1,0,0:0:0:0:
182,192,150436,1,0,0:0:0:0:
329,192,150522,1,0,0:0:0:0:
256,192,150607,1,0,0:0:0:50:kick.wav
402,192,150607,1,0,0:0:0:0:
475,192,150607,1,0,0:0:0:0:
36,192,150779,128,0,151122:0:0:0:50:snare.wav
182,192,150779,1,0,0:0:0:0:
329,192,150779,1,0,0:0:0:0:
475,192,150779,1,0,0:0:0:0:
256,192,150950,1,0,0:0:0:0:
402,192,150950,1,0,0:0:0:0:
182,192,151036,1,0,0:0:0:0:
109,192,151122,1,0,0:0:0:50:kick.wav
329,192,151122,128,0,151293:0:0:0:0:
475,192,151122,128,0,151636:0:0:0:0:
36,192,151293,1,0,0:0:0:0:
182,192,151293,1,0,0:0:0:0:
182,192,151465,1,0,0:0:0:50:snare.wav
256,192,151465,128,0,151507:0:0:0:0:
329,192,151465,128,0,151550:0:0:0:0:
402,192,151465,128,0,151593:0:0:0:0:
36,192,151636,128,0,151722:0:0:0:0:
109,192,151665,128,0,151750:0:0:0:0:
182,192,151693,128,0,151779:0:0:0:0:
475,192,151807,128,0,151893:0:0:0:0:
402,192,151836,128,0,151922:0:0:0:0:
329,192,151865,128,0,151950:0:0:0:0:
36,192,151979,1,0,0:0:0:50:kick.wav
109,192,151979,1,0,0:0:0:0:
182,192,151979,1,0,0:0:0:0:
256,192,152150,1,0,0:0:0:50:snare.wav
329,192,152150,1,0,0:0:0:0:
402,192,152150,1,0,0:0:0:0:
475,192,152150,1,0,0:0:0:0:
36,192,152322,1,0,0:0:0:0:
182,192,152322,1,0,0:0:0:0:
329,192,152407,1,0,0:0:0:0:
109,192,152493,1,0,0:0:0:0:
256,192,152493,1,0,0:0:0:0:
475,192,152493,1,0,0:0:0:0:
182,192,152665,1,0,0:0:0:0:
402,192,152665,1,0,0:0:0:0:
36,192,152836,1,0,0:0:0:0:
329,192,152836,1,0,0:0:0:0:
475,192,152836,1,0,0:0:0:0:
109,192,153007,1,0,0:0:0:0:
256,192,153093,1,0,0:0:0:0:
402,192,153093,1,0,0:0:0:0:
475,192,153179,1,0,0:0:0:0:
182,192,153265,1,0,0:0:0:0:
329,192,153265,1,0,0:0:0:0:
36,192,153350,1,0,0:0:0:0:
402,192,153350,1,0,0:0:0:0:
109,192,153436,1,0,0:0:0:0:
256,192,153436,1,0,0:0:0:0:
36,192,153522,128,0,153865:0:0:0:50:snare.wav
329,192,153522,1,0,0:0:0:0:
402,192,153522,1,0,0:0:0:0:
475,192,153522,1,0,0:0:0:0:
109,192,153693,128,0,153822:0:0:0:50:kick.wav
182,192,153693,128,0,153779:0:0:0:0:
256,192,153693,1,0,0:0:0:0:
182,192,153865,1,0,0:0:0:50:kick.wav
256,192,153865,1,0,0:0:0:50:crash.wav
329,192,153865,1,0,0:0:0:0:
402,192,153865,128,0,154036:0:0:0:0:
475,192,153865,128,0,154379:0:0:0:0:
36,192,154036,1,0,0:0:0:0:
109,192,154036,1,0,0:0:0:0:
109,192,154207,1,0,0:0:0:50:snare.wav
182,192,154207,1,0,0:0:0:0:
329,192,154207,1,0,0:0:0:0:
402,192,154207,1,0,0:0:0:0:
36,192,154379,128,0,154550:0:0:0:0:
182,192,154379,128,0,154465:0:0:0:0:
329,192,154465,1,0,0:0:0:0:
109,192,154550,128,0,154722:0:0:0:0:
256,192,154550,128,0,154636:0:0:0:0:
402,192,154636,1,0,0:0:0:0:
182,192,154722,1,0,0:0:0:50:kick.wav
329,192,154722,128,0,154807:0:0:0:0:
475,192,154722,128,0,154893:0:0:0:0:
36,192,154893,1,0,0:0:0:50:snare.wav
109,192,154893,1,0,0:0:0:0:
256,192,154893,128,0,154979:0:0:0:0:
402,192,154893,128,0,155065:0:0:0:0:
182,192,155065,128,0,155150:0:0:0:0:
329,192,155065,128,0,155236:0:0:0:0:
109,192,155150,1,0,0:0:0:0:
36,192,155236,128,0,155579:0:0:0:50:kick.wav
256,192,155236,128,0,155407:0:0:0:0:
475,192,155236,1,0,0:0:0:0:
109,192,155407,1,0,0:0:0:0:
182,192,155407,1,0,0:0:0:0:
256,192,155579,1,0,0:0:0:50:snare.wav
329,192,155579,128,0,155622:0:0:0:0:
402,192,155579,128,0,155665:0:0:0:0:
475,192,155579,128,0,155707:0:0:0:0:
36,192,155750,1,0,0:0:0:0:
182,192,155750,128,0,156093:0:0:0:0:
402,192,155836,1,0,0:0:0:0:
256,192,155922,1,0,0:0:0:0:
329,192,155922,1,0,0:0:0:0:
475,192,156007,1,0,0:0:0:0:
36,192,156093,1,0,0:0:0:50:kick.wav
109,192,156093,1,0,0:0:0:0:
402,192,156093,1,0,0:0:0:0:
182,192,156265,1,0,0:0:0:50:snare.wav
256,192,156265,1,0,0:0:0:0:
329,192,156265,128,0,156607:0:0:0:0:
475,192,156265,1,0,0:0:0:0:
36,192,156436,1,0,0:0:0:0:
109,192,156436,1,0,0:0:0:0:
182,192,156522,1,0,0:0:0:0:
36,192,156607,128,0,156779:0:0:0:50:kick.wav
256,192,156607,1,0,0:0:0:0:
402,192,156607,1,0,0:0:0:0:
475,192,156607,128,0,157122:0:0:0:0:
109,192,156779,1,0,0:0:0:0:
182,192,156779,1,0,0:0:0:0:
36,192,156950,1,0,0:0:0:50:snare.wav
256,192,156950,1,0,0:0:0:0:
329,192,156950,1,0,0:0:0:0:
402,192,156950,1,0,0:0:0:0:
182,192,157122,128,0,157207:0:0:0:0:
109,192,157150,128,0,157236:0:0:0:0:
36,192,157179,128,0,157265:0:0:0:0:
329,192,157293,128,0,157379:0:0:0:0:
402,192,157322,128,0,157407:0:0:0:0:
475,192,157350,128,0,157436:0:0:0:0:
36,192,157465,1,0,0:0:0:50:kick.wav
109,192,157465,1,0,0:0:0:0:
256,192,157465,1,0,0:0:0:0:
36,192,157636,1,0,0:0:0:50:snare.wav
109,192,157636,1,0,0:0:0:0:
182,192,157636,1,0,0:0:0:0:
329,192,157636,128,0,157722:0:0:0:0:
402,192,157665,128,0,157750:0:0:0:0:
475,192,157693,128,0,157779:0:0:0:0:
182,192,157807,1,0,0:0:0:0:
256,192,157807,128,0,157893:0:0:0:0:
109,192,157893,1,0,0:0:0:0:
36,192,157979,1,0,0:0:0:50:kick.wav
256,192,157979,128,0,158279:0:0:0:0:
475,192,157979,1,0,0:0:0:0:
109,192,158150,1,0,0:0:0:0:
329,192,158150,128,0,158279:0:0:0:0:
402,192,158193,128,0,158279:0:0:0:0:
475,192,158236,128,0,158279:0:0:0:0:
36,192,158322,1,0,0:0:0:50:snare.wav
109,192,158322,128,0,158365:0:0:0:0:
182,192,158322,128,0,158407:0:0:0:0:
256,192,158322,128,0,158450:0:0:0:0:
402,192,158493,128,0,158836:0:0:0:0:
475,192,158493,1,0,0:0:0:0:
182,192,158579,1,0,0:0:0:0:
36,192,158665,1,0,0:0:0:0:
329,192,158665,1,0,0:0:0:0:
256,192,158750,1,0,0:0:0:0:
36,192,158836,1,0,0:0:0:50:kick.wav
109,192,158836,1,0,0:0:0:0:
475,192,158836,1,0,0:0:0:0:
182,192,159007,1,0,0:0:0:50:snare.wav
256,192,159007,1,0,0:0:0:0:
329,192,159007,128,0,159350:0:0:0:0:
402,192,159007,1,0,0:0:0:0:
109,192,159179,1,0,0:0:0:0:
475,192,159179,1,0,0:0:0:0:
182,192,159265,1,0,0:0:0:0:
36,192,159350,128,0,159865:0:0:0:50:kick.wav
256,192,159350,128,0,159522:0:0:0:0:
402,192,159350,1,0,0:0:0:0:
182,192,159522,1,0,0:0:0:0:
475,192,159522,1,0,0:0:0:0:
109,192,159693,128,0,159822:0:0:0:50:snare.wav
182,192,159693,128,0,159779:0:0:0:0:
256,192,159693,128,0,159736:0:0:0:0:
329,192,159693,1,0,0:0:0:0:
329,192,159865,1,0,0:0:0:0:
402,192,159865,128,0,160379:0:0:0:0:
109,192,159950,1,0,0:0:0:0:
182,192,160036,1,0,0:0:0:0:
256,192,160036,128,0,160207:0:0:0:0:
475,192,160122,1,0,0:0:0:0:
36,192,160207,1,0,0:0:0:50:kick.wav
109,192,160207,128,0,160550:0:0:0:0:
329,192,160207,1,0,0:0:0:0:
36,192,160379,1,0,0:0:0:50:snare.wav
182,192,160379,1,0,0:0:0:0:
256,192,160379,128,0,160722:0:0:0:0:
475,192,160379,1,0,0:0:0:0:
329,192,160550,1,0,0:0:0:0:
402,192,160550,128,0,160722:0:0:0:0:
182,192,160636,1,0,0:0:0:0:
36,192,160722,1,0,0:0:0:50:kick.wav
109,192,160722,1,0,0:0:0:0:
475,192,160722,1,0,0:0:0:0:
329,192,160893,1,0,0:0:0:0:
402,192,160893,128,0,160936:0:0:0:0:
475,192,160893,128,0,160979:0:0:0:0:
36,192,161065,1,0,0:0:0:50:snare.wav
329,192,161065,128,0,161150:0:0:0:0:
402,192,161065,128,0,161107:0:0:0:0:
475,192,161065,1,0,0:0:0:0:
109,192,161236,1,0,0:0:0:0:
256,192,161236,128,0,161750:0:0:0:0:
402,192,161322,1,0,0:0:0:0:
182,192,161407,1,0,0:0:0:0:
475,192,161407,1,0,0:0:0:0:
36,192,161493,1,0,0:0:0:0:
109,192,161579,1,0,0:0:0:50:kick.wav
329,192,161579,1,0,0:0:0:0:
402,192,161579,1,0,0:0:0:0:
36,192,161750,1,0,0:0:0:50:snare.wav
182,192,161750,1,0,0:0:0:0:
402,192,161750,128,0,162093:0:0:0:0:
475,192,161750,1,0,0:0:0:0:
109,192,161922,1,0,0:0:0:0:
329,192,161922,1,0,0:0:0:0:
182,192,162007,1,0,0:0:0:0:
36,192,162093,1,0,0:0:0:50:kick.wav
256,192,162093,128,0,162265:0:0:0:0:
475,192,162093,128,0,162607:0:0:0:0:
109,192,162265,1,0,0:0:0:0:
402,192,162265,1,0,0:0:0:0:
36,192,162436,1,0,0:0:0:50:snare.wav
182,192,162436,1,0,0:0:0:0:
256,192,162436,1,0,0:0:0:0:
329,192,162436,1,0,0:0:0:0:
36,192,162607,128,0,162693:0:0:0:0:
109,192,162636,128,0,162722:0:0:0:0:
182,192,162665,128,0,162750:0:0:0:0:
475,192,162779,128,0,162865:0:0:0:0:
402,192,162807,128,0,162893:0:0:0:0:
329,192,162836,128,0,162922:0:0:0:0:
36,192,162950,1,0,0:0:0:50:kick.wav
109,192,162950,1,0,0:0:0:0:
182,192,162950,1,0,0:0:0:0:
256,192,163036,128,0,163122:0:0:0:0:
36,192,163122,1,0,0:0:0:50:snare.wav
329,192,163122,1,0,0:0:0:0:
402,192,163122,1,0,0:0:0:0:
475,192,163122,1,0,0:0:0:0:
109,192,163165,1,0,0:0:0:0:
182,192,163207,1,0,0:0:0:0:
256,192,163250,1,0,0:0:0:0:
402,192,163293,1,0,0:0:0:0:
475,192,163293,128,0,163379:0:0:0:0:
109,192,163379,1,0,0:0:0:0:
182,192,163465,1,0,0:0:0:50:kick.wav
329,192,163465,1,0,0:0:0:0:
475,192,163465,128,0,163636:0:0:0:0:
109,192,163636,1,0,0:0:0:0:
256,192,163636,128,0,163807:0:0:0:0:
36,192,163807,1,0,0:0:0:50:snare.wav
329,192,163807,1,0,0:0:0:0:
402,192,163807,1,0,0:0:0:0:
475,192,163807,1,0,0:0:0:0:
36,192,163979,128,0,164493:0:0:0:50:kick.wav
109,192,163979,128,0,164150:0:0:0:0:
256,192,163979,1,0,0:0:0:0:
182,192,164065,1,0,0:0:0:0:
329,192,164107,1,0,0:0:0:0:
475,192,164150,128,0,164322:0:0:0:0:
402,192,164236,128,0,164407:0:0:0:0:
329,192,164322,128,0,164493:0:0:0:50:snare.wav
256,192,164407,128,0,164579:0:0:0:0:
182,192,164493,128,0,164665:0:0:0:0:
109,192,164579,128,0,164665:0:0:0:0:
36,192,164665,128,0,165350:0:0:0:50:kick.wav
256,192,164665,1,0,0:0:0:50:crash.wav
329,192,164665,1,0,0:0:0:0:
402,192,164665,1,0,0:0:0:0:
475,192,164665,128,0,165007:0:0:0:0:
109,192,165179,128,0,165307:0:0:0:50:snare.wav
182,192,165179,128,0,165265:0:0:0:0:
256,192,165179,128,0,165222:0:0:0:0:
329,192,165179,1,0,0:0:0:0:
329,192,165350,128,0,165436:0:0:0:0:
475,192,165350,128,0,165522:0:0:0:0:
182,192,165436,1,0,0:0:0:0:
256,192,165522,128,0,165607:0:0:0:0:
402,192,165522,128,0,165693:0:0:0:0:
109,192,165607,1,0,0:0:0:0:
36,192,165693,128,0,165865:0:0:0:50:kick.wav
182,192,165693,128,0,165779:0:0:0:0:
329,192,165693,1,0,0:0:0:0:
109,192,165865,128,0,166036:0:0:0:50:snare.wav
256,192,165865,128,0,165950:0:0:0:0:
402,192,165865,1,0,0:0:0:0:
475,192,165865,1,0,0:0:0:0:
182,192,166036,128,0,166207:0:0:0:0:
329,192,166036,128,0,166122:0:0:0:0:
402,192,166122,1,0,0:0:0:0:
36,192,166207,128,0,166379:0:0:0:50:kick.wav
256,192,166207,1,0,0:0:0:0:
475,192,166207,128,0,166722:0:0:0:0:
109,192,166379,1,0,0:0:0:0:
402,192,166379,1,0,0:0:0:0:
182,192,166550,1,0,0:0:0:50:snare.wav
256,192,166550,128,0,166593:0:0:0:0:
329,192,166550,128,0,166636:0:0:0:0:
402,192,166550,128,0,166679:0:0:0:0:
36,192,166722,128,0,167236:0:0:0:0:
182,192,166722,1,0,0:0:0:0:
329,192,166807,1,0,0:0:0:0:
109,192,166893,1,0,0:0:0:0:
256,192,166893,1,0,0:0:0:0:
402,192,166979,1,0,0:0:0:0:
182,192,167065,1,0,0:0:0:50:kick.wav
329,192,167065,1,0,0:0:0:0:
475,192,167065,1,0,0:0:0:0:
109,192,167236,1,0,0:0:0:50:snare.wav
256,192,167236,128,0,167579:0:0:0:0:
402,192,167236,1,0,0:0:0:0:
475,192,167236,1,0,0:0:0:0:
36,192,167407,1,0,0:0:0:0:
329,192,167407,1,0,0:0:0:0:
109,192,167493,1,0,0:0:0:0:
182,192,167579,1,0,0:0:0:50:kick.wav
402,192,167579,1,0,0:0:0:0:
475,192,167579,128,0,167922:0:0:0:0:
36,192,167750,1,0,0:0:0:0:
329,192,167750,1,0,0:0:0:0:
36,192,167922,128,0,168050:0:0:0:50:snare.wav
109,192,167922,128,0,168007:0:0:0:0:
182,192,167922,128,0,167965:0:0:0:0:
256,192,167922,1,0,0:0:0:0:
329,192,168093,128,0,168179:0:0:0:0:
402,192,168122,128,0,168207:0:0:0:0:
475,192,168150,128,0,168236:0:0:0:0:
182,192,168265,128,0,168350:0:0:0:0:
109,192,168293,128,0,168379:0:0:0:0:
36,192,168322,128,0,168407:0:0:0:0:
256,192,168436,1,0,0:0:0:50:kick.wav
402,192,168436,1,0,0:0:0:0:
475,192,168436,1,0,0:0:0:0:
182,192,168607,128,0,168693:0:0:0:50:snare.wav
329,192,168607,1,0,0:0:0:0:
402,192,168607,1,0,0:0:0:0:
475,192,168607,1,0,0:0:0:0:
109,192,168636,128,0,168722:0:0:0:0:
36,192,168665,128,0,168750:0:0:0:0:
256,192,168779,128,0,168865:0:0:0:0:
329,192,168779,1,0,0:0:0:0:
402,192,168865,1,0,0:0:0:0:
36,192,168950,1,0,0:0:0:50:kick.wav
256,192,168950,128,0,169250:0:0:0:0:
475,192,168950,1,0,0:0:0:0:
182,192,169122,128,0,169250:0:0:0:0:
402,192,169122,1,0,0:0:0:0:
109,192,169165,128,0,169250:0:0:0:0:
36,192,169207,128,0,169250:0:0:0:0:
256,192,169293,128,0,169422:0:0:0:50:snare.wav
329,192,169293,128,0,169379:0:0:0:0:
402,192,169293,128,0,169336:0:0:0:0:
475,192,169293,1,0,0:0:0:0:
109,192,169465,128,0,169979:0:0:0:0:
182,192,169465,1,0,0:0:0:0:
36,192,169550,1,0,0:0:0:0:
256,192,169636,1,0,0:0:0:0:
329,192,169636,1,0,0:0:0:0:
182,192,169722,1,0,0:0:0:0:
329,192,169807,1,0,0:0:0:50:kick.wav
402,192,169807,1,0,0:0:0:0:
475,192,169807,1,0,0:0:0:0:
36,192,169979,128,0,170322:0:0:0:50:snare.wav
182,192,169979,1,0,0:0:0:0:
256,192,169979,1,0,0:0:0:0:
475,192,169979,1,0,0:0:0:0:
329,192,170150,1,0,0:0:0:0:
402,192,170150,1,0,0:0:0:0:
256,192,170236,1,0,0:0:0:0:
109,192,170322,1,0,0:0:0:50:kick.wav
182,192,170322,1,0,0:0:0:0:
475,192,170322,128,0,170836:0:0:0:0:
36,192,170493,1,0,0:0:0:0:
329,192,170493,1,0,0:0:0:0:
182,192,170665,1,0,0:0:0:50:snare.wav
256,192,170665,128,0,170707:0:0:0:0:
329,192,170665,128,0,170750:0:0:0:0:
402,192,170665,128,0,170793:0:0:0:0:
109,192,170836,128,0,171350:0:0:0:0:
182,192,170836,1,0,0:0:0:0:
256,192,171007,128,0,171179:0:0:0:0:
329,192,171007,1,0,0:0:0:0:
36,192,171093,1,0,0:0:0:0:
182,192,171179,1,0,0:0:0:50:kick.wav
402,192,171179,128,0,171350:0:0:0:0:
475,192,171179,1,0,0:0:0:0:
36,192,171350,1,0,0:0:0:50:snare.wav
256,192,171350,128,0,171693:0:0:0:0:
329,192,171350,1,0,0:0:0:0:
475,192,171350,1,0,0:0:0:0:
109,192,171522,128,0,171693:0:0:0:0:
182,192,171522,1,0,0:0:0:0:
329,192,171607,1,0,0:0:0:0:
36,192,171693,1,0,0:0:0:50:kick.wav
402,192,171693,1,0,0:0:0:0:
475,192,171693,1,0,0:0:0:0:
36,192,171865,128,0,171950:0:0:0:0:
109,192,171865,128,0,171907:0:0:0:0:
182,192,171865,1,0,0:0:0:0:
36,192,172036,1,0,0:0:0:50:snare.wav
109,192,172036,128,0,172079:0:0:0:0:
182,192,172036,128,0,172122:0:0:0:0:
329,192,172036,1,0,0:0:0:0:
256,192,172207,128,0,172550:0:0:0:0:
402,192,172207,1,0,0:0:0:0:
36,192,172293,1,0,0:0:0:0:
109,192,172379,1,0,0:0:0:0:
182,192,172379,1,0,0:0:0:0:
475,192,172465,1,0,0:0:0:0:
36,192,172550,1,0,0:0:0:50:kick.wav
329,192,172550,1,0,0:0:0:0:
402,192,172550,1,0,0:0:0:0:
109,192,172722,1,0,0:0:0:50:snare.wav
182,192,172722,1,0,0:0:0:0:
329,192,172722,128,0,173065:0:0:0:0:
475,192,172722,1,0,0:0:0:0:
36,192,172893,1,0,0:0:0:0:
256,192,172893,1,0,0:0:0:0:
109,192,172979,1,0,0:0:0:0:
182,192,173065,1,0,0:0:0:50:kick.wav
402,192,173065,1,0,0:0:0:0:
475,192,173065,128,0,173579:0:0:0:0:
36,192,173236,1,0,0:0:0:0:
256,192,173236,1,0,0:0:0:0:
109,192,173407,1,0,0:0:0:50:snare.wav
182,192,173407,1,0,0:0:0:0:
329,192,173407,1,0,0:0:0:0:
402,192,173407,1,0,0:0:0:0:
36,192,173579,128,0,173665:0:0:0:0:
109,192,173607,128,0,173693:0:0:0:0:
182,192,173636,128,0,173722:0:0:0:0:
475,192,173750,128,0,173836:0:0:0:0:
402,192,173779,128,0,173865:0:0:0:0:
329,192,173807,128,0,173893:0:0:0:0:
36,192,173922,1,0,0:0:0:50:kick.wav
109,192,173922,1,0,0:0:0:0:
182,192,173922,128,0,174265:0:0:0:0:
256,192,174093,1,0,0:0:0:50:snare.wav
329,192,174093,1,0,0:0:0:0:
402,192,174093,1,0,0:0:0:0:
475,192,174093,1,0,0:0:0:0:
109,192,174265,1,0,0:0:0:0:
329,192,174265,128,0,174522:0:0:0:0:
182,192,174350,1,0,0:0:0:0:
402,192,174350,128,0,174607:0:0:0:0:
36,192,174436,128,0,174607:0:0:0:50:kick.wav
256,192,174436,128,0,174950:0:0:0:0:
475,192,174436,128,0,174607:0:0:0:0:
109,192,174522,128,0,174607:0:0:0:0:
182,192,174607,128,0,174693:0:0:0:0:
329,192,174693,128,0,174779:0:0:0:0:
36,192,174779,128,0,174950:0:0:0:50:kick.wav
109,192,174779,128,0,175036:0:0:0:50:snare.wav
402,192,174779,128,0,174865:0:0:0:0:
475,192,174779,128,0,174950:0:0:0:0:
182,192,174865,128,0,175122:0:0:0:0:
329,192,174950,128,0,175207:0:0:0:0:
402,192,175036,128,0,175293:0:0:0:0:
36,192,175122,128,0,175293:0:0:0:50:kick.wav
256,192,175122,128,0,175722:0:0:0:0:
475,192,175122,128,0,175293:0:0:0:0:
109,192,175207,128,0,175293:0:0:0:0:
182,192,175293,128,0,175379:0:0:0:0:
329,192,175379,128,0,175465:0:0:0:0:
36,192,175465,128,0,175722:0:0:0:50:kick.wav
109,192,175465,128,0,175722:0:0:0:50:snare.wav
402,192,175465,128,0,175550:0:0:0:0:
475,192,175465,128,0,175636:0:0:0:0:
182,192,175550,128,0,175722:0:0:0:0:
329,192,175636,128,0,175807:0:0:0:0:
402,192,175722,128,0,175807:0:0:0:0:
36,192,175807,128,0,176150:0:0:0:50:kick.wav
109,192,175807,1,0,0:0:0:50:crash.wav
182,192,175807,1,0,0:0:0:0:
256,192,175807,1,0,0:0:0:0:
475,192,175807,1,0,0:0:0:0:
256,192,175979,1,0,0:0:0:0:
402,192,175979,1,0,0:0:0:0:
109,192,176150,1,0,0:0:0:50:snare.wav
182,192,176150,1,0,0:0:0:0:
329,192,176150,1,0,0:0:0:0:
475,192,176150,1,0,0:0:0:0:
256,192,176322,128,0,176665:0:0:0:0:
402,192,176322,1,0,0:0:0:0:
182,192,176407,1,0,0:0:0:0:
36,192,176493,1,0,0:0:0:0:
329,192,176493,1,0,0:0:0:0:
109,192,176579,1,0,0:0:0:0:
182,192,176665,1,0,0:0:0:50:kick.wav
402,192,176665,1,0,0:0:0:0:
475,192,176665,1,0,0:0:0:0:
36,192,176836,1,0,0:0:0:50:snare.wav
109,192,176836,1,0,0:0:0:0:
329,192,176836,1,0,0:0:0:0:
475,192,176836,128,0,178207:0:0:0:0:
182,192,177007,1,0,0:0:0:0:
402,192,177007,1,0,0:0:0:0:
256,192,177093,1,0,0:0:0:0:
36,192,177179,1,0,0:0:0:50:kick.wav
109,192,177179,1,0,0:0:0:0:
329,192,177179,1,0,0:0:0:0:
182,192,177350,1,0,0:0:0:0:
402,192,177350,1,0,0:0:0:0:
36,192,177522,1,0,0:0:0:50:snare.wav
109,192,177522,1,0,0:0:0:0:
256,192,177522,1,0,0:0:0:0:
329,192,177522,1,0,0:0:0:0:
182,192,177693,1,0,0:0:0:0:
402,192,177693,1,0,0:0:0:0:
329,192,177779,1,0,0:0:0:0:
109,192,177865,1,0,0:0:0:0:
256,192,177865,1,0,0:0:0:0:
329,192,177950,1,0,0:0:0:0:
36,192,178036,1,0,0:0:0:50:kick.wav
182,192,178036,1,0,0:0:0:0:
402,192,178036,1,0,0:0:0:0:
109,192,178207,1,0,0:0:0:50:snare.wav
256,192,178207,1,0,0:0:0:0:
329,192,178207,1,0,0:0:0:0:
402,192,178207,1,0,0:0:0:0:
36,192,178379,1,0,0:0:0:0:
475,192,178379,1,0,0:0:0:0:
182,192,178465,1,0,0:0:0:0:
256,192,178550,1,0,0:0:0:50:kick.wav
329,192,178550,1,0,0:0:0:0:
475,192,178550,1,0,0:0:0:0:
109,192,178722,1,0,0:0:0:0:
329,192,178722,1,0,0:0:0:0:
36,192,178893,1,0,0:0:0:50:snare.wav
256,192,178893,1,0,0:0:0:0:
402,192,178893,1,0,0:0:0:0:
475,192,178893,1,0,0:0:0:0:
109,192,179065,1,0,0:0:0:0:
329,192,179065,1,0,0:0:0:0:
182,192,179150,1,0,0:0:0:0:
402,192,179236,1,0,0:0:0:0:
475,192,179236,1,0,0:0:0:0:
256,192,179322,1,0,0:0:0:0:
36,192,179407,1,0,0:0:0:50:kick.wav
109,192,179407,1,0,0:0:0:0:
329,192,179407,1,0,0:0:0:0:
36,192,179579,128,0,179836:0:0:0:50:snare.wav
182,192,179579,1,0,0:0:0:0:
402,192,179579,1,0,0:0:0:0:
475,192,179579,1,0,0:0:0:0:
256,192,179750,1,0,0:0:0:0:
329,192,179750,1,0,0:0:0:0:
182,192,179836,1,0,0:0:0:0:
36,192,179922,1,0,0:0:0:50:kick.wav
402,192,179922,1,0,0:0:0:0:
475,192,179922,128,0,180179:0:0:0:0:
109,192,180093,1,0,0:0:0:0:
256,192,180093,1,0,0:0:0:0:
182,192,180265,1,0,0:0:0:50:snare.wav
329,192,180265,128,0,180522:0:0:0:0:
402,192,180265,1,0,0:0:0:0:
475,192,180265,1,0,0:0:0:0:
36,192,180436,1,0,0:0:0:0:
256,192,180436,1,0,0:0:0:0:
475,192,180522,1,0,0:0:0:0:
182,192,180607,128,0,180865:0:0:0:0:
329,192,180607,1,0,0:0:0:0:
109,192,180693,1,0,0:0:0:0:
256,192,180779,1,0,0:0:0:50:kick.wav
402,192,180779,1,0,0:0:0:0:
475,192,180779,1,0,0:0:0:0:
36,192,180950,128,0,181207:0:0:0:50:snare.wav
109,192,180950,1,0,0:0:0:0:
182,192,180950,1,0,0:0:0:0:
329,192,180950,1,0,0:0:0:0:
256,192,181122,1,0,0:0:0:0:
402,192,181122,1,0,0:0:0:0:
182,192,181207,1,0,0:0:0:0:
36,192,181293,1,0,0:0:0:50:kick.wav
329,192,181293,128,0,181550:0:0:0:0:
475,192,181293,128,0,183007:0:0:0:0:
109,192,181465,1,0,0:0:0:0:
182,192,181465,1,0,0:0:0:0:
36,192,181636,1,0,0:0:0:50:snare.wav
109,192,181636,1,0,0:0:0:0:
256,192,181636,1,0,0:0:0:0:
329,192,181636,1,0,0:0:0:0:
182,192,181807,128,0,182065:0:0:0:0:
402,192,181807,1,0,0:0:0:0:
329,192,181893,1,0,0:0:0:0:
109,192,181979,1,0,0:0:0:0:
256,192,181979,1,0,0:0:0:0:
329,192,182065,1,0,0:0:0:0:
36,192,182150,1,0,0:0:0:50:kick.wav
182,192,182150,1,0,0:0:0:0:
402,192,182150,1,0,0:0:0:0:
36,192,182322,128,0,183007:0:0:0:50:snare.wav
109,192,182322,1,0,0:0:0:0:
256,192,182322,1,0,0:0:0:0:
329,192,182322,1,0,0:0:0:0:
329,192,182493,1,0,0:0:0:0:
182,192,182579,1,0,0:0:0:0:
109,192,182665,1,0,0:0:0:50:kick.wav
256,192,182665,1,0,0:0:0:0:
402,192,182665,1,0,0:0:0:0:
182,192,182836,1,0,0:0:0:0:
329,192,182836,1,0,0:0:0:0:
109,192,183007,128,0,183350:0:0:0:50:snare.wav
182,192,183007,1,0,0:0:0:0:
256,192,183007,1,0,0:0:0:0:
402,192,183007,1,0,0:0:0:0:
329,192,183179,1,0,0:0:0:0:
475,192,183179,1,0,0:0:0:0:
256,192,183265,1,0,0:0:0:0:
36,192,183350,1,0,0:0:0:0:
475,192,183350,128,0,183693:0:0:0:0:
402,192,183436,1,0,0:0:0:0:
109,192,183522,1,0,0:0:0:50:kick.wav
182,192,183522,1,0,0:0:0:0:
329,192,183522,1,0,0:0:0:0:
36,192,183693,1,0,0:0:0:50:snare.wav
182,192,183693,1,0,0:0:0:0:
256,192,183693,128,0,184036:0:0:0:0:
402,192,183693,1,0,0:0:0:0:
329,192,183865,1,0,0:0:0:0:
475,192,183865,1,0,0:0:0:0:
109,192,183950,1,0,0:0:0:0:
36,192,184036,128,0,184379:0:0:0:50:kick.wav
182,192,184036,1,0,0:0:0:0:
402,192,184036,1,0,0:0:0:0:
329,192,184207,1,0,0:0:0:0:
475,192,184207,1,0,0:0:0:0:
109,192,184379,1,0,0:0:0:50:snare.wav
256,192,184379,1,0,0:0:0:0:
402,192,184379,1,0,0:0:0:0:
475,192,184379,1,0,0:0:0:0:
182,192,184550,128,0,184893:0:0:0:0:
329,192,184550,1,0,0:0:0:0:
402,192,184636,1,0,0:0:0:0:
256,192,184722,1,0,0:0:0:0:
475,192,184722,1,0,0:0:0:0:
36,192,184807,1,0,0:0:0:0:
109,192,184893,1,0,0:0:0:50:kick.wav
329,192,184893,1,0,0:0:0:0:
402,192,184893,1,0,0:0:0:0:
36,192,185065,1,0,0:0:0:50:snare.wav
256,192,185065,1,0,0:0:0:0:
402,192,185065,1,0,0:0:0:0:
475,192,185065,128,0,185407:0:0:0:0:
182,192,185236,1,0,0:0:0:0:
329,192,185236,1,0,0:0:0:0:
109,192,185322,1,0,0:0:0:0:
36,192,185407,1,0,0:0:0:50:kick.wav
256,192,185407,1,0,0:0:0:0:
402,192,185407,1,0,0:0:0:0:
182,192,185579,1,0,0:0:0:0:
329,192,185579,1,0,0:0:0:0:
256,192,185665,128,0,185750:0:0:0:0:
36,192,185750,1,0,0:0:0:50:snare.wav
109,192,185750,1,0,0:0:0:0:
402,192,185750,1,0,0:0:0:0:
475,192,185750,128,0,185836:0:0:0:0:
329,192,185922,128,0,186007:0:0:0:0:
475,192,185922,1,0,0:0:0:0:
109,192,186007,1,0,0:0:0:0:
182,192,186093,128,0,186179:0:0:0:0:
329,192,186093,1,0,0:0:0:0:
475,192,186179,1,0,0:0:0:0:
36,192,186265,1,0,0:0:0:50:kick.wav
182,192,186265,1,0,0:0:0:0:
402,192,186265,128,0,186350:0:0:0:0:
109,192,186436,1,0,0:0:0:50:snare.wav
256,192,186436,128,0,186522:0:0:0:0:
402,192,186436,1,0,0:0:0:0:
475,192,186436,1,0,0:0:0:0:
109,192,186607,128,0,186693:0:0:0:50:kick.wav
256,192,186607,1,0,0:0:0:0:
329,192,186693,1,0,0:0:0:50:snare.wav
36,192,186779,128,0,187036:0:0:0:50:kick.wav
109,192,186779,1,0,0:0:0:50:crash.wav
182,192,186779,1,0,0:0:0:0:
402,192,186779,1,0,0:0:0:0:
475,192,186779,128,0,188150:0:0:0:0:
182,192,186950,1,0,0:0:0:0:
329,192,186950,1,0,0:0:0:0:
36,192,187122,1,0,0:0:0:50:snare.wav
109,192,187122,1,0,0:0:0:0:
256,192,187122,1,0,0:0:0:0:
402,192,187122,1,0,0:0:0:0:
182,192,187293,128,0,187550:0:0:0:0:
329,192,187293,1,0,0:0:0:0:
109,192,187379,1,0,0:0:0:0:
256,192,187465,1,0,0:0:0:0:
402,192,187465,1,0,0:0:0:0:
329,192,187550,1,0,0:0:0:0:
36,192,187636,1,0,0:0:0:50:kick.wav
109,192,187636,1,0,0:0:0:0:
182,192,187636,1,0,0:0:0:0:
36,192,187807,1,0,0:0:0:50:snare.wav
256,192,187807,1,0,0:0:0:0:
329,192,187807,128,0,188065:0:0:0:0:
402,192,187807,1,0,0:0:0:0:
109,192,187979,1,0,0:0:0:0:
182,192,187979,1,0,0:0:0:0:
256,192,188065,1,0,0:0:0:0:
36,192,188150,128,0,188836:0:0:0:50:kick.wav
329,192,188150,1,0,0:0:0:0:
402,192,188150,1,0,0:0:0:0:
109,192,188322,1,0,0:0:0:0:
475,192,188322,1,0,0:0:0:0:
182,192,188493,1,0,0:0:0:50:snare.wav
256,192,188493,1,0,0:0:0:0:
402,192,188493,1,0,0:0:0:0:
475,192,188493,1,0,0:0:0:0:
109,192,188665,1,0,0:0:0:0:
329,192,188665,1,0,0:0:0:0:
182,192,188750,1,0,0:0:0:0:
256,192,188836,1,0,0:0:0:0:
475,192,188836,128,0,189522:0:0:0:0:
402,192,188922,1,0,0:0:0:0:
36,192,189007,1,0,0:0:0:50:kick.wav
182,192,189007,1,0,0:0:0:0:
329,192,189007,1,0,0:0:0:0:
36,192,189179,1,0,0:0:0:50:snare.wav
109,192,189179,1,0,0:0:0:0:
256,192,189179,1,0,0:0:0:0:
402,192,189179,1,0,0:0:0:0:
182,192,189350,1,0,0:0:0:0:
402,192,189350,1,0,0:0:0:0:
329,192,189436,1,0,0:0:0:0:
36,192,189522,1,0,0:0:0:50:kick.wav
109,192,189522,1,0,0:0:0:0:
256,192,189522,128,0,190207:0:0:0:0:
329,192,189693,1,0,0:0:0:0:
475,192,189693,1,0,0:0:0:0:
36,192,189865,1,0,0:0:0:50:snare.wav
109,192,189865,1,0,0:0:0:0:
182,192,189865,1,0,0:0:0:0:
402,192,189865,1,0,0:0:0:0:
329,192,190036,1,0,0:0:0:0:
475,192,190036,1,0,0:0:0:0:
109,192,190122,1,0,0:0:0:0:
182,192,190207,1,0,0:0:0:0:
402,192,190207,1,0,0:0:0:0:
329,192,190293,1,0,0:0:0:0:
36,192,190379,1,0,0:0:0:50:kick.wav
109,192,190379,1,0,0:0:0:0:
256,192,190379,1,0,0:0:0:0:
182,192,190550,1,0,0:0:0:50:snare.wav
329,192,190550,1,0,0:0:0:0:
402,192,190550,128,0,190807:0:0:0:0:
475,192,190550,1,0,0:0:0:0:
36,192,190722,1,0,0:0:0:0:
256,192,190722,1,0,0:0:0:0:
182,192,190807,1,0,0:0:0:0:
109,192,190893,128,0,191150:0:0:0:50:kick.wav
402,192,190893,1,0,0:0:0:0:
475,192,190893,1,0,0:0:0:0:
182,192,191065,1,0,0:0:0:0:
329,192,191065,1,0,0:0:0:0:
36,192,191236,1,0,0:0:0:50:snare.wav
109,192,191236,1,0,0:0:0:0:
256,192,191236,1,0,0:0:0:0:
475,192,191236,128,0,191493:0:0:0:0:
182,192,191407,1,0,0:0:0:0:
402,192,191407,1,0,0:0:0:0:
256,192,191493,1,0,0:0:0:0:
329,192,191579,128,0,191836:0:0:0:0:
475,192,191579,1,0,0:0:0:0:
36,192,191665,1,0,0:0:0:0:
109,192,191750,1,0,0:0:0:50:kick.wav
182,192,191750,1,0,0:0:0:0:
402,192,191750,1,0,0:0:0:0:
36,192,191922,1,0,0:0:0:50:snare.wav
182,192,191922,128,0,192179:0:0:0:0:
329,192,191922,1,0,0:0:0:0:
475,192,191922,1,0,0:0:0:0:
256,192,192093,1,0,0:0:0:0:
402,192,192093,1,0,0:0:0:0:
475,192,192179,1,0,0:0:0:0:
36,192,192265,128,0,192522:0:0:0:50:kick.wav
182,192,192265,1,0,0:0:0:0:
329,192,192265,1,0,0:0:0:0:
402,192,192436,1,0,0:0:0:0:
475,192,192436,1,0,0:0:0:0:
36,192,192607,1,0,0:0:0:50:snare.wav
109,192,192607,1,0,0:0:0:0:
182,192,192607,1,0,0:0:0:0:
329,192,192607,1,0,0:0:0:0:
256,192,192779,128,0,193036:0:0:0:0:
402,192,192779,1,0,0:0:0:0:
475,192,192865,1,0,0:0:0:0:
182,192,192950,1,0,0:0:0:0:
329,192,192950,1,0,0:0:0:0:
109,192,193122,1,0,0:0:0:50:kick.wav
256,192,193122,1,0,0:0:0:0:
402,192,193122,1,0,0:0:0:0:
475,192,193207,1,0,0:0:0:0:
36,192,193293,1,0,0:0:0:50:snare.wav
182,192,193293,1,0,0:0:0:0:
256,192,193293,128,0,193807:0:0:0:0:
329,192,193293,1,0,0:0:0:0:
475,192,193465,1,0,0:0:0:0:
402,192,193550,1,0,0:0:0:0:
36,192,193636,1,0,0:0:0:50:kick.wav
109,192,193636,1,0,0:0:0:0:
182,192,193636,1,0,0:0:0:0:
329,192,193807,1,0,0:0:0:0:
475,192,193807,1,0,0:0:0:0:
36,192,193979,1,0,0:0:0:50:snare.wav
182,192,193979,1,0,0:0:0:0:
256,192,193979,1,0,0:0:0:0:
402,192,193979,1,0,0:0:0:0:
329,192,194150,1,0,0:0:0:0:
475,192,194150,1,0,0:0:0:0:
36,192,194236,128,0,194407:0:0:0:0:
182,192,194236,1,0,0:0:0:0:
256,192,194322,1,0,0:0:0:0:
402,192,194407,1,0,0:0:0:0:
36,192,194493,1,0,0:0:0:50:kick.wav
182,192,194493,1,0,0:0:0:0:
329,192,194493,128,0,194750:0:0:0:0:
109,192,194665,1,0,0:0:0:50:snare.wav
256,192,194665,1,0,0:0:0:0:
402,192,194665,1,0,0:0:0:0:
475,192,194665,1,0,0:0:0:0:
36,192,194836,1,0,0:0:0:0:
329,192,194836,1,0,0:0:0:0:
475,192,194836,128,0,196036:0:0:0:0:
109,192,194922,1,0,0:0:0:0:
182,192,195007,1,0,0:0:0:50:kick.wav
256,192,195007,1,0,0:0:0:0:
402,192,195007,1,0,0:0:0:0:
36,192,195179,1,0,0:0:0:0:
329,192,195179,1,0,0:0:0:0:
36,192,195350,1,0,0:0:0:50:snare.wav
182,192,195350,1,0,0:0:0:0:
256,192,195350,1,0,0:0:0:0:
402,192,195350,1,0,0:0:0:0:
109,192,195522,1,0,0:0:0:0:
329,192,195522,1,0,0:0:0:0:
402,192,195607,1,0,0:0:0:0:
36,192,195693,1,0,0:0:0:0:
256,192,195693,1,0,0:0:0:0:
329,192,195779,1,0,0:0:0:0:
109,192,195865,1,0,0:0:0:50:kick.wav
182,192,195865,1,0,0:0:0:0:
402,192,195865,1,0,0:0:0:0:
36,192,196036,1,0,0:0:0:50:snare.wav
182,192,196036,1,0,0:0:0:0:
256,192,196036,1,0,0:0:0:0:
329,192,196036,1,0,0:0:0:0:
36,192,196207,1,0,0:0:0:50:kick.wav
109,192,196207,1,0,0:0:0:0:
256,192,196207,1,0,0:0:0:0:
402,192,196207,1,0,0:0:0:0:
475,192,196207,1,0,0:0:0:0:
36,192,196550,1,0,0:0:0:50:kick.wav
109,192,196550,1,0,0:0:0:50:snare.wav
256,192,196550,1,0,0:0:0:0:
402,192,196550,1,0,0:0:0:0:
475,192,196550,1,0,0:0:0:0:
36,192,196722,1,0,0:0:0:50:kick.wav
109,192,196722,1,0,0:0:0:50:snare.wav
256,192,196722,1,0,0:0:0:0:
402,192,196722,1,0,0:0:0:0:
475,192,196722,1,0,0:0:0:0:
109,192,196893,1,0,0:0:0:50:kick.wav
182,192,196893,1,0,0:0:0:50:snare.wav
329,192,196893,1,0,0:0:0:0:
475,192,196893,1,0,0:0:0:0:
36,192,197065,1,0,0:0:0:50:kick.wav
182,192,197065,1,0,0:0:0:50:snare.wav
329,192,197065,1,0,0:0:0:0:
402,192,197065,1,0,0:0:0:0:
109,192,197236,1,0,0:0:0:50:kick.wav
256,192,197236,1,0,0:0:0:0:
402,192,197236,1,0,0:0:0:0:
475,192,197236,1,0,0:0:0:0:
36,192,197407,128,0,197665:0:0:0:70:clap_wave.wav
109,192,197407,128,0,197665:0:0:0:0:
182,192,197407,128,0,197665:0:0:0:0:
329,192,197407,128,0,197665:0:0:0:0:
402,192,197407,128,0,197665:0:0:0:0:
475,192,197407,128,0,197665:0:0:0:0:
36,192,197750,128,0,198436:0:0:0:50:kick.wav
109,192,197750,1,0,0:0:0:50:crash.wav
256,192,197750,1,0,0:0:0:0:
402,192,197750,1,0,0:0:0:0:
475,192,197750,128,0,198093:0:0:0:0:
182,192,197922,1,0,0:0:0:0:
329,192,197922,1,0,0:0:0:0:
109,192,198093,1,0,0:0:0:50:snare.wav
256,192,198093,1,0,0:0:0:0:
329,192,198093,1,0,0:0:0:0:
402,192,198093,1,0,0:0:0:0:
182,192,198265,1,0,0:0:0:0:
329,192,198350,1,0,0:0:0:0:
109,192,198436,1,0,0:0:0:0:
475,192,198436,1,0,0:0:0:0:
256,192,198522,1,0,0:0:0:0:
36,192,198607,128,0,198779:0:0:0:50:kick.wav
182,192,198607,1,0,0:0:0:0:
402,192,198607,1,0,0:0:0:0:
109,192,198779,1,0,0:0:0:50:snare.wav
256,192,198779,1,0,0:0:0:0:
402,192,198779,1,0,0:0:0:0:
475,192,198779,128,0,198950:0:0:0:0:
109,192,198950,128,0,199465:0:0:0:0:
329,192,198950,128,0,199465:0:0:0:0:
402,192,199036,1,0,0:0:0:0:
36,192,199122,1,0,0:0:0:50:kick.wav
256,192,199122,1,0,0:0:0:0:
475,192,199122,1,0,0:0:0:0:
182,192,199293,1,0,0:0:0:0:
402,192,199293,1,0,0:0:0:0:
36,192,199465,1,0,0:0:0:50:snare.wav
256,192,199465,1,0,0:0:0:0:
402,192,199465,1,0,0:0:0:0:
475,192,199465,1,0,0:0:0:0:
182,192,199636,128,0,200150:0:0:0:0:
256,192,199636,1,0,0:0:0:0:
36,192,199722,1,0,0:0:0:0:
329,192,199807,1,0,0:0:0:0:
475,192,199807,1,0,0:0:0:0:
109,192,199893,1,0,0:0:0:0:
36,192,199979,1,0,0:0:0:50:kick.wav
256,192,199979,1,0,0:0:0:0:
402,192,199979,1,0,0:0:0:0:
109,192,200150,1,0,0:0:0:50:snare.wav
329,192,200150,128,0,200493:0:0:0:0:
402,192,200150,1,0,0:0:0:0:
475,192,200150,128,0,200493:0:0:0:0:
182,192,200322,128,0,200493:0:0:0:0:
36,192,200493,128,0,201179:0:0:0:50:kick.wav
256,192,200493,1,0,0:0:0:0:
402,192,200493,1,0,0:0:0:0:
109,192,200665,1,0,0:0:0:0:
329,192,200665,1,0,0:0:0:0:
182,192,200836,1,0,0:0:0:50:snare.wav
256,192,200836,1,0,0:0:0:0:
402,192,200836,1,0,0:0:0:0:
475,192,200836,128,0,201093:0:0:0:0:
109,192,201007,1,0,0:0:0:0:
329,192,201007,1,0,0:0:0:0:
182,192,201093,1,0,0:0:0:0:
256,192,201179,128,0,201436:0:0:0:0:
475,192,201179,1,0,0:0:0:0:
109,192,201265,1,0,0:0:0:0:
36,192,201350,1,0,0:0:0:50:kick.wav
329,192,201350,1,0,0:0:0:0:
402,192,201350,128,0,201436:0:0:0:0:
109,192,201522,128,0,201693:0:0:0:50:snare.wav
182,192,201522,1,0,0:0:0:0:
256,192,201522,1,0,0:0:0:0:
402,192,201522,1,0,0:0:0:0:
36,192,201693,128,0,202036:0:0:0:0:
475,192,201693,128,0,202036:0:0:0:0:
329,192,201779,1,0,0:0:0:0:
109,192,201865,1,0,0:0:0:50:kick.wav
182,192,201865,1,0,0:0:0:0:
256,192,201865,128,0,202122:0:0:0:0:
182,192,202036,1,0,0:0:0:0:
402,192,202036,1,0,0:0:0:0:
36,192,202207,1,0,0:0:0:50:snare.wav
109,192,202207,1,0,0:0:0:0:
256,192,202207,1,0,0:0:0:0:
329,192,202207,128,0,202465:0:0:0:0:
402,192,202379,1,0,0:0:0:0:
475,192,202379,128,0,202893:0:0:0:0:
109,192,202465,1,0,0:0:0:0:
36,192,202550,128,0,202722:0:0:0:0:
256,192,202550,1,0,0:0:0:0:
182,192,202636,1,0,0:0:0:0:
109,192,202722,1,0,0:0:0:50:kick.wav
329,192,202722,1,0,0:0:0:0:
402,192,202722,1,0,0:0:0:0:
182,192,202893,1,0,0:0:0:50:snare.wav
256,192,202893,128,0,203236:0:0:0:0:
402,192,202893,128,0,203065:0:0:0:0:
36,192,203065,1,0,0:0:0:0:
109,192,203065,1,0,0:0:0:0:
402,192,203150,1,0,0:0:0:0:
36,192,203236,128,0,203922:0:0:0:50:kick.wav
109,192,203236,1,0,0:0:0:0:
329,192,203236,1,0,0:0:0:0:
475,192,203236,128,0,203579:0:0:0:0:
182,192,203407,1,0,0:0:0:0:
402,192,203407,1,0,0:0:0:0:
109,192,203579,1,0,0:0:0:50:snare.wav
182,192,203579,1,0,0:0:0:0:
256,192,203579,1,0,0:0:0:0:
329,192,203579,1,0,0:0:0:0:
329,192,203750,1,0,0:0:0:0:
475,192,203750,1,0,0:0:0:0:
182,192,203836,1,0,0:0:0:0:
256,192,203922,1,0,0:0:0:0:
402,192,203922,1,0,0:0:0:0:
475,192,204007,1,0,0:0:0:0:
36,192,204093,1,0,0:0:0:50:kick.wav
109,192,204093,1,0,0:0:0:0:
182,192,204093,1,0,0:0:0:0:
256,192,204265,128,0,204436:0:0:0:50:snare.wav
329,192,204265,1,0,0:0:0:0:
402,192,204265,1,0,0:0:0:0:
475,192,204265,1,0,0:0:0:0:
36,192,204436,1,0,0:0:0:0:
109,192,204436,1,0,0:0:0:0:
475,192,204436,128,0,205293:0:0:0:0:
256,192,204522,1,0,0:0:0:0:
182,192,204607,128,0,204950:0:0:0:50:kick.wav
329,192,204607,1,0,0:0:0:0:
402,192,204607,1,0,0:0:0:0:
36,192,204779,1,0,0:0:0:0:
256,192,204779,1,0,0:0:0:0:
109,192,204950,1,0,0:0:0:50:snare.wav
256,192,204950,1,0,0:0:0:0:
329,192,204950,1,0,0:0:0:0:
402,192,204950,1,0,0:0:0:0:
36,192,205122,128,0,205636:0:0:0:0:
182,192,205122,1,0,0:0:0:0:
329,192,205207,1,0,0:0:0:0:
109,192,205293,1,0,0:0:0:0:
256,192,205293,1,0,0:0:0:0:
402,192,205379,1,0,0:0:0:0:
182,192,205465,1,0,0:0:0:50:kick.wav
329,192,205465,128,0,205636:0:0:0:0:
475,192,205465,1,0,0:0:0:0:
109,192,205636,128,0,205979:0:0:0:50:snare.wav
256,192,205636,1,0,0:0:0:0:
402,192,205636,1,0,0:0:0:0:
475,192,205636,128,0,205807:0:0:0:0:
36,192,205807,1,0,0:0:0:0:
329,192,205807,128,0,206322:0:0:0:0:
475,192,205893,1,0,0:0:0:0:
182,192,205979,128,0,206665:0:0:0:50:kick.wav
256,192,205979,1,0,0:0:0:0:
402,192,205979,1,0,0:0:0:0:
36,192,206150,1,0,0:0:0:0:
475,192,206150,1,0,0:0:0:0:
109,192,206322,1,0,0:0:0:50:snare.wav
256,192,206322,1,0,0:0:0:0:
402,192,206322,1,0,0:0:0:0:
475,192,206322,1,0,0:0:0:0:
36,192,206493,1,0,0:0:0:0:
329,192,206493,1,0,0:0:0:0:
256,192,206579,1,0,0:0:0:0:
402,192,206665,1,0,0:0:0:0:
475,192,206665,1,0,0:0:0:0:
109,192,206750,1,0,0:0:0:0:
36,192,206836,128,0,207007:0:0:0:50:kick.wav
256,192,206836,1,0,0:0:0:0:
329,192,206836,128,0,207007:0:0:0:0:
109,192,207007,128,0,207179:0:0:0:50:snare.wav
182,192,207007,1,0,0:0:0:0:
402,192,207007,1,0,0:0:0:0:
475,192,207007,1,0,0:0:0:0:
329,192,207179,1,0,0:0:0:0:
475,192,207179,128,0,207522:0:0:0:0:
256,192,207265,1,0,0:0:0:0:
36,192,207350,128,0,207607:0:0:0:50:kick.wav
109,192,207350,128,0,207522:0:0:0:0:
182,192,207350,128,0,207436:0:0:0:0:
329,192,207436,128,0,207522:0:0:0:0:
256,192,207522,128,0,207607:0:0:0:0:
182,192,207607,128,0,207693:0:0:0:0:
36,192,207693,128,0,207950:0:0:0:50:snare.wav
329,192,207693,128,0,208036:0:0:0:0:
402,192,207693,128,0,207950:0:0:0:0:
475,192,207693,128,0,207865:0:0:0:0:
109,192,207779,128,0,208036:0:0:0:0:
182,192,207865,128,0,208122:0:0:0:0:
256,192,207950,128,0,208207:0:0:0:0:
475,192,208036,128,0,208293:0:0:0:0:
402,192,208122,128,0,208293:0:0:0:0:
36,192,208207,128,0,208293:0:0:0:50:kick.wav
109,192,208207,128,0,208293:0:0:0:0:
329,192,208207,128,0,208293:0:0:0:0:
36,192,208379,128,0,208636:0:0:0:50:snare.wav
109,192,208379,128,0,208636:0:0:0:70:clap_wave.wav
182,192,208379,128,0,208636:0:0:0:0:
329,192,208379,128,0,208636:0:0:0:0:
402,192,208379,128,0,208636:0:0:0:0:
475,192,208379,128,0,208636:0:0:0:0:
36,192,208722,128,0,209065:0:0:0:50:kick.wav
109,192,208722,1,0,0:0:0:50:crash.wav
256,192,208722,1,0,0:0:0:0:
402,192,208722,1,0,0:0:0:0:
475,192,208722,128,0,209407:0:0:0:0:
182,192,208893,1,0,0:0:0:0:
329,192,208893,1,0,0:0:0:0:
109,192,209065,1,0,0:0:0:50:snare.wav
256,192,209065,1,0,0:0:0:0:
329,192,209065,1,0,0:0:0:0:
402,192,209065,1,0,0:0:0:0:
182,192,209236,1,0,0:0:0:0:
329,192,209322,1,0,0:0:0:0:
36,192,209407,1,0,0:0:0:0:
256,192,209407,1,0,0:0:0:0:
402,192,209493,1,0,0:0:0:0:
109,192,209579,1,0,0:0:0:50:kick.wav
182,192,209579,128,0,209750:0:0:0:0:
475,192,209579,1,0,0:0:0:0:
36,192,209750,1,0,0:0:0:50:snare.wav
256,192,209750,1,0,0:0:0:0:
329,192,209750,128,0,209922:0:0:0:0:
402,192,209750,1,0,0:0:0:0:
182,192,209922,128,0,210436:0:0:0:0:
475,192,209922,128,0,210436:0:0:0:0:
109,192,210007,1,0,0:0:0:0:
36,192,210093,1,0,0:0:0:50:kick.wav
256,192,210093,1,0,0:0:0:0:
402,192,210093,1,0,0:0:0:0:
109,192,210265,1,0,0:0:0:0:
329,192,210265,1,0,0:0:0:0:
36,192,210436,1,0,0:0:0:50:snare.wav
256,192,210436,1,0,0:0:0:0:
329,192,210436,1,0,0:0:0:0:
402,192,210436,1,0,0:0:0:0:
109,192,210607,128,0,211122:0:0:0:0:
182,192,210607,1,0,0:0:0:0:
475,192,210693,1,0,0:0:0:0:
36,192,210779,1,0,0:0:0:0:
256,192,210779,1,0,0:0:0:0:
402,192,210865,1,0,0:0:0:0:
182,192,210950,1,0,0:0:0:50:kick.wav
329,192,210950,1,0,0:0:0:0:
475,192,210950,1,0,0:0:0:0:
36,192,211122,128,0,211465:0:0:0:50:snare.wav
256,192,211122,1,0,0:0:0:0:
329,192,211122,128,0,211465:0:0:0:0:
402,192,211122,1,0,0:0:0:0:
182,192,211293,128,0,211465:0:0:0:0:
109,192,211465,1,0,0:0:0:50:kick.wav
402,192,211465,1,0,0:0:0:0:
475,192,211465,128,0,211979:0:0:0:0:
182,192,211636,1,0,0:0:0:0:
329,192,211636,1,0,0:0:0:0:
36,192,211807,128,0,212150:0:0:0:50:snare.wav
109,192,211807,1,0,0:0:0:0:
256,192,211807,1,0,0:0:0:0:
402,192,211807,1,0,0:0:0:0:
182,192,211979,1,0,0:0:0:50:kick.wav
256,192,211979,128,0,212150:0:0:0:0:
329,192,211979,1,0,0:0:0:0:
402,192,211979,128,0,212150:0:0:0:0:
109,192,212322,1,0,0:0:0:50:kick.wav
182,192,212322,128,0,212493:0:0:0:0:
329,192,212322,128,0,212493:0:0:0:0:
475,192,212322,128,0,212493:0:0:0:0:
36,192,212665,128,0,213007:0:0:0:50:kick.wav
182,192,212665,1,0,0:0:0:0:
402,192,212665,1,0,0:0:0:0:
475,192,212665,128,0,213007:0:0:0:0:
109,192,212836,1,0,0:0:0:0:
329,192,212836,1,0,0:0:0:0:
182,192,213007,1,0,0:0:0:50:kick.wav
256,192,213007,1,0,0:0:0:0:
402,192,213007,1,0,0:0:0:0:
36,192,213179,1,0,0:0:0:50:snare.wav
329,192,213179,1,0,0:0:0:0:
402,192,213179,128,0,213522:0:0:0:0:
475,192,213179,1,0,0:0:0:0:
109,192,213350,128,0,213865:0:0:0:50:kick.wav
182,192,213350,1,0,0:0:0:0:
256,192,213350,1,0,0:0:0:0:
329,192,213522,128,0,213865:0:0:0:0:
36,192,213607,1,0,0:0:0:50:snare.wav
182,192,213607,1,0,0:0:0:0:
402,192,213693,1,0,0:0:0:50:kick.wav
475,192,213693,1,0,0:0:0:0:
36,192,213865,1,0,0:0:0:50:snare.wav
182,192,213865,1,0,0:0:0:0:
256,192,213865,128,0,214207:0:0:0:0:
475,192,213865,128,0,214207:0:0:0:0:
329,192,213950,1,0,0:0:0:50:kick.wav
402,192,213950,1,0,0:0:0:0:
109,192,214122,1,0,0:0:0:50:snare.wav
182,192,214122,1,0,0:0:0:0:
36,192,214207,128,0,214893:0:0:0:50:kick.wav
329,192,214207,128,0,214379:0:0:0:0:
402,192,214207,1,0,0:0:0:0:
109,192,214379,1,0,0:0:0:0:
256,192,214379,1,0,0:0:0:0:
182,192,214550,1,0,0:0:0:50:snare.wav
329,192,214550,1,0,0:0:0:0:
402,192,214550,1,0,0:0:0:0:
475,192,214550,1,0,0:0:0:0:
256,192,214722,128,0,214893:0:0:0:0:
329,192,214722,1,0,0:0:0:0:
182,192,214807,1,0,0:0:0:0:
109,192,214893,1,0,0:0:0:50:kick.wav
402,192,214893,1,0,0:0:0:0:
475,192,214893,1,0,0:0:0:0:
329,192,214979,1,0,0:0:0:0:
36,192,215065,128,0,215236:0:0:0:0:
182,192,215065,128,0,215236:0:0:0:0:
256,192,215236,1,0,0:0:0:50:snare.wav
329,192,215236,1,0,0:0:0:0:
402,192,215236,1,0,0:0:0:0:
475,192,215236,1,0,0:0:0:0:
109,192,215407,128,0,215922:0:0:0:0:
256,192,215407,128,0,215579:0:0:0:0:
475,192,215493,1,0,0:0:0:0:
36,192,215579,1,0,0:0:0:50:kick.wav
329,192,215579,1,0,0:0:0:0:
402,192,215579,128,0,215922:0:0:0:0:
182,192,215750,1,0,0:0:0:0:
256,192,215750,1,0,0:0:0:0:
36,192,215922,1,0,0:0:0:50:snare.wav
182,192,215922,1,0,0:0:0:0:
329,192,215922,128,0,216265:0:0:0:0:
475,192,215922,1,0,0:0:0:0:
109,192,216093,1,0,0:0:0:0:
256,192,216093,1,0,0:0:0:0:
182,192,216179,1,0,0:0:0:0:
36,192,216265,128,0,216607:0:0:0:50:kick.wav
402,192,216265,128,0,216436:0:0:0:0:
475,192,216265,1,0,0:0:0:0:
256,192,216350,1,0,0:0:0:0:
329,192,216522,128,0,216693:0:0:0:0:
402,192,216522,1,0,0:0:0:0:
109,192,216607,128,0,216950:0:0:0:50:snare.wav
182,192,216607,1,0,0:0:0:0:
256,192,216607,1,0,0:0:0:0:
475,192,216607,1,0,0:0:0:0:
256,192,216779,128,0,216950:0:0:0:0:
329,192,216779,1,0,0:0:0:0:
36,192,216950,1,0,0:0:0:50:kick.wav
182,192,216950,1,0,0:0:0:0:
329,192,216950,1,0,0:0:0:0:
475,192,216950,1,0,0:0:0:0:
182,192,217122,1,0,0:0:0:0:
329,192,217122,1,0,0:0:0:0:
36,192,217293,1,0,0:0:0:50:kick.wav
109,192,217293,1,0,0:0:0:50:snare.wav
256,192,217293,1,0,0:0:0:0:
402,192,217293,1,0,0:0:0:0:
475,192,217293,1,0,0:0:0:0:
329,192,217379,1,0,0:0:0:0:
109,192,217465,1,0,0:0:0:0:
182,192,217465,1,0,0:0:0:0:
256,192,217550,1,0,0:0:0:0:
36,192,217636,1,0,0:0:0:50:kick.wav
182,192,217636,1,0,0:0:0:0:
329,192,217636,1,0,0:0:0:0:
475,192,217636,1,0,0:0:0:0:
109,192,217722,1,0,0:0:0:0:
329,192,217807,1,0,0:0:0:0:
402,192,217807,1,0,0:0:0:0:
36,192,217979,1,0,0:0:0:50:kick.wav
109,192,217979,1,0,0:0:0:50:snare.wav
256,192,217979,1,0,0:0:0:0:
402,192,217979,1,0,0:0:0:0:
475,192,217979,1,0,0:0:0:0:
182,192,218150,1,0,0:0:0:0:
329,192,218150,1,0,0:0:0:0:
256,192,218236,1,0,0:0:0:0:
36,192,218322,1,0,0:0:0:0:
182,192,218322,1,0,0:0:0:0:
475,192,218322,1,0,0:0:0:0:
36,192,218493,1,0,0:0:0:0:
182,192,218493,1,0,0:0:0:0:
109,192,218665,1,0,0:0:0:0:
256,192,218665,1,0,0:0:0:0:
402,192,218665,1,0,0:0:0:0:
475,192,218665,1,0,0:0:0:0:
36,192,218836,1,0,0:0:0:0:
329,192,218836,1,0,0:0:0:0:
475,192,218836,1,0,0:0:0:0:
329,192,219007,1,0,0:0:0:0:
475,192,219007,1,0,0:0:0:0:
36,192,219179,1,0,0:0:0:0:
109,192,219179,1,0,0:0:0:0:
256,192,219179,1,0,0:0:0:0:
402,192,219179,1,0,0:0:0:0:
182,192,219350,128,0,219436:0:0:0:0:
256,192,219436,128,0,219522:0:0:0:0:
329,192,219522,128,0,219607:0:0:0:0:
402,192,219607,128,0,219693:0:0:0:0:
36,192,219693,1,0,0:0:0:50:kick.wav
109,192,219693,1,0,0:0:0:50:crash.wav
182,192,219693,1,0,0:0:0:0:
256,192,219693,1,0,0:0:0:0:
475,192,219693,128,0,221750:0:0:0:0:
329,192,219865,1,0,0:0:0:0:
402,192,219865,1,0,0:0:0:0:
36,192,220036,1,0,0:0:0:50:snare.wav
109,192,220036,1,0,0:0:0:0:
182,192,220036,1,0,0:0:0:0:
402,192,220036,1,0,0:0:0:0:
256,192,220207,1,0,0:0:0:0:
329,192,220207,1,0,0:0:0:0:
109,192,220293,1,0,0:0:0:0:
182,192,220379,1,0,0:0:0:0:
256,192,220379,1,0,0:0:0:0:
36,192,220465,1,0,0:0:0:0:
109,192,220550,1,0,0:0:0:50:kick.wav
329,192,220550,1,0,0:0:0:0:
402,192,220550,1,0,0:0:0:0:
36,192,220722,1,0,0:0:0:50:snare.wav
182,192,220722,1,0,0:0:0:0:
256,192,220722,1,0,0:0:0:0:
402,192,220722,1,0,0:0:0:0:
109,192,220893,1,0,0:0:0:0:
329,192,220893,1,0,0:0:0:0:
182,192,220979,1,0,0:0:0:0:
36,192,221065,1,0,0:0:0:50:kick.wav
256,192,221065,1,0,0:0:0:0:
402,192,221065,1,0,0:0:0:0:
109,192,221236,1,0,0:0:0:0:
329,192,221236,1,0,0:0:0:0:
36,192,221407,1,0,0:0:0:50:snare.wav
182,192,221407,1,0,0:0:0:0:
256,192,221407,1,0,0:0:0:0:
402,192,221407,1,0,0:0:0:0:
109,192,221579,1,0,0:0:0:0:
329,192,221579,1,0,0:0:0:0:
256,192,221665,1,0,0:0:0:0:
36,192,221750,128,0,222436:0:0:0:0:
182,192,221750,1,0,0:0:0:0:
402,192,221836,1,0,0:0:0:0:
109,192,221922,1,0,0:0:0:50:kick.wav
256,192,221922,1,0,0:0:0:0:
329,192,221922,1,0,0:0:0:0:
182,192,222093,1,0,0:0:0:50:snare.wav
329,192,222093,1,0,0:0:0:0:
402,192,222093,1,0,0:0:0:0:
475,192,222093,1,0,0:0:0:0:
109,192,222265,1,0,0:0:0:0:
256,192,222265,1,0,0:0:0:0:
475,192,222350,1,0,0:0:0:0:
182,192,222436,1,0,0:0:0:50:kick.wav
329,192,222436,128,0,223807:0:0:0:0:
402,192,222436,1,0,0:0:0:0:
36,192,222607,1,0,0:0:0:0:
256,192,222607,1,0,0:0:0:0:
109,192,222779,1,0,0:0:0:50:snare.wav
256,192,222779,1,0,0:0:0:0:
402,192,222779,1,0,0:0:0:0:
475,192,222779,1,0,0:0:0:0:
36,192,222950,1,0,0:0:0:0:
182,192,222950,1,0,0:0:0:0:
402,192,223036,1,0,0:0:0:0:
109,192,223122,1,0,0:0:0:0:
256,192,223122,1,0,0:0:0:0:
475,192,223207,1,0,0:0:0:0:
36,192,223293,1,0,0:0:0:50:kick.wav
182,192,223293,1,0,0:0:0:0:
402,192,223293,1,0,0:0:0:0:
36,192,223465,1,0,0:0:0:50:snare.wav
109,192,223465,1,0,0:0:0:0:
256,192,223465,1,0,0:0:0:0:
475,192,223465,1,0,0:0:0:0:
402,192,223636,1,0,0:0:0:0:
475,192,223636,1,0,0:0:0:0:
36,192,223722,1,0,0:0:0:0:
109,192,223807,1,0,0:0:0:50:kick.wav
182,192,223807,128,0,224493:0:0:0:0:
256,192,223807,1,0,0:0:0:0:
329,192,223979,1,0,0:0:0:0:
475,192,223979,1,0,0:0:0:0:
36,192,224150,1,0,0:0:0:50:snare.wav
109,192,224150,1,0,0:0:0:0:
256,192,224150,1,0,0:0:0:0:
402,192,224150,1,0,0:0:0:0:
329,192,224322,1,0,0:0:0:0:
475,192,224322,1,0,0:0:0:0:
109,192,224407,1,0,0:0:0:0:
256,192,224493,1,0,0:0:0:0:
329,192,224493,128,0,225179:0:0:0:0:
36,192,224579,1,0,0:0:0:0:
182,192,224665,1,0,0:0:0:50:kick.wav
402,192,224665,1,0,0:0:0:0:
475,192,224665,1,0,0:0:0:0:
36,192,224836,1,0,0:0:0:50:snare.wav
109,192,224836,1,0,0:0:0:0:
256,192,224836,1,0,0:0:0:0:
475,192,224836,1,0,0:0:0:0:
182,192,225007,1,0,0:0:0:0:
402,192,225007,1,0,0:0:0:0:
256,192,225093,1,0,0:0:0:0:
36,192,225179,1,0,0:0:0:50:kick.wav
109,192,225179,1,0,0:0:0:0:
475,192,225179,128,0,227236:0:0:0:0:
182,192,225350,1,0,0:0:0:0:
329,192,225350,1,0,0:0:0:0:
36,192,225522,1,0,0:0:0:50:snare.wav
109,192,225522,1,0,0:0:0:0:
256,192,225522,1,0,0:0:0:0:
402,192,225522,1,0,0:0:0:0:
182,192,225693,1,0,0:0:0:0:
329,192,225693,1,0,0:0:0:0:
36,192,225779,1,0,0:0:0:0:
109,192,225865,1,0,0:0:0:0:
256,192,225865,1,0,0:0:0:0:
402,192,225950,1,0,0:0:0:0:
36,192,226036,1,0,0:0:0:50:kick.wav
182,192,226036,1,0,0:0:0:0:
329,192,226036,1,0,0:0:0:0:
36,192,226207,1,0,0:0:0:50:snare.wav
109,192,226207,1,0,0:0:0:0:
256,192,226207,1,0,0:0:0:0:
402,192,226207,1,0,0:0:0:0:
182,192,226379,1,0,0:0:0:0:
256,192,226379,1,0,0:0:0:0:
329,192,226465,1,0,0:0:0:0:
36,192,226550,1,0,0:0:0:50:kick.wav
109,192,226550,1,0,0:0:0:0:
402,192,226550,1,0,0:0:0:0:
182,192,226722,1,0,0:0:0:0:
256,192,226722,1,0,0:0:0:0:
36,192,226893,1,0,0:0:0:50:snare.wav
109,192,226893,1,0,0:0:0:0:
329,192,226893,1,0,0:0:0:0:
402,192,226893,1,0,0:0:0:0:
182,192,227065,1,0,0:0:0:0:
402,192,227065,1,0,0:0:0:0:
329,192,227150,1,0,0:0:0:0:
36,192,227236,1,0,0:0:0:0:
256,192,227236,128,0,227922:0:0:0:0:
109,192,227322,1,0,0:0:0:0:
182,192,227407,1,0,0:0:0:50:kick.wav
402,192,227407,1,0,0:0:0:0:
475,192,227407,1,0,0:0:0:0:
36,192,227579,1,0,0:0:0:50:snare.wav
109,192,227579,1,0,0:0:0:0:
182,192,227579,1,0,0:0:0:0:
329,192,227579,1,0,0:0:0:0:
402,192,227750,1,0,0:0:0:0:
475,192,227750,1,0,0:0:0:0:
36,192,227836,1,0,0:0:0:0:
109,192,227922,1,0,0:0:0:50:kick.wav
182,192,227922,128,0,228179:0:0:0:0:
329,192,227922,1,0,0:0:0:0:
329,192,228093,128,0,228265:0:0:0:0:
475,192,228093,128,0,228179:0:0:0:0:
36,192,228265,1,0,0:0:0:50:snare.wav
109,192,228265,1,0,0:0:0:0:
256,192,228265,128,0,228436:0:0:0:0:
402,192,228265,128,0,228350:0:0:0:0:
182,192,228436,128,0,228607:0:0:0:0:
329,192,228436,128,0,228522:0:0:0:0:
402,192,228522,1,0,0:0:0:0:
36,192,228607,128,0,228865:0:0:0:0:
109,192,228607,1,0,0:0:0:0:
475,192,228693,1,0,0:0:0:0:
256,192,228779,128,0,228950:0:0:0:50:kick.wav
329,192,228779,1,0,0:0:0:0:
402,192,228779,128,0,228865:0:0:0:0:
109,192,228950,128,0,229207:0:0:0:50:snare.wav
182,192,228950,1,0,0:0:0:0:
402,192,228950,1,0,0:0:0:0:
475,192,228950,1,0,0:0:0:0:
329,192,229122,128,0,229207:0:0:0:0:
475,192,229122,128,0,229293:0:0:0:0:
182,192,229207,1,0,0:0:0:0:
36,192,229293,1,0,0:0:0:50:kick.wav
256,192,229293,128,0,229379:0:0:0:0:
402,192,229293,128,0,229465:0:0:0:0:
182,192,229465,128,0,229550:0:0:0:0:
329,192,229465,128,0,229636:0:0:0:0:
109,192,229636,128,0,229807:0:0:0:50:snare.wav
256,192,229636,128,0,229807:0:0:0:0:
402,192,229636,1,0,0:0:0:0:
475,192,229636,1,0,0:0:0:0:
36,192,229807,128,0,229979:0:0:0:0:
182,192,229807,128,0,229893:0:0:0:0:
402,192,229893,1,0,0:0:0:0:
109,192,229979,128,0,230150:0:0:0:0:
256,192,229979,128,0,230150:0:0:0:0:
475,192,230065,1,0,0:0:0:0:
36,192,230150,1,0,0:0:0:50:kick.wav
182,192,230150,128,0,230322:0:0:0:0:
329,192,230150,128,0,230322:0:0:0:0:
36,192,230322,1,0,0:0:0:50:snare.wav
109,192,230322,1,0,0:0:0:0:
256,192,230322,128,0,230493:0:0:0:0:
402,192,230322,128,0,230493:0:0:0:0:
329,192,230493,128,0,230665:0:0:0:0:
475,192,230493,128,0,230665:0:0:0:0:
36,192,230579,1,0,0:0:0:0:
109,192,230665,1,0,0:0:0:50:kick.wav
182,192,230665,128,0,232036:0:0:0:0:
256,192,230665,1,0,0:0:0:0:
329,192,230836,1,0,0:0:0:0:
475,192,230836,1,0,0:0:0:0:
36,192,231007,1,0,0:0:0:50:snare.wav
109,192,231007,1,0,0:0:0:0:
256,192,231007,1,0,0:0:0:0:
402,192,231007,1,0,0:0:0:0:
329,192,231179,1,0,0:0:0:0:
475,192,231179,1,0,0:0:0:0:
109,192,231265,1,0,0:0:0:0:
256,192,231350,1,0,0:0:0:0:
402,192,231350,1,0,0:0:0:0:
36,192,231436,1,0,0:0:0:0:
109,192,231522,1,0,0:0:0:50:kick.wav
329,192,231522,1,0,0:0:0:0:
475,192,231522,1,0,0:0:0:0:
36,192,231693,1,0,0:0:0:50:snare.wav
256,192,231693,1,0,0:0:0:0:
402,192,231693,1,0,0:0:0:0:
475,192,231693,1,0,0:0:0:0:
109,192,231865,1,0,0:0:0:0:
329,192,231865,1,0,0:0:0:0:
256,192,231950,1,0,0:0:0:0:
36,192,232036,1,0,0:0:0:50:kick.wav
402,192,232036,128,0,232722:0:0:0:0:
475,192,232036,1,0,0:0:0:0:
109,192,232207,1,0,0:0:0:0:
256,192,232207,1,0,0:0:0:0:
36,192,232379,1,0,0:0:0:50:snare.wav
182,192,232379,1,0,0:0:0:0:
329,192,232379,1,0,0:0:0:0:
475,192,232379,1,0,0:0:0:0:
109,192,232550,1,0,0:0:0:0:
256,192,232550,1,0,0:0:0:0:
475,192,232636,1,0,0:0:0:0:
36,192,232722,128,0,233407:0:0:0:0:
182,192,232722,1,0,0:0:0:0:
329,192,232722,1,0,0:0:0:0:
109,192,232807,1,0,0:0:0:0:
256,192,232893,1,0,0:0:0:50:kick.wav
402,192,232893,1,0,0:0:0:0:
475,192,232893,1,0,0:0:0:0:
109,192,233065,1,0,0:0:0:50:snare.wav
182,192,233065,1,0,0:0:0:0:
329,192,233065,1,0,0:0:0:0:
475,192,233065,1,0,0:0:0:0:
256,192,233236,1,0,0:0:0:0:
402,192,233236,1,0,0:0:0:0:
182,192,233322,1,0,0:0:0:0:
109,192,233407,1,0,0:0:0:50:kick.wav
329,192,233407,1,0,0:0:0:0:
475,192,233407,128,0,234779:0:0:0:0:
182,192,233579,1,0,0:0:0:0:
402,192,233579,1,0,0:0:0:0:
36,192,233750,1,0,0:0:0:50:snare.wav
109,192,233750,1,0,0:0:0:0:
256,192,233750,1,0,0:0:0:0:
329,192,233750,1,0,0:0:0:0:
182,192,233922,1,0,0:0:0:0:
402,192,233922,1,0,0:0:0:0:
36,192,234007,1,0,0:0:0:0:
109,192,234093,1,0,0:0:0:0:
329,192,234093,1,0,0:0:0:0:
402,192,234179,1,0,0:0:0:0:
36,192,234265,1,0,0:0:0:50:kick.wav
182,192,234265,1,0,0:0:0:0:
256,192,234265,1,0,0:0:0:0:
109,192,234436,1,0,0:0:0:50:snare.wav
256,192,234436,1,0,0:0:0:0:
329,192,234436,1,0,0:0:0:0:
402,192,234436,1,0,0:0:0:0:
36,192,234607,1,0,0:0:0:0:
182,192,234607,1,0,0:0:0:0:
256,192,234693,1,0,0:0:0:0:
109,192,234779,1,0,0:0:0:50:kick.wav
329,192,234779,128,0,235465:0:0:0:0:
402,192,234779,1,0,0:0:0:0:
182,192,234950,1,0,0:0:0:0:
475,192,234950,1,0,0:0:0:0:
36,192,235122,1,0,0:0:0:50:snare.wav
109,192,235122,1,0,0:0:0:0:
256,192,235122,1,0,0:0:0:0:
402,192,235122,1,0,0:0:0:0:
182,192,235293,1,0,0:0:0:0:
475,192,235293,1,0,0:0:0:0:
256,192,235379,1,0,0:0:0:0:
36,192,235465,1,0,0:0:0:0:
109,192,235465,128,0,236150:0:0:0:0:
475,192,235550,1,0,0:0:0:0:
182,192,235636,1,0,0:0:0:50:kick.wav
329,192,235636,1,0,0:0:0:0:
402,192,235636,1,0,0:0:0:0:
36,192,235807,1,0,0:0:0:50:snare.wav
256,192,235807,1,0,0:0:0:0:
402,192,235807,1,0,0:0:0:0:
475,192,235807,1,0,0:0:0:0:
182,192,235979,1,0,0:0:0:0:
329,192,235979,1,0,0:0:0:0:
475,192,236065,1,0,0:0:0:0:
36,192,236150,1,0,0:0:0:50:kick.wav
256,192,236150,128,0,237350:0:0:0:0:
402,192,236150,1,0,0:0:0:0:
109,192,236322,1,0,0:0:0:0:
182,192,236322,1,0,0:0:0:0:
36,192,236493,1,0,0:0:0:50:snare.wav
329,192,236493,1,0,0:0:0:0:
402,192,236493,1,0,0:0:0:0:
475,192,236493,1,0,0:0:0:0:
109,192,236665,1,0,0:0:0:0:
182,192,236665,1,0,0:0:0:0:
475,192,236750,1,0,0:0:0:0:
329,192,236836,1,0,0:0:0:0:
402,192,236836,1,0,0:0:0:0:
36,192,236922,1,0,0:0:0:0:
109,192,237007,1,0,0:0:0:50:kick.wav
182,192,237007,1,0,0:0:0:0:
475,192,237007,1,0,0:0:0:0:
36,192,237179,1,0,0:0:0:50:snare.wav
329,192,237179,1,0,0:0:0:0:
402,192,237179,1,0,0:0:0:0:
475,192,237179,1,0,0:0:0:0:
182,192,237350,1,0,0:0:0:0:
109,192,237436,1,0,0:0:0:0:
36,192,237522,1,0,0:0:0:50:kick.wav
256,192,237522,128,0,238893:0:0:0:0:
475,192,237522,1,0,0:0:0:0:
329,192,237693,1,0,0:0:0:0:
402,192,237693,1,0,0:0:0:0:
36,192,237865,1,0,0:0:0:50:snare.wav
109,192,237865,1,0,0:0:0:0:
182,192,237865,1,0,0:0:0:0:
475,192,237865,1,0,0:0:0:0:
329,192,238036,1,0,0:0:0:0:
402,192,238036,1,0,0:0:0:0:
475,192,238122,1,0,0:0:0:0:
109,192,238207,1,0,0:0:0:0:
182,192,238207,1,0,0:0:0:0:
36,192,238293,1,0,0:0:0:0:
329,192,238379,1,0,0:0:0:50:kick.wav
402,192,238379,1,0,0:0:0:0:
475,192,238379,1,0,0:0:0:0:
36,192,238550,1,0,0:0:0:50:snare.wav
109,192,238550,1,0,0:0:0:0:
182,192,238550,1,0,0:0:0:0:
402,192,238550,1,0,0:0:0:0:
36,192,238722,1,0,0:0:0:50:kick.wav
182,192,238722,1,0,0:0:0:0:
475,192,238722,1,0,0:0:0:0:
329,192,238807,1,0,0:0:0:0:
36,192,238893,1,0,0:0:0:50:snare.wav
109,192,238893,1,0,0:0:0:0:
402,192,238893,1,0,0:0:0:0:
475,192,238893,1,0,0:0:0:0:
182,192,239065,1,0,0:0:0:50:kick.wav
256,192,239065,1,0,0:0:0:0:
329,192,239065,1,0,0:0:0:0:
182,192,239236,1,0,0:0:0:50:kick.wav
256,192,239236,1,0,0:0:0:0:
329,192,239236,1,0,0:0:0:0:
36,192,239407,1,0,0:0:0:50:snare.wav
109,192,239407,1,0,0:0:0:0:
402,192,239407,1,0,0:0:0:0:
475,192,239407,1,0,0:0:0:0:
182,192,239579,1,0,0:0:0:50:kick.wav
256,192,239579,1,0,0:0:0:0:
329,192,239579,1,0,0:0:0:0:
36,192,239665,1,0,0:0:0:50:snare.wav
109,192,239665,1,0,0:0:0:0:
402,192,239665,1,0,0:0:0:0:
475,192,239665,1,0,0:0:0:0:
182,192,239750,1,0,0:0:0:50:kick.wav
256,192,239750,1,0,0:0:0:0:
329,192,239750,1,0,0:0:0:0:
36,192,239922,1,0,0:0:0:50:snare.wav
109,192,239922,1,0,0:0:0:0:
402,192,239922,1,0,0:0:0:0:
475,192,239922,1,0,0:0:0:0:
36,192,240093,1,0,0:0:0:50:kick.wav
182,192,240093,1,0,0:0:0:0:
256,192,240093,1,0,0:0:0:0:
329,192,240093,1,0,0:0:0:0:
475,192,240093,1,0,0:0:0:0:
36,192,240436,1,0,0:0:0:50:kick.wav
182,192,240436,1,0,0:0:0:50:snare.wav
256,192,240436,1,0,0:0:0:0:
329,192,240436,1,0,0:0:0:0:
475,192,240436,1,0,0:0:0:0:
36,192,240607,128,0,240950:0:0:0:50:kick.wav
182,192,240607,128,0,240950:0:0:0:0:
256,192,240607,128,0,240950:0:0:0:0:
329,192,240607,128,0,240950:0:0:0:0:
475,192,240607,128,0,240950:0:0:0:0:
109,192,241443,1,0,0:0:0:0:
329,192,241507,1,0,0:0:0:0:
402,192,241572,1,0,0:0:0:0:
36,192,241636,128,0,244379:0:0:0:50:kick.wav
182,192,241636,128,0,242665:0:0:0:0:
256,192,241636,128,0,242665:0:0:0:0:
475,192,241636,1,0,0:0:0:0:
109,192,242322,1,0,0:0:0:0:
475,192,242493,1,0,0:0:0:0:
402,192,242665,128,0,242836:0:0:0:0:
182,192,242836,128,0,243350:0:0:0:0:
256,192,242836,128,0,243350:0:0:0:0:
109,192,243007,1,0,0:0:0:0:
475,192,243007,1,0,0:0:0:0:
402,192,243350,128,0,243522:0:0:0:0:
182,192,243522,128,0,244036:0:0:0:0:
256,192,243522,128,0,244036:0:0:0:0:
475,192,243522,1,0,0:0:0:0:
109,192,243865,1,0,0:0:0:0:
402,192,244036,128,0,244207:0:0:0:0:
475,192,244036,1,0,0:0:0:0:
182,192,244207,128,0,244722:0:0:0:0:
256,192,244207,128,0,244722:0:0:0:0:
109,192,244379,1,0,0:0:0:50:kick.wav
402,192,244379,1,0,0:0:0:0:
475,192,244379,128,0,247122:0:0:0:0:
329,192,244722,128,0,244893:0:0:0:0:
36,192,244893,128,0,245407:0:0:0:0:
182,192,244893,128,0,245407:0:0:0:0:
329,192,245236,1,0,0:0:0:0:
256,192,245407,128,0,245579:0:0:0:0:
36,192,245579,128,0,246093:0:0:0:0:
182,192,245579,128,0,246093:0:0:0:0:
329,192,245750,1,0,0:0:0:0:
402,192,245750,1,0,0:0:0:0:
256,192,246093,128,0,246265:0:0:0:0:
36,192,246265,128,0,246779:0:0:0:0:
182,192,246265,128,0,246779:0:0:0:0:
402,192,246265,1,0,0:0:0:0:
329,192,246607,1,0,0:0:0:0:
109,192,246779,1,0,0:0:0:0:
402,192,246779,128,0,246950:0:0:0:0:
109,192,246950,128,0,247122:0:0:0:0:
256,192,246950,128,0,247122:0:0:0:0:
36,192,247122,128,0,249865:0:0:0:50:kick.wav
182,192,247122,1,0,0:0:0:0:
329,192,247122,1,0,0:0:0:0:
182,192,247807,1,0,0:0:0:0:
329,192,247979,1,0,0:0:0:0:
182,192,248493,1,0,0:0:0:0:
475,192,248493,1,0,0:0:0:0:
329,192,249007,1,0,0:0:0:0:
475,192,249007,1,0,0:0:0:0:
182,192,249350,1,0,0:0:0:0:
329,192,249522,1,0,0:0:0:0:
475,192,249522,1,0,0:0:0:0:
182,192,249693,1,0,0:0:0:0:
256,192,249865,1,0,0:0:0:50:kick.wav
402,192,249865,1,0,0:0:0:0:
475,192,249865,128,0,252607:0:0:0:0:
109,192,250550,1,0,0:0:0:0:
329,192,250722,1,0,0:0:0:0:
36,192,251236,1,0,0:0:0:0:
182,192,251236,1,0,0:0:0:0:
36,192,251750,1,0,0:0:0:0:
329,192,251750,1,0,0:0:0:0:
256,192,252093,1,0,0:0:0:0:
36,192,252265,1,0,0:0:0:0:
182,192,252265,1,0,0:0:0:0:
256,192,252607,1,0,0:0:0:50:kick.wav
329,192,252607,1,0,0:0:0:0:
402,192,252607,1,0,0:0:0:0:
182,192,252693,1,0,0:0:0:0:
36,192,252779,1,0,0:0:0:0:
256,192,252865,1,0,0:0:0:0:
109,192,252950,1,0,0:0:0:0:
329,192,253036,1,0,0:0:0:0:
182,192,253122,1,0,0:0:0:0:
402,192,253207,1,0,0:0:0:0:
256,192,253293,1,0,0:0:0:0:
475,192,253379,1,0,0:0:0:0:
329,192,253465,1,0,0:0:0:0:
256,192,253550,1,0,0:0:0:0:
36,192,253636,1,0,0:0:0:50:kick.wav
109,192,253636,1,0,0:0:0:0:
182,192,253636,1,0,0:0:0:0:
329,192,253722,1,0,0:0:0:0:
475,192,253807,1,0,0:0:0:0:
256,192,253893,1,0,0:0:0:0:
36,192,253979,1,0,0:0:0:0:
402,192,253979,1,0,0:0:0:0:
182,192,254065,1,0,0:0:0:0:
329,192,254150,1,0,0:0:0:0:
109,192,254236,1,0,0:0:0:0:
256,192,254322,1,0,0:0:0:0:
36,192,254407,1,0,0:0:0:0:
182,192,254493,1,0,0:0:0:0:
475,192,254493,1,0,0:0:0:0:
109,192,254579,1,0,0:0:0:0:
256,192,254665,1,0,0:0:0:50:snare.wav
329,192,254665,1,0,0:0:0:0:
402,192,254665,1,0,0:0:0:0:
475,192,254665,1,0,0:0:0:0:
36,192,254750,1,0,0:0:0:0:
109,192,254836,1,0,0:0:0:0:
182,192,254922,1,0,0:0:0:0:
256,192,255007,1,0,0:0:0:0:
329,192,255007,1,0,0:0:0:0:
475,192,255093,1,0,0:0:0:0:
402,192,255179,1,0,0:0:0:0:
329,192,255265,1,0,0:0:0:0:
36,192,255350,1,0,0:0:0:50:kick.wav
109,192,255350,1,0,0:0:0:0:
256,192,255350,1,0,0:0:0:0:
475,192,255436,1,0,0:0:0:0:
182,192,255522,1,0,0:0:0:0:
402,192,255607,1,0,0:0:0:0:
109,192,255693,1,0,0:0:0:0:
329,192,255779,1,0,0:0:0:0:
36,192,255865,1,0,0:0:0:0:
256,192,255950,1,0,0:0:0:0:
475,192,256036,1,0,0:0:0:0:
182,192,256122,1,0,0:0:0:0:
329,192,256207,1,0,0:0:0:0:
402,192,256207,1,0,0:0:0:0:
109,192,256293,1,0,0:0:0:0:
182,192,256379,1,0,0:0:0:50:kick.wav
256,192,256379,1,0,0:0:0:0:
475,192,256379,1,0,0:0:0:0:
36,192,256465,1,0,0:0:0:0:
329,192,256550,1,0,0:0:0:0:
109,192,256636,1,0,0:0:0:0:
256,192,256722,1,0,0:0:0:0:
402,192,256722,1,0,0:0:0:0:
182,192,256807,1,0,0:0:0:0:
475,192,256893,1,0,0:0:0:0:
256,192,256979,1,0,0:0:0:0:
36,192,257065,1,0,0:0:0:0:
329,192,257150,1,0,0:0:0:0:
109,192,257236,1,0,0:0:0:0:
182,192,257236,1,0,0:0:0:0:
402,192,257322,1,0,0:0:0:0:
36,192,257407,1,0,0:0:0:50:snare.wav
182,192,257407,1,0,0:0:0:0:
256,192,257407,1,0,0:0:0:0:
475,192,257407,1,0,0:0:0:0:
329,192,257493,1,0,0:0:0:0:
36,192,257579,1,0,0:0:0:50:kick.wav
109,192,257579,1,0,0:0:0:0:
256,192,257579,1,0,0:0:0:0:
402,192,257665,1,0,0:0:0:0:
182,192,257750,1,0,0:0:0:0:
475,192,257750,1,0,0:0:0:0:
36,192,257836,1,0,0:0:0:0:
329,192,257922,1,0,0:0:0:0:
475,192,258007,1,0,0:0:0:0:
36,192,258093,1,0,0:0:0:50:kick.wav
109,192,258093,1,0,0:0:0:0:
182,192,258093,1,0,0:0:0:0:
256,192,258179,1,0,0:0:0:0:
329,192,258265,1,0,0:0:0:0:
402,192,258350,1,0,0:0:0:0:
109,192,258436,1,0,0:0:0:0:
182,192,258522,1,0,0:0:0:0:
256,192,258607,1,0,0:0:0:0:
329,192,258693,1,0,0:0:0:0:
36,192,258779,1,0,0:0:0:0:
402,192,258779,1,0,0:0:0:0:
109,192,258865,1,0,0:0:0:0:
182,192,258950,1,0,0:0:0:0:
475,192,258950,1,0,0:0:0:0:
256,192,259036,1,0,0:0:0:0:
36,192,259122,1,0,0:0:0:50:kick.wav
402,192,259122,1,0,0:0:0:0:
475,192,259122,1,0,0:0:0:0:
329,192,259207,1,0,0:0:0:0:
256,192,259293,1,0,0:0:0:0:
182,192,259379,1,0,0:0:0:0:
109,192,259465,1,0,0:0:0:0:
475,192,259465,1,0,0:0:0:0:
402,192,259550,1,0,0:0:0:0:
329,192,259636,1,0,0:0:0:0:
256,192,259722,1,0,0:0:0:0:
36,192,259807,1,0,0:0:0:0:
475,192,259893,1,0,0:0:0:0:
109,192,259979,1,0,0:0:0:0:
402,192,259979,1,0,0:0:0:0:
329,192,260065,1,0,0:0:0:0:
36,192,260150,1,0,0:0:0:50:snare.wav
109,192,260150,1,0,0:0:0:0:
182,192,260150,1,0,0:0:0:0:
256,192,260150,1,0,0:0:0:0:
329,192,260236,1,0,0:0:0:0:
475,192,260322,1,0,0:0:0:0:
109,192,260407,1,0,0:0:0:0:
182,192,260493,1,0,0:0:0:0:
256,192,260493,1,0,0:0:0:0:
402,192,260579,1,0,0:0:0:0:
36,192,260665,1,0,0:0:0:0:
182,192,260750,1,0,0:0:0:0:
329,192,260836,1,0,0:0:0:50:kick.wav
402,192,260836,1,0,0:0:0:0:
475,192,260836,1,0,0:0:0:0:
109,192,260922,1,0,0:0:0:0:
256,192,261007,1,0,0:0:0:0:
36,192,261093,1,0,0:0:0:0:
182,192,261179,1,0,0:0:0:0:
402,192,261265,1,0,0:0:0:0:
256,192,261350,1,0,0:0:0:0:
475,192,261436,1,0,0:0:0:0:
329,192,261522,1,0,0:0:0:0:
109,192,261607,1,0,0:0:0:0:
256,192,261693,1,0,0:0:0:0:
402,192,261693,1,0,0:0:0:0:
36,192,261779,1,0,0:0:0:0:
182,192,261865,1,0,0:0:0:50:kick.wav
402,192,261865,1,0,0:0:0:0:
475,192,261865,1,0,0:0:0:0:
329,192,261950,1,0,0:0:0:0:
109,192,262036,1,0,0:0:0:0:
256,192,262122,1,0,0:0:0:0:
402,192,262207,1,0,0:0:0:0:
475,192,262207,1,0,0:0:0:0:
329,192,262293,1,0,0:0:0:0:
182,192,262379,1,0,0:0:0:0:
36,192,262465,1,0,0:0:0:0:
329,192,262550,1,0,0:0:0:0:
475,192,262636,1,0,0:0:0:0:
109,192,262722,128,0,262836:0:0:0:50:kick.wav
256,192,262722,1,0,0:0:0:0:
402,192,262722,1,0,0:0:0:0:
36,192,262893,1,0,0:0:0:50:snare.wav
182,192,262893,128,0,263007:0:0:0:0:
329,192,262893,1,0,0:0:0:0:
402,192,262893,1,0,0:0:0:0:
475,192,263007,128,0,263579:0:0:0:0:
36,192,263065,1,0,0:0:0:50:kick.wav
109,192,263065,1,0,0:0:0:0:
329,192,263179,128,0,263579:0:0:0:0:
36,192,263322,1,0,0:0:0:50:kick.wav
109,192,263322,1,0,0:0:0:0:
182,192,263322,1,0,0:0:0:0:
402,192,263350,128,0,263579:0:0:0:0:
36,192,263579,128,0,264950:0:0:0:50:kick.wav
109,192,263579,128,0,264436:0:0:0:0:
182,192,263579,1,0,0:0:0:0:
256,192,263750,1,0,0:0:0:0:
329,192,263922,1,0,0:0:0:0:
475,192,264093,1,0,0:0:0:0:
402,192,264265,1,0,0:0:0:0:
329,192,264436,1,0,0:0:0:0:
182,192,264607,1,0,0:0:0:0:
475,192,264607,128,0,264779:0:0:0:0:
109,192,264779,1,0,0:0:0:0:
402,192,264779,128,0,265465:0:0:0:0:
182,192,264950,128,0,266322:0:0:0:0:
256,192,264950,1,0,0:0:0:0:
329,192,265122,1,0,0:0:0:0:
475,192,265293,1,0,0:0:0:0:
256,192,265465,1,0,0:0:0:0:
109,192,265636,1,0,0:0:0:0:
36,192,265807,1,0,0:0:0:0:
402,192,265979,128,0,266150:0:0:0:0:
475,192,265979,1,0,0:0:0:0:
36,192,266150,128,0,266665:0:0:0:0:
256,192,266150,1,0,0:0:0:0:
109,192,266322,1,0,0:0:0:0:
329,192,266322,128,0,267693:0:0:0:0:
182,192,266493,1,0,0:0:0:0:
256,192,266665,1,0,0:0:0:0:
475,192,266665,128,0,267007:0:0:0:0:
402,192,266836,1,0,0:0:0:0:
109,192,267007,1,0,0:0:0:0:
256,192,267007,128,0,267350:0:0:0:0:
36,192,267179,1,0,0:0:0:0:
182,192,267350,128,0,267522:0:0:0:0:
475,192,267350,1,0,0:0:0:0:
36,192,267522,128,0,267865:0:0:0:0:
402,192,267522,1,0,0:0:0:0:
109,192,267693,1,0,0:0:0:0:
475,192,267693,128,0,269065:0:0:0:0:
256,192,267865,1,0,0:0:0:0:
36,192,268036,1,0,0:0:0:0:
256,192,268036,128,0,268379:0:0:0:0:
109,192,268207,1,0,0:0:0:0:
109,192,268379,128,0,268722:0:0:0:0:
402,192,268379,1,0,0:0:0:0:
329,192,268550,1,0,0:0:0:0:
182,192,268722,1,0,0:0:0:0:
329,192,268722,128,0,269065:0:0:0:0:
109,192,268893,1,0,0:0:0:0:
36,192,269065,128,0,270436:0:0:0:0:
256,192,269065,1,0,0:0:0:0:
402,192,269065,128,0,270093:0:0:0:0:
109,192,269236,1,0,0:0:0:0:
182,192,269407,1,0,0:0:0:0:
475,192,269579,1,0,0:0:0:0:
329,192,269750,1,0,0:0:0:0:
256,192,269922,1,0,0:0:0:0:
109,192,270093,1,0,0:0:0:0:
182,192,270093,128,0,270265:0:0:0:0:
329,192,270265,128,0,271122:0:0:0:0:
475,192,270265,1,0,0:0:0:0:
182,192,270436,128,0,271807:0:0:0:0:
256,192,270436,1,0,0:0:0:0:
402,192,270607,1,0,0:0:0:0:
475,192,270779,1,0,0:0:0:0:
256,192,270950,1,0,0:0:0:0:
109,192,271122,1,0,0:0:0:0:
36,192,271293,1,0,0:0:0:0:
256,192,271293,128,0,271465:0:0:0:0:
329,192,271465,1,0,0:0:0:0:
475,192,271465,128,0,271636:0:0:0:0:
36,192,271636,128,0,272322:0:0:0:0:
256,192,271636,1,0,0:0:0:0:
109,192,271807,1,0,0:0:0:0:
329,192,271807,128,0,273179:0:0:0:0:
182,192,271979,1,0,0:0:0:0:
256,192,272150,1,0,0:0:0:0:
475,192,272322,1,0,0:0:0:0:
402,192,272493,1,0,0:0:0:0:
182,192,272665,128,0,272836:0:0:0:0:
256,192,272665,1,0,0:0:0:0:
36,192,272836,1,0,0:0:0:0:
402,192,272836,128,0,273007:0:0:0:0:
109,192,273007,128,0,273522:0:0:0:0:
182,192,273007,1,0,0:0:0:0:
256,192,273179,1,0,0:0:0:0:
475,192,273179,128,0,274550:0:0:0:0:
402,192,273350,1,0,0:0:0:0:
182,192,273522,1,0,0:0:0:0:
402,192,273522,128,0,273865:0:0:0:0:
36,192,273693,1,0,0:0:0:0:
36,192,273865,128,0,274207:0:0:0:0:
256,192,273865,1,0,0:0:0:0:
182,192,274036,1,0,0:0:0:0:
182,192,274207,128,0,274550:0:0:0:0:
402,192,274207,1,0,0:0:0:0:
329,192,274379,1,0,0:0:0:0:
36,192,274550,1,0,0:0:0:50:snare.wav
109,192,274550,1,0,0:0:0:0:
256,192,274550,1,0,0:0:0:0:
402,192,274550,1,0,0:0:0:0:
329,192,274636,1,0,0:0:0:0:
182,192,274722,1,0,0:0:0:0:
402,192,274722,1,0,0:0:0:0:
475,192,274807,1,0,0:0:0:0:
36,192,274893,1,0,0:0:0:50:kick.wav
109,192,274893,1,0,0:0:0:50:snare.wav
256,192,274893,1,0,0:0:0:0:
402,192,274893,1,0,0:0:0:0:
329,192,274979,1,0,0:0:0:0:
182,192,275065,1,0,0:0:0:0:
475,192,275065,1,0,0:0:0:0:
402,192,275150,1,0,0:0:0:0:
36,192,275236,1,0,0:0:0:50:kick.wav
109,192,275236,1,0,0:0:0:50:snare.wav
256,192,275236,1,0,0:0:0:0:
329,192,275236,1,0,0:0:0:0:
402,192,275322,1,0,0:0:0:0:
182,192,275407,1,0,0:0:0:0:
475,192,275407,1,0,0:0:0:0:
329,192,275493,1,0,0:0:0:0:
36,192,275579,1,0,0:0:0:50:kick.wav
109,192,275579,1,0,0:0:0:50:snare.wav
256,192,275579,1,0,0:0:0:0:
475,192,275579,1,0,0:0:0:0:
182,192,275665,1,0,0:0:0:0:
329,192,275750,1,0,0:0:0:0:
402,192,275750,1,0,0:0:0:0:
36,192,275793,1,0,0:0:0:0:
109,192,275836,1,0,0:0:0:0:
182,192,275879,1,0,0:0:0:0:
256,192,275922,1,0,0:0:0:50:kick.wav
329,192,275922,1,0,0:0:0:50:snare.wav
402,192,275922,1,0,0:0:0:0:
475,192,275922,1,0,0:0:0:0:
182,192,276007,1,0,0:0:0:0:
109,192,276093,1,0,0:0:0:0:
329,192,276093,1,0,0:0:0:0:
36,192,276179,1,0,0:0:0:0:
109,192,276265,1,0,0:0:0:50:kick.wav
256,192,276265,1,0,0:0:0:50:snare.wav
402,192,276265,1,0,0:0:0:0:
475,192,276265,1,0,0:0:0:0:
182,192,276350,1,0,0:0:0:0:
36,192,276436,1,0,0:0:0:0:
329,192,276436,1,0,0:0:0:0:
109,192,276522,1,0,0:0:0:0:
182,192,276607,1,0,0:0:0:50:kick.wav
256,192,276607,1,0,0:0:0:50:snare.wav
402,192,276607,1,0,0:0:0:0:
475,192,276607,1,0,0:0:0:0:
109,192,276693,1,0,0:0:0:0:
36,192,276779,1,0,0:0:0:0:
329,192,276779,1,0,0:0:0:0:
182,192,276865,1,0,0:0:0:0:
36,192,276950,1,0,0:0:0:50:kick.wav
256,192,276950,1,0,0:0:0:50:snare.wav
402,192,276950,1,0,0:0:0:0:
475,192,276950,1,0,0:0:0:0:
109,192,277036,1,0,0:0:0:0:
182,192,277122,1,0,0:0:0:0:
402,192,277122,1,0,0:0:0:0:
475,192,277122,1,0,0:0:0:0:
329,192,277207,1,0,0:0:0:0:
36,192,277293,1,0,0:0:0:50:kick.wav
109,192,277293,1,0,0:0:0:50:snare.wav
256,192,277293,1,0,0:0:0:0:
475,192,277293,1,0,0:0:0:0:
402,192,277379,1,0,0:0:0:0:
182,192,277465,1,0,0:0:0:0:
329,192,277465,1,0,0:0:0:0:
109,192,277550,1,0,0:0:0:0:
36,192,277636,1,0,0:0:0:50:kick.wav
256,192,277636,1,0,0:0:0:50:snare.wav
402,192,277636,1,0,0:0:0:0:
475,192,277636,1,0,0:0:0:0:
109,192,277722,1,0,0:0:0:0:
182,192,277807,1,0,0:0:0:0:
329,192,277807,1,0,0:0:0:0:
402,192,277893,1,0,0:0:0:0:
36,192,277979,1,0,0:0:0:50:kick.wav
109,192,277979,1,0,0:0:0:50:snare.wav
256,192,277979,1,0,0:0:0:0:
475,192,277979,1,0,0:0:0:0:
402,192,278065,1,0,0:0:0:0:
182,192,278150,1,0,0:0:0:0:
329,192,278150,1,0,0:0:0:0:
109,192,278236,1,0,0:0:0:0:
36,192,278322,1,0,0:0:0:50:kick.wav
256,192,278322,1,0,0:0:0:50:snare.wav
402,192,278322,1,0,0:0:0:0:
475,192,278322,1,0,0:0:0:0:
182,192,278407,1,0,0:0:0:0:
109,192,278493,1,0,0:0:0:0:
402,192,278493,1,0,0:0:0:0:
329,192,278536,1,0,0:0:0:0:
256,192,278579,1,0,0:0:0:0:
182,192,278622,1,0,0:0:0:0:
36,192,278665,1,0,0:0:0:50:kick.wav
109,192,278665,1,0,0:0:0:50:snare.wav
402,192,278665,1,0,0:0:0:0:
475,192,278665,1,0,0:0:0:0:
256,192,278750,1,0,0:0:0:0:
329,192,278793,1,0,0:0:0:0:
109,192,278836,1,0,0:0:0:0:
402,192,278836,1,0,0:0:0:0:
182,192,278879,1,0,0:0:0:0:
256,192,278922,1,0,0:0:0:0:
329,192,278965,1,0,0:0:0:0:
36,192,279007,1,0,0:0:0:50:kick.wav
109,192,279007,1,0,0:0:0:50:snare.wav
402,192,279007,1,0,0:0:0:0:
475,192,279007,1,0,0:0:0:0:
182,192,279093,1,0,0:0:0:0:
109,192,279179,1,0,0:0:0:0:
402,192,279179,1,0,0:0:0:0:
475,192,279265,1,0,0:0:0:0:
36,192,279350,1,0,0:0:0:50:kick.wav
182,192,279350,1,0,0:0:0:50:snare.wav
256,192,279350,1,0,0:0:0:0:
329,192,279350,1,0,0:0:0:0:
475,192,279436,1,0,0:0:0:0:
109,192,279522,1,0,0:0:0:0:
402,192,279522,1,0,0:0:0:0:
182,192,279607,1,0,0:0:0:0:
36,192,279693,1,0,0:0:0:50:kick.wav
109,192,279693,1,0,0:0:0:50:snare.wav
256,192,279693,1,0,0:0:0:0:
475,192,279693,1,0,0:0:0:0:
402,192,279779,1,0,0:0:0:0:
329,192,279822,1,0,0:0:0:0:
36,192,279865,1,0,0:0:0:0:
182,192,279865,1,0,0:0:0:0:
256,192,279907,1,0,0:0:0:0:
329,192,279950,1,0,0:0:0:0:
402,192,279993,1,0,0:0:0:0:
36,192,280036,1,0,0:0:0:50:kick.wav
109,192,280036,1,0,0:0:0:50:snare.wav
256,192,280036,1,0,0:0:0:0:
475,192,280036,1,0,0:0:0:0:
402,192,280122,1,0,0:0:0:0:
36,192,280207,1,0,0:0:0:50:snare.wav
109,192,280207,1,0,0:0:0:0:
182,192,280207,1,0,0:0:0:0:
329,192,280207,1,0,0:0:0:0:
475,192,280293,1,0,0:0:0:0:
109,192,280379,1,0,0:0:0:50:kick.wav
182,192,280379,1,0,0:0:0:50:snare.wav
256,192,280379,1,0,0:0:0:0:
402,192,280379,1,0,0:0:0:0:
36,192,280465,1,0,0:0:0:0:
182,192,280550,1,0,0:0:0:50:snare.wav
256,192,280550,1,0,0:0:0:0:
329,192,280550,1,0,0:0:0:0:
475,192,280550,1,0,0:0:0:0:
109,192,280636,1,0,0:0:0:0:
36,192,280722,1,0,0:0:0:50:kick.wav
256,192,280722,1,0,0:0:0:50:snare.wav
329,192,280722,1,0,0:0:0:0:
402,192,280722,1,0,0:0:0:0:
182,192,280807,1,0,0:0:0:0:
109,192,280893,1,0,0:0:0:50:snare.wav
329,192,280893,1,0,0:0:0:0:
402,192,280893,1,0,0:0:0:0:
475,192,280893,1,0,0:0:0:0:
256,192,280979,1,0,0:0:0:0:
36,192,281065,1,0,0:0:0:50:kick.wav
182,192,281065,1,0,0:0:0:50:snare.wav
402,192,281065,1,0,0:0:0:0:
475,192,281065,1,0,0:0:0:0:
329,192,281150,1,0,0:0:0:0:
36,192,281236,1,0,0:0:0:50:snare.wav
109,192,281236,1,0,0:0:0:0:
256,192,281236,1,0,0:0:0:0:
475,192,281236,1,0,0:0:0:0:
182,192,281322,1,0,0:0:0:0:
36,192,281407,1,0,0:0:0:50:kick.wav
256,192,281407,1,0,0:0:0:50:snare.wav
402,192,281407,1,0,0:0:0:0:
475,192,281407,1,0,0:0:0:0:
109,192,281493,1,0,0:0:0:0:
182,192,281579,1,0,0:0:0:50:snare.wav
329,192,281579,1,0,0:0:0:0:
402,192,281579,1,0,0:0:0:0:
475,192,281579,1,0,0:0:0:0:
36,192,281665,1,0,0:0:0:0:
109,192,281750,1,0,0:0:0:50:kick.wav
256,192,281750,1,0,0:0:0:50:snare.wav
329,192,281750,1,0,0:0:0:0:
402,192,281750,1,0,0:0:0:0:
475,192,281836,1,0,0:0:0:0:
36,192,281922,1,0,0:0:0:50:snare.wav
182,192,281922,1,0,0:0:0:0:
256,192,281922,1,0,0:0:0:0:
329,192,281922,1,0,0:0:0:0:
402,192,282007,1,0,0:0:0:0:
109,192,282093,1,0,0:0:0:50:kick.wav
182,192,282093,1,0,0:0:0:50:snare.wav
256,192,282093,1,0,0:0:0:0:
475,192,282093,1,0,0:0:0:0:
329,192,282179,1,0,0:0:0:0:
36,192,282265,1,0,0:0:0:50:snare.wav
109,192,282265,1,0,0:0:0:0:
182,192,282265,1,0,0:0:0:0:
402,192,282265,1,0,0:0:0:0:
256,192,282350,1,0,0:0:0:0:
36,192,282436,1,0,0:0:0:50:kick.wav
109,192,282436,1,0,0:0:0:50:snare.wav
329,192,282436,1,0,0:0:0:0:
475,192,282436,1,0,0:0:0:0:
182,192,282522,1,0,0:0:0:0:
36,192,282607,1,0,0:0:0:50:snare.wav
256,192,282607,1,0,0:0:0:0:
402,192,282607,1,0,0:0:0:0:
475,192,282607,1,0,0:0:0:0:
109,192,282693,1,0,0:0:0:0:
329,192,282779,1,0,0:0:0:50:kick.wav
402,192,282779,1,0,0:0:0:50:snare.wav
475,192,282779,1,0,0:0:0:0:
36,192,282865,1,0,0:0:0:50:snare.wav
182,192,282865,1,0,0:0:0:0:
256,192,282950,1,0,0:0:0:50:kick.wav
402,192,282950,1,0,0:0:0:50:snare.wav
475,192,282950,1,0,0:0:0:0:
109,192,283036,1,0,0:0:0:50:snare.wav
329,192,283036,1,0,0:0:0:0:
182,192,283122,1,0,0:0:0:50:kick.wav
402,192,283122,1,0,0:0:0:50:snare.wav
475,192,283122,1,0,0:0:0:0:
36,192,283207,1,0,0:0:0:50:snare.wav
256,192,283207,1,0,0:0:0:0:
109,192,283293,1,0,0:0:0:50:kick.wav
402,192,283293,1,0,0:0:0:50:snare.wav
475,192,283293,1,0,0:0:0:0:
256,192,283379,1,0,0:0:0:50:snare.wav
329,192,283379,1,0,0:0:0:0:
36,192,283465,1,0,0:0:0:50:kick.wav
109,192,283465,1,0,0:0:0:50:snare.wav
182,192,283465,1,0,0:0:0:0:
329,192,283550,1,0,0:0:0:50:snare.wav
475,192,283550,1,0,0:0:0:0:
36,192,283636,1,0,0:0:0:50:kick.wav
109,192,283636,1,0,0:0:0:50:snare.wav
256,192,283636,1,0,0:0:0:0:
182,192,283722,1,0,0:0:0:50:snare.wav
402,192,283722,1,0,0:0:0:0:
36,192,283807,1,0,0:0:0:50:kick.wav
109,192,283807,1,0,0:0:0:50:snare.wav
329,192,283807,1,0,0:0:0:0:
256,192,283893,1,0,0:0:0:50:snare.wav
475,192,283893,1,0,0:0:0:0:
36,192,283979,1,0,0:0:0:50:kick.wav
109,192,283979,1,0,0:0:0:50:snare.wav
402,192,283979,1,0,0:0:0:0:
182,192,284065,1,0,0:0:0:50:snare.wav
256,192,284065,1,0,0:0:0:0:
329,192,284150,1,0,0:0:0:50:kick.wav
402,192,284150,1,0,0:0:0:0:
475,192,284150,1,0,0:0:0:0:
36,192,284236,1,0,0:0:0:50:kick.wav
109,192,284236,1,0,0:0:0:0:
182,192,284236,1,0,0:0:0:0:
329,192,284322,1,0,0:0:0:50:kick.wav
402,192,284322,1,0,0:0:0:0:
475,192,284322,1,0,0:0:0:0:
36,192,284407,1,0,0:0:0:50:kick.wav
109,192,284407,1,0,0:0:0:0:
182,192,284407,1,0,0:0:0:0:
329,192,284493,1,0,0:0:0:50:kick.wav
402,192,284493,1,0,0:0:0:0:
475,192,284493,1,0,0:0:0:0:
36,192,284579,1,0,0:0:0:50:kick.wav
109,192,284579,1,0,0:0:0:0:
182,192,284579,1,0,0:0:0:0:
329,192,284665,1,0,0:0:0:50:kick.wav
402,192,284665,1,0,0:0:0:0:
475,192,284665,1,0,0:0:0:0:
36,192,284750,1,0,0:0:0:50:kick.wav
109,192,284750,1,0,0:0:0:0:
182,192,284750,1,0,0:0:0:0:
36,192,285179,128,0,285265:0:0:0:0:
109,192,285179,128,0,285265:0:0:0:0:
182,192,285179,128,0,285265:0:0:0:0:
329,192,285179,128,0,285265:0:0:0:0:
402,192,285179,128,0,285265:0:0:0:0:
475,192,285179,128,0,285265:0:0:0:0:
109,192,285350,1,0,0:0:0:0:
256,192,285350,1,0,0:0:0:0:
402,192,285350,1,0,0:0:0:0:
36,192,285522,128,0,285693:0:0:0:50:kick.wav
109,192,285522,1,0,0:0:0:50:crash.wav
182,192,285522,128,0,286893:0:0:0:0:
329,192,285522,128,0,286550:0:0:0:0:
475,192,285522,1,0,0:0:0:0:
256,192,285693,1,0,0:0:0:0:
36,192,285865,128,0,286036:0:0:0:50:kick.wav
109,192,285865,1,0,0:0:0:50:snare.wav
402,192,285865,1,0,0:0:0:0:
475,192,285865,1,0,0:0:0:0:
256,192,286036,1,0,0:0:0:0:
36,192,286207,128,0,286379:0:0:0:50:kick.wav
109,192,286207,1,0,0:0:0:0:
475,192,286207,1,0,0:0:0:0:
402,192,286379,1,0,0:0:0:0:
36,192,286550,128,0,286722:0:0:0:50:kick.wav
109,192,286550,1,0,0:0:0:50:snare.wav
256,192,286550,1,0,0:0:0:0:
475,192,286550,128,0,286722:0:0:0:0:
329,192,286722,128,0,287407:0:0:0:0:
256,192,286893,1,0,0:0:0:50:kick.wav
402,192,286893,1,0,0:0:0:0:
475,192,286893,128,0,287065:0:0:0:0:
36,192,287065,1,0,0:0:0:0:
109,192,287236,1,0,0:0:0:50:kick.wav
182,192,287236,1,0,0:0:0:50:snare.wav
402,192,287236,1,0,0:0:0:0:
475,192,287236,128,0,287407:0:0:0:0:
36,192,287407,128,0,287922:0:0:0:0:
256,192,287407,1,0,0:0:0:0:
182,192,287579,1,0,0:0:0:50:kick.wav
402,192,287579,1,0,0:0:0:0:
475,192,287579,128,0,287750:0:0:0:0:
329,192,287750,1,0,0:0:0:0:
109,192,287922,1,0,0:0:0:50:kick.wav
182,192,287922,128,0,288265:0:0:0:50:snare.wav
402,192,287922,128,0,288093:0:0:0:0:
475,192,287922,128,0,288093:0:0:0:0:
329,192,288093,128,0,288607:0:0:0:0:
36,192,288265,128,0,288436:0:0:0:50:kick.wav
109,192,288265,128,0,289293:0:0:0:0:
256,192,288265,1,0,0:0:0:0:
182,192,288436,1,0,0:0:0:0:
36,192,288607,128,0,288779:0:0:0:50:kick.wav
256,192,288607,1,0,0:0:0:50:snare.wav
402,192,288607,1,0,0:0:0:0:
475,192,288607,128,0,288950:0:0:0:0:
329,192,288779,1,0,0:0:0:0:
36,192,288950,128,0,289122:0:0:0:50:kick.wav
256,192,288950,1,0,0:0:0:0:
402,192,288950,128,0,289293:0:0:0:0:
182,192,289122,1,0,0:0:0:0:
36,192,289293,128,0,289465:0:0:0:50:kick.wav
256,192,289293,128,0,289636:0:0:0:50:snare.wav
329,192,289293,128,0,289465:0:0:0:0:
475,192,289293,1,0,0:0:0:0:
182,192,289465,128,0,289979:0:0:0:0:
109,192,289636,128,0,289807:0:0:0:50:kick.wav
402,192,289636,1,0,0:0:0:0:
475,192,289636,128,0,289979:0:0:0:0:
329,192,289807,1,0,0:0:0:0:
36,192,289979,128,0,290322:0:0:0:50:kick.wav
109,192,289979,128,0,290150:0:0:0:50:snare.wav
256,192,289979,1,0,0:0:0:0:
402,192,289979,1,0,0:0:0:0:
329,192,290150,1,0,0:0:0:0:
402,192,290150,128,0,290665:0:0:0:0:
109,192,290322,128,0,290665:0:0:0:50:kick.wav
182,192,290322,1,0,0:0:0:0:
256,192,290322,128,0,290493:0:0:0:0:
475,192,290493,1,0,0:0:0:0:
36,192,290665,1,0,0:0:0:50:kick.wav
182,192,290665,128,0,291007:0:0:0:50:snare.wav
256,192,290665,128,0,290836:0:0:0:0:
329,192,290665,128,0,291007:0:0:0:0:
402,192,290836,1,0,0:0:0:0:
36,192,291007,128,0,291179:0:0:0:50:kick.wav
256,192,291007,128,0,291693:0:0:0:0:
475,192,291007,128,0,292379:0:0:0:0:
329,192,291179,1,0,0:0:0:0:
36,192,291350,128,0,291522:0:0:0:50:kick.wav
109,192,291350,1,0,0:0:0:50:snare.wav
182,192,291350,1,0,0:0:0:0:
402,192,291350,1,0,0:0:0:0:
329,192,291522,1,0,0:0:0:0:
36,192,291693,128,0,291865:0:0:0:50:kick.wav
109,192,291693,1,0,0:0:0:0:
402,192,291693,1,0,0:0:0:0:
182,192,291865,1,0,0:0:0:0:
36,192,292036,128,0,292207:0:0:0:50:kick.wav
109,192,292036,1,0,0:0:0:50:snare.wav
256,192,292036,1,0,0:0:0:0:
402,192,292036,128,0,292207:0:0:0:0:
182,192,292207,128,0,292893:0:0:0:0:
329,192,292207,1,0,0:0:0:0:
36,192,292379,1,0,0:0:0:50:kick.wav
256,192,292379,1,0,0:0:0:0:
402,192,292379,128,0,292550:0:0:0:0:
109,192,292550,1,0,0:0:0:0:
36,192,292722,1,0,0:0:0:50:kick.wav
256,192,292722,1,0,0:0:0:50:snare.wav
329,192,292722,1,0,0:0:0:0:
475,192,292722,128,0,292893:0:0:0:0:
329,192,292893,128,0,293407:0:0:0:0:
182,192,293065,1,0,0:0:0:50:kick.wav
402,192,293065,1,0,0:0:0:0:
475,192,293065,128,0,293236:0:0:0:0:
36,192,293236,128,0,293407:0:0:0:0:
109,192,293236,1,0,0:0:0:0:
182,192,293407,128,0,293579:0:0:0:50:kick.wav
256,192,293407,1,0,0:0:0:50:snare.wav
402,192,293407,128,0,293579:0:0:0:0:
475,192,293407,128,0,293750:0:0:0:0:
109,192,293579,128,0,294265:0:0:0:0:
329,192,293579,1,0,0:0:0:0:
36,192,293750,128,0,293922:0:0:0:50:kick.wav
256,192,293750,128,0,294779:0:0:0:0:
402,192,293750,1,0,0:0:0:0:
182,192,293922,1,0,0:0:0:0:
36,192,294093,1,0,0:0:0:50:kick.wav
329,192,294093,1,0,0:0:0:50:snare.wav
402,192,294093,1,0,0:0:0:0:
475,192,294093,128,0,294265:0:0:0:0:
182,192,294265,1,0,0:0:0:0:
36,192,294436,128,0,294607:0:0:0:50:kick.wav
109,192,294436,1,0,0:0:0:0:
329,192,294436,1,0,0:0:0:0:
182,192,294607,1,0,0:0:0:0:
36,192,294779,128,0,294950:0:0:0:50:kick.wav
329,192,294779,128,0,294950:0:0:0:50:snare.wav
402,192,294779,1,0,0:0:0:0:
475,192,294779,128,0,295122:0:0:0:0:
182,192,294950,128,0,295465:0:0:0:0:
36,192,295122,128,0,295636:0:0:0:50:kick.wav
256,192,295122,1,0,0:0:0:0:
402,192,295122,128,0,295293:0:0:0:0:
329,192,295293,1,0,0:0:0:0:
109,192,295465,128,0,295636:0:0:0:50:kick.wav
256,192,295465,1,0,0:0:0:50:snare.wav
402,192,295465,128,0,296065:0:0:0:0:
475,192,295465,1,0,0:0:0:0:
256,192,295636,128,0,296065:0:0:0:0:
36,192,295807,1,0,0:0:0:50:kick.wav
109,192,295807,128,0,296065:0:0:0:0:
475,192,295807,1,0,0:0:0:0:
36,192,296150,128,0,296407:0:0:0:50:snare.wav
109,192,296150,128,0,296407:0:0:0:70:clap_wave.wav
182,192,296150,128,0,296407:0:0:0:0:
329,192,296150,128,0,296407:0:0:0:0:
402,192,296150,128,0,296407:0:0:0:0:
475,192,296150,128,0,296407:0:0:0:0:
36,192,296493,128,0,296836:0:0:0:50:kick.wav
109,192,296493,128,0,296665:0:0:0:50:crash.wav
182,192,296493,128,0,297865:0:0:0:0:
329,192,296493,128,0,297522:0:0:0:0:
475,192,296493,1,0,0:0:0:0:
402,192,296665,1,0,0:0:0:0:
109,192,296836,1,0,0:0:0:50:kick.wav
256,192,296836,1,0,0:0:0:50:snare.wav
402,192,296836,128,0,297007:0:0:0:0:
475,192,296836,128,0,297179:0:0:0:0:
36,192,297007,1,0,0:0:0:0:
36,192,297179,128,0,297522:0:0:0:50:kick.wav
109,192,297179,128,0,297350:0:0:0:0:
256,192,297179,1,0,0:0:0:0:
475,192,297350,1,0,0:0:0:0:
109,192,297522,1,0,0:0:0:50:kick.wav
256,192,297522,128,0,297693:0:0:0:50:snare.wav
402,192,297522,128,0,297693:0:0:0:0:
475,192,297522,128,0,297865:0:0:0:0:
329,192,297693,128,0,298379:0:0:0:0:
36,192,297865,128,0,298207:0:0:0:50:kick.wav
256,192,297865,128,0,298036:0:0:0:0:
402,192,297865,1,0,0:0:0:0:
182,192,298036,1,0,0:0:0:0:
109,192,298207,128,0,298550:0:0:0:50:kick.wav
256,192,298207,128,0,298379:0:0:0:50:snare.wav
402,192,298207,1,0,0:0:0:0:
475,192,298207,1,0,0:0:0:0:
36,192,298379,128,0,298893:0:0:0:0:
182,192,298379,1,0,0:0:0:0:
256,192,298550,128,0,298893:0:0:0:50:kick.wav
402,192,298550,128,0,298722:0:0:0:0:
475,192,298550,1,0,0:0:0:0:
329,192,298722,1,0,0:0:0:0:
109,192,298893,1,0,0:0:0:50:kick.wav
182,192,298893,128,0,299236:0:0:0:50:snare.wav
402,192,298893,128,0,299065:0:0:0:0:
475,192,298893,128,0,299236:0:0:0:0:
329,192,299065,128,0,299579:0:0:0:0:
36,192,299236,128,0,299922:0:0:0:50:kick.wav
109,192,299236,128,0,299579:0:0:0:0:
256,192,299236,128,0,299407:0:0:0:0:
475,192,299407,1,0,0:0:0:0:
182,192,299579,128,0,299750:0:0:0:50:kick.wav
256,192,299579,1,0,0:0:0:50:snare.wav
402,192,299579,1,0,0:0:0:0:
475,192,299579,128,0,299922:0:0:0:0:
329,192,299750,128,0,299922:0:0:0:0:
109,192,299922,1,0,0:0:0:0:
402,192,299922,1,0,0:0:0:0:
109,192,300093,128,0,300265:0:0:0:50:kick.wav
182,192,300093,128,0,300265:0:0:0:0:
329,192,300093,128,0,300265:0:0:0:0:
402,192,300093,128,0,300265:0:0:0:0:
36,192,300436,128,0,300950:0:0:0:50:kick.wav
182,192,300436,128,0,300865:0:0:0:50:crash.wav
256,192,300436,128,0,300865:0:0:0:0:
329,192,300436,128,0,300865:0:0:0:0:
475,192,300436,128,0,300950:0:0:0:0:
109,192,300950,1,0,0:0:0:50:kick.wav
182,192,300950,128,0,301122:0:0:0:50:snare.wav
256,192,300950,1,0,0:0:0:0:
329,192,300950,128,0,301293:0:0:0:0:
402,192,301122,1,0,0:0:0:0:
475,192,301122,128,0,301636:0:0:0:0:
36,192,301293,1,0,0:0:0:50:kick.wav
109,192,301293,128,0,301465:0:0:0:0:
256,192,301293,128,0,301636:0:0:0:0:
329,192,301465,1,0,0:0:0:0:
36,192,301636,128,0,301807:0:0:0:50:kick.wav
182,192,301636,128,0,301979:0:0:0:50:snare.wav
329,192,301636,128,0,301979:0:0:0:0:
402,192,301636,1,0,0:0:0:0:
256,192,301807,1,0,0:0:0:0:
36,192,301979,1,0,0:0:0:50:kick.wav
109,192,301979,1,0,0:0:0:50:snare.wav
402,192,301979,1,0,0:0:0:0:
36,192,302150,1,0,0:0:0:50:snare.wav
109,192,302150,1,0,0:0:0:0:
256,192,302150,1,0,0:0:0:0:
182,192,302322,1,0,0:0:0:50:kick.wav
329,192,302322,1,0,0:0:0:50:snare.wav
402,192,302322,1,0,0:0:0:0:
475,192,302322,1,0,0:0:0:0:
36,192,302493,1,0,0:0:0:50:snare.wav
256,192,302493,1,0,0:0:0:0:
402,192,302493,1,0,0:0:0:0:
475,192,302493,1,0,0:0:0:0:
36,192,302665,1,0,0:0:0:50:kick.wav
109,192,302665,1,0,0:0:0:50:snare.wav
329,192,302665,1,0,0:0:0:0:
36,192,302836,1,0,0:0:0:50:snare.wav
109,192,302836,1,0,0:0:0:0:
256,192,302836,1,0,0:0:0:0:
475,192,302836,1,0,0:0:0:0:
182,192,303007,1,0,0:0:0:50:kick.wav
329,192,303007,1,0,0:0:0:50:snare.wav
402,192,303007,1,0,0:0:0:0:
475,192,303007,1,0,0:0:0:0:
36,192,303179,1,0,0:0:0:50:snare.wav
256,192,303179,1,0,0:0:0:0:
402,192,303179,1,0,0:0:0:0:
475,192,303179,1,0,0:0:0:0:
36,192,303350,1,0,0:0:0:50:kick.wav
109,192,303350,1,0,0:0:0:50:snare.wav
329,192,303350,1,0,0:0:0:0:
402,192,303350,1,0,0:0:0:0:
36,192,303522,1,0,0:0:0:50:snare.wav
109,192,303522,1,0,0:0:0:0:
256,192,303522,1,0,0:0:0:0:
182,192,303693,1,0,0:0:0:50:kick.wav
329,192,303693,1,0,0:0:0:50:snare.wav
402,192,303693,1,0,0:0:0:0:
475,192,303693,1,0,0:0:0:0:
256,192,303865,1,0,0:0:0:50:snare.wav
402,192,303865,1,0,0:0:0:0:
475,192,303865,1,0,0:0:0:0:
36,192,304036,1,0,0:0:0:50:kick.wav
109,192,304036,1,0,0:0:0:50:snare.wav
329,192,304036,1,0,0:0:0:0:
36,192,304207,1,0,0:0:0:50:snare.wav
109,192,304207,1,0,0:0:0:0:
256,192,304207,1,0,0:0:0:0:
329,192,304293,1,0,0:0:0:0:
402,192,304293,1,0,0:0:0:0:
109,192,304379,1,0,0:0:0:50:kick.wav
182,192,304379,1,0,0:0:0:50:snare.wav
256,192,304379,1,0,0:0:0:0:
475,192,304379,1,0,0:0:0:0:
36,192,304550,1,0,0:0:0:50:snare.wav
256,192,304550,1,0,0:0:0:0:
402,192,304550,1,0,0:0:0:0:
475,192,304550,1,0,0:0:0:0:
36,192,304722,1,0,0:0:0:50:kick.wav
109,192,304722,1,0,0:0:0:50:snare.wav
256,192,304722,1,0,0:0:0:0:
329,192,304807,1,0,0:0:0:50:snare.wav
402,192,304807,1,0,0:0:0:0:
475,192,304807,1,0,0:0:0:0:
36,192,304893,1,0,0:0:0:50:snare.wav
109,192,304893,1,0,0:0:0:0:
256,192,304893,1,0,0:0:0:0:
182,192,304979,1,0,0:0:0:50:snare.wav
402,192,304979,1,0,0:0:0:0:
475,192,304979,1,0,0:0:0:0:
36,192,305065,1,0,0:0:0:50:kick.wav
109,192,305065,1,0,0:0:0:50:snare.wav
329,192,305065,1,0,0:0:0:0:
256,192,305150,1,0,0:0:0:50:snare.wav
402,192,305150,1,0,0:0:0:0:
475,192,305150,1,0,0:0:0:0:
36,192,305236,1,0,0:0:0:50:snare.wav
109,192,305236,1,0,0:0:0:0:
182,192,305236,1,0,0:0:0:0:
256,192,305322,1,0,0:0:0:50:snare.wav
402,192,305322,1,0,0:0:0:0:
475,192,305322,1,0,0:0:0:0:
36,192,305407,1,0,0:0:0:50:kick.wav
109,192,305407,1,0,0:0:0:50:snare.wav
329,192,305407,1,0,0:0:0:0:
182,192,305493,1,0,0:0:0:50:snare.wav
402,192,305493,1,0,0:0:0:0:
475,192,305493,1,0,0:0:0:0:
36,192,305579,1,0,0:0:0:50:snare.wav
256,192,305579,1,0,0:0:0:0:
329,192,305579,1,0,0:0:0:0:
109,192,305665,1,0,0:0:0:50:snare.wav
182,192,305665,1,0,0:0:0:0:
402,192,305665,1,0,0:0:0:0:
36,192,305750,1,0,0:0:0:50:kick.wav
256,192,305750,1,0,0:0:0:50:snare.wav
475,192,305750,1,0,0:0:0:0:
182,192,305836,1,0,0:0:0:50:snare.wav
329,192,305836,1,0,0:0:0:0:
402,192,305836,1,0,0:0:0:0:
36,192,305922,1,0,0:0:0:50:snare.wav
109,192,305922,1,0,0:0:0:0:
475,192,305922,1,0,0:0:0:0:
182,192,306007,1,0,0:0:0:50:snare.wav
256,192,306007,1,0,0:0:0:0:
402,192,306007,1,0,0:0:0:0:
36,192,306093,128,0,306179:0:0:0:50:kick.wav
109,192,306093,128,0,306265:0:0:0:50:snare.wav
329,192,306093,128,0,306179:0:0:0:0:
182,192,306179,128,0,306350:0:0:0:50:snare.wav
402,192,306179,128,0,306265:0:0:0:0:
256,192,306265,128,0,306436:0:0:0:50:snare.wav
475,192,306265,128,0,306350:0:0:0:0:
36,192,306350,128,0,306436:0:0:0:50:snare.wav
329,192,306350,128,0,306436:0:0:0:0:
182,192,306436,128,0,306522:0:0:0:50:kick.wav
402,192,306436,128,0,306607:0:0:0:50:snare.wav
475,192,306436,128,0,306522:0:0:0:0:
109,192,306522,128,0,306607:0:0:0:50:snare.wav
329,192,306522,128,0,306693:0:0:0:0:
36,192,306607,128,0,306693:0:0:0:50:snare.wav
256,192,306607,128,0,306779:0:0:0:0:
182,192,306693,128,0,306779:0:0:0:50:snare.wav
475,192,306693,128,0,306779:0:0:0:0:
36,192,306779,128,0,306865:0:0:0:50:kick.wav
109,192,306779,128,0,306950:0:0:0:50:snare.wav
329,192,306779,128,0,306865:0:0:0:0:
182,192,306865,128,0,307036:0:0:0:0:
402,192,306865,128,0,306950:0:0:0:0:
256,192,306950,128,0,307122:0:0:0:0:
475,192,306950,128,0,307036:0:0:0:0:
36,192,307036,128,0,307122:0:0:0:0:
329,192,307036,128,0,307122:0:0:0:0:
475,192,307122,128,0,307293:0:0:0:0:
402,192,307207,128,0,307379:0:0:0:0:
329,192,307293,128,0,307465:0:0:0:0:
256,192,307379,128,0,307465:0:0:0:0:
36,192,307465,128,0,307979:0:0:0:50:kick.wav
109,192,307465,1,0,0:0:0:50:crash.wav
182,192,307465,1,0,0:0:0:0:
475,192,307465,1,0,0:0:0:0:
329,192,307636,1,0,0:0:0:0:
402,192,307636,1,0,0:0:0:0:
182,192,307722,128,0,308322:0:0:0:0:
256,192,307722,1,0,0:0:0:0:
109,192,307807,1,0,0:0:0:50:kick.wav
402,192,307807,1,0,0:0:0:50:snare.wav
475,192,307807,1,0,0:0:0:0:
256,192,307979,1,0,0:0:0:0:
329,192,307979,128,0,308150:0:0:0:0:
36,192,308150,1,0,0:0:0:50:kick.wav
402,192,308150,1,0,0:0:0:0:
475,192,308150,1,0,0:0:0:0:
256,192,308322,1,0,0:0:0:0:
329,192,308322,128,0,308836:0:0:0:0:
36,192,308493,1,0,0:0:0:50:kick.wav
109,192,308493,1,0,0:0:0:50:snare.wav
182,192,308493,128,0,308836:0:0:0:0:
475,192,308493,1,0,0:0:0:0:
256,192,308665,1,0,0:0:0:0:
402,192,308665,128,0,308836:0:0:0:0:
36,192,308836,1,0,0:0:0:50:kick.wav
109,192,308836,1,0,0:0:0:0:
475,192,308836,128,0,309350:0:0:0:0:
182,192,309007,1,0,0:0:0:0:
402,192,309007,1,0,0:0:0:0:
256,192,309093,1,0,0:0:0:0:
329,192,309093,128,0,309522:0:0:0:0:
36,192,309179,1,0,0:0:0:50:kick.wav
109,192,309179,1,0,0:0:0:50:snare.wav
402,192,309179,1,0,0:0:0:0:
182,192,309350,128,0,309522:0:0:0:0:
256,192,309350,1,0,0:0:0:0:
36,192,309522,1,0,0:0:0:50:kick.wav
109,192,309522,1,0,0:0:0:0:
475,192,309522,1,0,0:0:0:0:
256,192,309693,1,0,0:0:0:0:
475,192,309693,128,0,309750:0:0:0:0:
182,192,309750,1,0,0:0:0:0:
402,192,309750,128,0,309807:0:0:0:0:
109,192,309807,1,0,0:0:0:0:
329,192,309807,128,0,309865:0:0:0:0:
36,192,309865,1,0,0:0:0:50:kick.wav
182,192,309865,128,0,310207:0:0:0:50:snare.wav
256,192,309865,1,0,0:0:0:0:
475,192,309865,1,0,0:0:0:0:
329,192,310036,128,0,310207:0:0:0:0:
402,192,310036,1,0,0:0:0:0:
36,192,310207,128,0,310722:0:0:0:50:kick.wav
109,192,310207,1,0,0:0:0:0:
256,192,310207,1,0,0:0:0:0:
329,192,310379,1,0,0:0:0:0:
402,192,310379,1,0,0:0:0:0:
109,192,310465,1,0,0:0:0:0:
182,192,310465,128,0,310893:0:0:0:0:
256,192,310550,1,0,0:0:0:50:kick.wav
402,192,310550,1,0,0:0:0:50:snare.wav
475,192,310550,1,0,0:0:0:0:
109,192,310722,1,0,0:0:0:0:
329,192,310722,128,0,310893:0:0:0:0:
36,192,310893,128,0,311579:0:0:0:50:kick.wav
402,192,310893,1,0,0:0:0:0:
475,192,310893,1,0,0:0:0:0:
182,192,310979,1,0,0:0:0:0:
256,192,311065,128,0,311236:0:0:0:0:
329,192,311150,128,0,311322:0:0:0:0:
109,192,311236,128,0,311407:0:0:0:50:kick.wav
402,192,311236,128,0,311407:0:0:0:50:snare.wav
475,192,311236,128,0,311493:0:0:0:0:
182,192,311322,128,0,311493:0:0:0:0:
256,192,311407,128,0,311579:0:0:0:0:
329,192,311493,128,0,311579:0:0:0:0:
109,192,311579,128,0,312265:0:0:0:50:kick.wav
402,192,311579,1,0,0:0:0:0:
475,192,311579,128,0,311922:0:0:0:0:
36,192,311750,1,0,0:0:0:0:
329,192,311750,1,0,0:0:0:0:
182,192,311836,1,0,0:0:0:0:
256,192,311836,128,0,312265:0:0:0:0:
36,192,311922,1,0,0:0:0:50:kick.wav
329,192,311922,1,0,0:0:0:50:snare.wav
402,192,311922,1,0,0:0:0:0:
402,192,312093,128,0,312265:0:0:0:0:
475,192,312093,1,0,0:0:0:0:
182,192,312265,128,0,312350:0:0:0:50:kick.wav
329,192,312265,128,0,312436:0:0:0:0:
475,192,312265,128,0,312950:0:0:0:0:
109,192,312436,128,0,312522:0:0:0:0:
256,192,312436,128,0,312607:0:0:0:0:
36,192,312607,128,0,312693:0:0:0:50:kick.wav
182,192,312607,128,0,312779:0:0:0:50:snare.wav
329,192,312607,1,0,0:0:0:0:
402,192,312607,1,0,0:0:0:0:
109,192,312779,128,0,312865:0:0:0:0:
256,192,312779,128,0,312950:0:0:0:0:
36,192,312950,128,0,313207:0:0:0:50:kick.wav
182,192,312950,1,0,0:0:0:0:
402,192,312950,128,0,313636:0:0:0:0:
329,192,313122,1,0,0:0:0:0:
475,192,313122,1,0,0:0:0:0:
182,192,313207,128,0,313807:0:0:0:0:
256,192,313207,1,0,0:0:0:0:
36,192,313293,1,0,0:0:0:50:kick.wav
109,192,313293,1,0,0:0:0:50:snare.wav
475,192,313293,1,0,0:0:0:0:
36,192,313465,1,0,0:0:0:0:
329,192,313465,128,0,313636:0:0:0:0:
109,192,313636,1,0,0:0:0:50:kick.wav
256,192,313636,1,0,0:0:0:0:
475,192,313636,1,0,0:0:0:0:
329,192,313807,128,0,314322:0:0:0:0:
402,192,313807,1,0,0:0:0:0:
36,192,313979,1,0,0:0:0:50:kick.wav
182,192,313979,128,0,314322:0:0:0:50:snare.wav
256,192,313979,1,0,0:0:0:0:
475,192,313979,1,0,0:0:0:0:
109,192,314150,1,0,0:0:0:0:
402,192,314150,128,0,314322:0:0:0:0:
36,192,314322,1,0,0:0:0:50:kick.wav
256,192,314322,1,0,0:0:0:0:
475,192,314322,128,0,314836:0:0:0:0:
109,192,314493,1,0,0:0:0:0:
182,192,314493,1,0,0:0:0:0:
256,192,314579,1,0,0:0:0:0:
329,192,314579,128,0,315007:0:0:0:0:
36,192,314665,1,0,0:0:0:50:kick.wav
109,192,314665,1,0,0:0:0:50:snare.wav
402,192,314665,1,0,0:0:0:0:
182,192,314836,128,0,315007:0:0:0:0:
256,192,314836,1,0,0:0:0:0:
36,192,315007,1,0,0:0:0:50:kick.wav
109,192,315007,1,0,0:0:0:0:
475,192,315007,1,0,0:0:0:0:
36,192,315179,1,0,0:0:0:0:
475,192,315179,128,0,315236:0:0:0:0:
109,192,315236,1,0,0:0:0:0:
402,192,315236,128,0,315293:0:0:0:0:
182,192,315293,1,0,0:0:0:0:
329,192,315293,128,0,315350:0:0:0:0:
36,192,315350,1,0,0:0:0:50:kick.wav
109,192,315350,128,0,315693:0:0:0:50:snare.wav
256,192,315350,1,0,0:0:0:0:
182,192,315522,1,0,0:0:0:0:
402,192,315522,128,0,315693:0:0:0:0:
36,192,315693,128,0,316207:0:0:0:50:kick.wav
329,192,315693,1,0,0:0:0:0:
475,192,315693,1,0,0:0:0:0:
109,192,315865,1,0,0:0:0:0:
402,192,315865,1,0,0:0:0:0:
182,192,315950,128,0,316379:0:0:0:0:
329,192,315950,1,0,0:0:0:0:
256,192,316036,1,0,0:0:0:50:kick.wav
402,192,316036,1,0,0:0:0:50:snare.wav
475,192,316036,1,0,0:0:0:0:
109,192,316207,1,0,0:0:0:0:
329,192,316207,128,0,316379:0:0:0:0:
36,192,316379,1,0,0:0:0:50:kick.wav
256,192,316379,1,0,0:0:0:0:
475,192,316379,1,0,0:0:0:0:
182,192,316550,128,0,316722:0:0:0:0:
402,192,316550,1,0,0:0:0:0:
109,192,316636,128,0,316807:0:0:0:0:
36,192,316722,128,0,316893:0:0:0:50:kick.wav
329,192,316722,128,0,316893:0:0:0:50:snare.wav
402,192,316722,128,0,316807:0:0:0:0:
475,192,316722,1,0,0:0:0:0:
256,192,316807,128,0,316979:0:0:0:0:
182,192,316893,128,0,317065:0:0:0:0:
109,192,316979,128,0,317065:0:0:0:0:
36,192,317065,1,0,0:0:0:50:kick.wav
402,192,317065,1,0,0:0:0:0:
475,192,317065,128,0,317322:0:0:0:0:
109,192,317236,1,0,0:0:0:0:
256,192,317236,1,0,0:0:0:0:
182,192,317322,1,0,0:0:0:0:
329,192,317322,128,0,317579:0:0:0:0:
36,192,317407,1,0,0:0:0:50:kick.wav
402,192,317407,1,0,0:0:0:50:snare.wav
475,192,317407,1,0,0:0:0:0:
182,192,317579,128,0,317750:0:0:0:0:
256,192,317579,1,0,0:0:0:0:
36,192,317750,128,0,318007:0:0:0:50:kick.wav
109,192,317750,128,0,318007:0:0:0:0:
329,192,317750,1,0,0:0:0:0:
402,192,317922,128,0,318007:0:0:0:0:
475,192,317922,128,0,318007:0:0:0:0:
36,192,318093,128,0,318350:0:0:0:50:snare.wav
109,192,318093,128,0,318350:0:0:0:70:clap_wave.wav
182,192,318093,128,0,318350:0:0:0:0:
329,192,318093,128,0,318350:0:0:0:0:
402,192,318093,128,0,318350:0:0:0:0:
475,192,318093,128,0,318350:0:0:0:0:
36,192,318436,128,0,318607:0:0:0:50:kick.wav
109,192,318436,128,0,318607:0:0:0:50:crash.wav
329,192,318436,1,0,0:0:0:0:
402,192,318436,1,0,0:0:0:0:
475,192,318436,128,0,318950:0:0:0:0:
182,192,318607,1,0,0:0:0:0:
256,192,318607,1,0,0:0:0:0:
329,192,318693,128,0,319293:0:0:0:0:
402,192,318693,1,0,0:0:0:0:
36,192,318779,128,0,318950:0:0:0:50:kick.wav
109,192,318779,128,0,318950:0:0:0:50:snare.wav
256,192,318779,1,0,0:0:0:0:
182,192,318950,128,0,319122:0:0:0:0:
402,192,318950,1,0,0:0:0:0:
36,192,319122,128,0,319293:0:0:0:50:kick.wav
109,192,319122,128,0,319293:0:0:0:0:
475,192,319122,1,0,0:0:0:0:
182,192,319293,128,0,319807:0:0:0:0:
256,192,319293,1,0,0:0:0:0:
36,192,319465,128,0,319636:0:0:0:50:kick.wav
109,192,319465,128,0,319636:0:0:0:50:snare.wav
256,192,319465,128,0,319807:0:0:0:0:
402,192,319465,1,0,0:0:0:0:
329,192,319636,128,0,319807:0:0:0:0:
475,192,319636,1,0,0:0:0:0:
36,192,319807,128,0,320493:0:0:0:50:kick.wav
402,192,319807,128,0,319979:0:0:0:0:
475,192,319807,128,0,319979:0:0:0:0:
256,192,319979,1,0,0:0:0:0:
329,192,319979,1,0,0:0:0:0:
109,192,320065,1,0,0:0:0:0:
182,192,320065,128,0,320665:0:0:0:0:
256,192,320150,1,0,0:0:0:50:kick.wav
402,192,320150,128,0,320322:0:0:0:50:snare.wav
475,192,320150,128,0,320322:0:0:0:0:
109,192,320322,1,0,0:0:0:0:
329,192,320322,128,0,320665:0:0:0:0:
256,192,320493,1,0,0:0:0:50:kick.wav
402,192,320493,128,0,320665:0:0:0:0:
475,192,320493,128,0,320665:0:0:0:0:
36,192,320665,128,0,320722:0:0:0:0:
109,192,320722,128,0,320779:0:0:0:0:
182,192,320779,128,0,320836:0:0:0:0:
36,192,320836,1,0,0:0:0:50:kick.wav
329,192,320836,128,0,321179:0:0:0:50:snare.wav
402,192,320836,128,0,321007:0:0:0:0:
475,192,320836,128,0,321007:0:0:0:0:
182,192,321007,128,0,321179:0:0:0:0:
256,192,321007,1,0,0:0:0:0:
36,192,321179,128,0,321350:0:0:0:50:kick.wav
109,192,321179,128,0,321350:0:0:0:0:
475,192,321179,128,0,321693:0:0:0:0:
256,192,321350,1,0,0:0:0:0:
402,192,321350,1,0,0:0:0:0:
182,192,321436,1,0,0:0:0:0:
329,192,321436,128,0,321865:0:0:0:0:
36,192,321522,128,0,321693:0:0:0:50:kick.wav
109,192,321522,128,0,321693:0:0:0:50:snare.wav
256,192,321522,1,0,0:0:0:0:
182,192,321693,128,0,321865:0:0:0:0:
402,192,321693,1,0,0:0:0:0:
36,192,321865,128,0,322036:0:0:0:50:kick.wav
109,192,321865,128,0,322036:0:0:0:0:
475,192,321865,128,0,322293:0:0:0:0:
329,192,321950,128,0,322122:0:0:0:0:
256,192,322036,128,0,322207:0:0:0:0:
182,192,322122,128,0,322293:0:0:0:0:
36,192,322207,128,0,322465:0:0:0:50:kick.wav
109,192,322207,128,0,322379:0:0:0:50:snare.wav
402,192,322207,128,0,322379:0:0:0:0:
329,192,322293,128,0,322465:0:0:0:0:
256,192,322379,128,0,322550:0:0:0:0:
182,192,322465,128,0,322550:0:0:0:0:
36,192,322550,128,0,322893:0:0:0:50:kick.wav
109,192,322550,128,0,322722:0:0:0:0:
402,192,322550,128,0,323236:0:0:0:0:
182,192,322722,1,0,0:0:0:0:
329,192,322722,1,0,0:0:0:0:
109,192,322807,1,0,0:0:0:0:
256,192,322807,128,0,323236:0:0:0:0:
182,192,322893,1,0,0:0:0:50:kick.wav
329,192,322893,128,0,323065:0:0:0:50:snare.wav
475,192,322893,128,0,323065:0:0:0:0:
109,192,323065,128,0,323236:0:0:0:0:
36,192,323236,128,0,323922:0:0:0:50:kick.wav
182,192,323236,128,0,323407:0:0:0:0:
329,192,323236,128,0,323322:0:0:0:0:
256,192,323407,128,0,323579:0:0:0:0:
402,192,323407,128,0,323493:0:0:0:0:
109,192,323579,1,0,0:0:0:50:kick.wav
182,192,323579,1,0,0:0:0:50:snare.wav
329,192,323579,128,0,323750:0:0:0:0:
475,192,323579,128,0,323665:0:0:0:0:
256,192,323750,128,0,323922:0:0:0:0:
402,192,323750,128,0,323836:0:0:0:0:
182,192,323922,128,0,325122:0:0:0:50:kick.wav
329,192,323922,1,0,0:0:0:50:snare.wav
402,192,323922,1,0,0:0:0:0:
475,192,323922,1,0,0:0:0:0:
329,192,324093,1,0,0:0:0:50:snare.wav
402,192,324093,1,0,0:0:0:0:
475,192,324093,1,0,0:0:0:0:
109,192,324179,128,0,324779:0:0:0:0:
329,192,324265,1,0,0:0:0:50:kick.wav
402,192,324265,1,0,0:0:0:50:snare.wav
475,192,324265,1,0,0:0:0:0:
36,192,324436,128,0,324607:0:0:0:50:snare.wav
329,192,324436,1,0,0:0:0:0:
402,192,324436,1,0,0:0:0:0:
475,192,324436,1,0,0:0:0:0:
329,192,324607,1,0,0:0:0:50:kick.wav
402,192,324607,1,0,0:0:0:50:snare.wav
475,192,324607,1,0,0:0:0:0:
36,192,324779,128,0,325122:0:0:0:50:snare.wav
329,192,324779,1,0,0:0:0:0:
402,192,324779,1,0,0:0:0:0:
475,192,324779,1,0,0:0:0:0:
109,192,324950,128,0,325122:0:0:0:50:kick.wav
329,192,324950,1,0,0:0:0:50:snare.wav
402,192,324950,1,0,0:0:0:0:
475,192,324950,1,0,0:0:0:0:
256,192,325122,128,0,325293:0:0:0:50:snare.wav
329,192,325122,1,0,0:0:0:0:
402,192,325122,1,0,0:0:0:0:
475,192,325122,1,0,0:0:0:0:
36,192,325293,1,0,0:0:0:50:kick.wav
109,192,325293,1,0,0:0:0:50:snare.wav
182,192,325293,1,0,0:0:0:0:
329,192,325293,128,0,326493:0:0:0:0:
36,192,325465,1,0,0:0:0:50:snare.wav
109,192,325465,1,0,0:0:0:0:
182,192,325465,1,0,0:0:0:0:
402,192,325550,128,0,326150:0:0:0:0:
36,192,325636,1,0,0:0:0:50:kick.wav
109,192,325636,1,0,0:0:0:50:snare.wav
182,192,325636,1,0,0:0:0:0:
36,192,325807,1,0,0:0:0:50:snare.wav
109,192,325807,1,0,0:0:0:0:
182,192,325807,1,0,0:0:0:0:
475,192,325807,128,0,325979:0:0:0:0:
36,192,325979,1,0,0:0:0:50:kick.wav
109,192,325979,1,0,0:0:0:50:snare.wav
182,192,325979,1,0,0:0:0:0:
36,192,326150,1,0,0:0:0:50:snare.wav
109,192,326150,1,0,0:0:0:0:
182,192,326150,1,0,0:0:0:0:
475,192,326150,128,0,326493:0:0:0:0:
36,192,326322,1,0,0:0:0:50:kick.wav
109,192,326322,1,0,0:0:0:50:snare.wav
182,192,326322,1,0,0:0:0:0:
402,192,326322,128,0,326493:0:0:0:0:
36,192,326493,1,0,0:0:0:50:snare.wav
109,192,326493,1,0,0:0:0:0:
182,192,326493,1,0,0:0:0:0:
256,192,326493,128,0,326665:0:0:0:0:
329,192,326665,1,0,0:0:0:50:kick.wav
402,192,326665,1,0,0:0:0:50:snare.wav
475,192,326665,1,0,0:0:0:0:
36,192,326750,1,0,0:0:0:50:snare.wav
109,192,326750,1,0,0:0:0:0:
182,192,326750,1,0,0:0:0:0:
256,192,326836,1,0,0:0:0:50:snare.wav
402,192,326836,1,0,0:0:0:0:
475,192,326836,1,0,0:0:0:0:
36,192,326922,1,0,0:0:0:50:snare.wav
109,192,326922,1,0,0:0:0:0:
329,192,326922,1,0,0:0:0:0:
182,192,327007,1,0,0:0:0:50:kick.wav
402,192,327007,1,0,0:0:0:50:snare.wav
475,192,327007,1,0,0:0:0:0:
36,192,327093,1,0,0:0:0:50:snare.wav
109,192,327093,1,0,0:0:0:0:
256,192,327093,1,0,0:0:0:0:
329,192,327179,1,0,0:0:0:50:snare.wav
402,192,327179,1,0,0:0:0:0:
475,192,327179,1,0,0:0:0:0:
36,192,327265,1,0,0:0:0:50:snare.wav
109,192,327265,1,0,0:0:0:0:
182,192,327265,1,0,0:0:0:0:
256,192,327350,1,0,0:0:0:50:kick.wav
329,192,327350,1,0,0:0:0:50:snare.wav
475,192,327350,1,0,0:0:0:0:
36,192,327436,1,0,0:0:0:50:snare.wav
109,192,327436,1,0,0:0:0:0:
182,192,327436,1,0,0:0:0:0:
329,192,327522,1,0,0:0:0:50:snare.wav
402,192,327522,1,0,0:0:0:0:
475,192,327522,1,0,0:0:0:0:
36,192,327607,1,0,0:0:0:50:snare.wav
182,192,327607,1,0,0:0:0:0:
256,192,327607,1,0,0:0:0:0:
329,192,327693,1,0,0:0:0:50:kick.wav
402,192,327693,1,0,0:0:0:50:snare.wav
475,192,327693,1,0,0:0:0:0:
36,192,327779,1,0,0:0:0:50:snare.wav
109,192,327779,1,0,0:0:0:0:
182,192,327779,1,0,0:0:0:0:
256,192,327865,1,0,0:0:0:50:snare.wav
329,192,327865,1,0,0:0:0:0:
475,192,327865,1,0,0:0:0:0:
36,192,327950,1,0,0:0:0:50:snare.wav
109,192,327950,1,0,0:0:0:0:
182,192,327950,1,0,0:0:0:0:
329,192,328036,1,0,0:0:0:50:kick.wav
402,192,328036,1,0,0:0:0:50:snare.wav
475,192,328036,1,0,0:0:0:0:
36,192,328122,1,0,0:0:0:50:snare.wav
109,192,328122,1,0,0:0:0:0:
182,192,328122,1,0,0:0:0:0:
256,192,328207,1,0,0:0:0:50:snare.wav
402,192,328207,1,0,0:0:0:0:
475,192,328207,1,0,0:0:0:0:
36,192,328293,1,0,0:0:0:50:snare.wav
109,192,328293,1,0,0:0:0:0:
329,192,328293,1,0,0:0:0:0:
182,192,328379,1,0,0:0:0:50:kick.wav
402,192,328379,1,0,0:0:0:50:snare.wav
475,192,328379,1,0,0:0:0:0:
36,192,328465,1,0,0:0:0:50:snare.wav
109,192,328465,1,0,0:0:0:0:
256,192,328465,1,0,0:0:0:0:
329,192,328550,1,0,0:0:0:50:snare.wav
402,192,328550,1,0,0:0:0:0:
475,192,328550,1,0,0:0:0:0:
36,192,328636,1,0,0:0:0:50:snare.wav
109,192,328636,1,0,0:0:0:0:
182,192,328636,1,0,0:0:0:0:
256,192,328722,1,0,0:0:0:50:kick.wav
329,192,328722,1,0,0:0:0:50:snare.wav
475,192,328722,1,0,0:0:0:0:
36,192,328807,1,0,0:0:0:50:snare.wav
109,192,328807,1,0,0:0:0:0:
182,192,328807,1,0,0:0:0:0:
329,192,328893,1,0,0:0:0:50:snare.wav
402,192,328893,1,0,0:0:0:0:
475,192,328893,1,0,0:0:0:0:
36,192,328979,1,0,0:0:0:50:snare.wav
182,192,328979,1,0,0:0:0:0:
256,192,328979,1,0,0:0:0:0:
329,192,329065,1,0,0:0:0:50:kick.wav
402,192,329065,1,0,0:0:0:50:snare.wav
475,192,329065,1,0,0:0:0:0:
36,192,329150,1,0,0:0:0:50:snare.wav
109,192,329150,1,0,0:0:0:0:
182,192,329150,1,0,0:0:0:0:
256,192,329236,1,0,0:0:0:50:snare.wav
329,192,329236,1,0,0:0:0:0:
475,192,329236,1,0,0:0:0:0:
36,192,329322,1,0,0:0:0:50:snare.wav
109,192,329322,1,0,0:0:0:0:
182,192,329322,1,0,0:0:0:0:
256,192,329407,128,0,330779:0:0:0:50:kick.wav
329,192,329407,1,0,0:0:0:50:crash.wav
402,192,329407,1,0,0:0:0:0:
475,192,329407,128,0,329750:0:0:0:0:
329,192,329579,128,0,330093:0:0:0:0:
402,192,329750,128,0,329922:0:0:0:0:
475,192,329922,128,0,330265:0:0:0:0:
402,192,330093,128,0,330436:0:0:0:0:
329,192,330265,128,0,330779:0:0:0:0:
475,192,330436,128,0,330607:0:0:0:0:
402,192,330607,128,0,330779:0:0:0:0:
109,192,330779,128,0,331122:0:0:0:0:
475,192,330779,128,0,332150:0:0:0:0:
36,192,330950,128,0,331293:0:0:0:0:
182,192,331122,128,0,331465:0:0:0:0:
109,192,331293,128,0,331636:0:0:0:0:
36,192,331465,128,0,331979:0:0:0:0:
182,192,331636,128,0,331807:0:0:0:0:
109,192,331807,128,0,332150:0:0:0:0:
182,192,331979,128,0,332150:0:0:0:0:
36,192,332150,128,0,333522:0:0:0:0:
402,192,332150,128,0,332322:0:0:0:0:
329,192,332322,128,0,332836:0:0:0:0:
402,192,332493,128,0,332665:0:0:0:0:
475,192,332665,128,0,333007:0:0:0:0:
109,192,332836,128,0,333522:0:0:0:0:
402,192,332836,128,0,333179:0:0:0:0:
329,192,333007,128,0,333350:0:0:0:0:
475,192,333179,128,0,333522:0:0:0:0:
402,192,333350,128,0,333522:0:0:0:0:
182,192,333522,128,0,333865:0:0:0:0:
256,192,333522,128,0,334722:0:0:0:0:
329,192,333522,128,0,334207:0:0:0:0:
36,192,333693,128,0,334207:0:0:0:0:
109,192,333865,128,0,334036:0:0:0:0:
182,192,334036,128,0,334379:0:0:0:0:
109,192,334207,128,0,334550:0:0:0:0:
402,192,334207,128,0,334893:0:0:0:0:
36,192,334379,128,0,334893:0:0:0:0:
182,192,334550,128,0,334722:0:0:0:0:
109,192,334722,128,0,334893:0:0:0:0:
182,192,334893,128,0,335579:0:0:0:0:
256,192,334893,128,0,336265:0:0:0:0:
475,192,334893,128,0,335236:0:0:0:0:
329,192,335065,128,0,335579:0:0:0:0:
402,192,335236,128,0,335407:0:0:0:0:
475,192,335407,128,0,335750:0:0:0:0:
402,192,335579,128,0,335922:0:0:0:0:
329,192,335750,128,0,336265:0:0:0:0:
475,192,335922,128,0,336093:0:0:0:0:
402,192,336093,128,0,336265:0:0:0:0:
109,192,336265,128,0,336607:0:0:0:0:
475,192,336265,128,0,337636:0:0:0:0:
36,192,336436,128,0,336779:0:0:0:0:
182,192,336607,128,0,337122:0:0:0:0:
109,192,336779,128,0,336950:0:0:0:0:
36,192,336950,128,0,337465:0:0:0:0:
109,192,337122,128,0,337293:0:0:0:0:
182,192,337293,128,0,337636:0:0:0:0:
109,192,337465,128,0,337636:0:0:0:0:
36,192,337636,128,0,339007:0:0:0:0:
402,192,337636,128,0,337807:0:0:0:0:
329,192,337807,128,0,338322:0:0:0:0:
402,192,337979,128,0,338150:0:0:0:0:
475,192,338150,128,0,338493:0:0:0:0:
402,192,338322,128,0,338665:0:0:0:0:
329,192,338493,128,0,339007:0:0:0:0:
475,192,338665,128,0,339007:0:0:0:0:
402,192,338836,128,0,339007:0:0:0:0:
109,192,339007,128,0,339350:0:0:0:0:
256,192,339007,128,0,340207:0:0:0:0:
182,192,339179,128,0,339522:0:0:0:0:
36,192,339350,128,0,339865:0:0:0:0:
109,192,339522,128,0,339693:0:0:0:0:
182,192,339693,128,0,340036:0:0:0:0:
109,192,339865,128,0,340379:0:0:0:0:
36,192,340036,128,0,340207:0:0:0:0:
182,192,340207,128,0,340379:0:0:0:0:
36,192,340379,128,0,341065:0:0:0:0:
256,192,340379,128,0,341750:0:0:0:0:
475,192,340379,128,0,340722:0:0:0:0:
329,192,340550,128,0,341065:0:0:0:0:
402,192,340722,128,0,340893:0:0:0:0:
475,192,340893,128,0,341236:0:0:0:0:
402,192,341065,128,0,341407:0:0:0:0:
329,192,341236,128,0,341750:0:0:0:0:
475,192,341407,128,0,341579:0:0:0:0:
402,192,341579,128,0,341750:0:0:0:0:
36,192,341750,128,0,342093:0:0:0:0:
475,192,341750,128,0,343122:0:0:0:0:
182,192,341922,128,0,342265:0:0:0:0:
109,192,342093,128,0,342436:0:0:0:0:
36,192,342265,128,0,342607:0:0:0:0:
182,192,342436,128,0,342779:0:0:0:0:
109,192,342607,128,0,343122:0:0:0:0:
36,192,342779,128,0,342950:0:0:0:0:
182,192,342950,128,0,343122:0:0:0:0:
36,192,343122,128,0,344493:0:0:0:0:
329,192,343122,128,0,343465:0:0:0:0:
402,192,343293,128,0,343807:0:0:0:0:
475,192,343465,128,0,343636:0:0:0:0:
329,192,343636,128,0,343979:0:0:0:0:
182,192,343807,128,0,344493:0:0:0:0:
475,192,343807,128,0,344150:0:0:0:0:
402,192,343979,128,0,344493:0:0:0:0:
329,192,344150,128,0,344322:0:0:0:0:
475,192,344322,128,0,344493:0:0:0:0:
109,192,344493,128,0,345007:0:0:0:0:
256,192,344493,128,0,345693:0:0:0:0:
329,192,344493,128,0,345179:0:0:0:0:
182,192,344665,128,0,344836:0:0:0:0:
36,192,344836,128,0,345179:0:0:0:0:
182,192,345007,128,0,345350:0:0:0:0:
109,192,345179,128,0,345522:0:0:0:0:
402,192,345179,128,0,345865:0:0:0:0:
36,192,345350,128,0,345693:0:0:0:0:
182,192,345522,128,0,345865:0:0:0:0:
109,192,345693,128,0,345865:0:0:0:0:
36,192,345865,128,0,346550:0:0:0:0:
256,192,345865,128,0,347236:0:0:0:0:
329,192,345865,128,0,346207:0:0:0:0:
402,192,346036,128,0,346379:0:0:0:0:
475,192,346207,128,0,346722:0:0:0:0:
329,192,346379,128,0,346550:0:0:0:0:
402,192,346550,128,0,346893:0:0:0:0:
329,192,346722,128,0,347065:0:0:0:0:
475,192,346893,128,0,347065:0:0:0:0:
402,192,347065,128,0,347236:0:0:0:0:
109,192,347236,128,0,347750:0:0:0:0:
475,192,347236,128,0,348607:0:0:0:0:
182,192,347407,128,0,347579:0:0:0:0:
36,192,347579,128,0,347922:0:0:0:0:
182,192,347750,128,0,348093:0:0:0:0:
109,192,347922,128,0,348265:0:0:0:0:
329,192,347922,128,0,348607:0:0:0:0:
36,192,348093,128,0,348436:0:0:0:0:
182,192,348265,128,0,348436:0:0:0:0:
109,192,348436,128,0,348607:0:0:0:0:
36,192,348607,128,0,349979:0:0:0:0:
182,192,348607,128,0,349293:0:0:0:0:
402,192,348607,128,0,348779:0:0:0:0:
329,192,348779,128,0,349293:0:0:0:0:
402,192,348950,128,0,349122:0:0:0:0:
475,192,349122,128,0,349465:0:0:0:0:
402,192,349293,128,0,349636:0:0:0:0:
329,192,349465,128,0,349979:0:0:0:0:
475,192,349636,128,0,349807:0:0:0:0:
402,192,349807,128,0,349979:0:0:0:0:
256,192,349979,128,0,351350:0:0:0:0:
475,192,349979,128,0,350493:0:0:0:0:
329,192,350150,128,0,350665:0:0:0:0:
182,192,350322,128,0,350836:0:0:0:0:
36,192,350493,128,0,351007:0:0:0:0:
475,192,350665,128,0,351350:0:0:0:0:
402,192,350836,128,0,351350:0:0:0:0:
109,192,351007,128,0,351350:0:0:0:0:
36,192,351179,128,0,351350:0:0:0:0:
182,192,351350,1,0,0:0:0:0:
329,192,351350,1,0,0:0:0:0:
