osu file format v14

[General]
AudioFilename: audio.mp3
AudioLeadIn: 0
PreviewTime: 15259
Countdown: 0
SampleSet: Soft
StackLeniency: 0.7
Mode: 2
LetterboxInBreaks: 0
WidescreenStoryboard: 1

[Editor]
DistanceSpacing: 1
BeatDivisor: 4
GridSize: 8
TimelineZoom: 1.7

[Metadata]
Title:Wake Up
TitleUnicode:Wake Up
Artist:you
ArtistUnicode:you
Creator:thx for carry
Version:rain
Source:
Tags:j-neration j-core Diamond Smile featured artist Electronic Instrumental Stardust Prism tfc mappers' guild mg mpg fa jcore jneration futurecore good morning
BeatmapID:4426284
BeatmapSetID:2108845

[Difficulty]
HPDrainRate:5
CircleSize:4
OverallDifficulty:9
ApproachRate:9
SliderMultiplier:1.8
SliderTickRate:2

[Events]
//Background and Video events
0,0,"BG.jpg",0,0
//Break Periods
//Storyboard Layer 0 (Background)
//Storyboard Layer 1 (Fail)
//Storyboard Layer 2 (Pass)
//Storyboard Layer 3 (Foreground)
//Storyboard Layer 4 (Overlay)
//Storyboard Sound Samples

[TimingPoints]
206,342.857142857143,4,2,1,100,1,0
12548,-100,4,2,1,60,0,0
15291,-100,4,2,1,100,0,1
24720,-100,4,2,1,100,0,0
25577,-100,4,2,2,100,0,0
25663,-100,4,2,1,100,0,0
26263,-100,4,2,1,100,0,1
33291,-100,4,2,2,100,0,1
33377,-100,4,2,1,100,0,1
33634,-100,4,2,2,100,0,1
33720,-100,4,2,1,100,0,1
33806,-100,4,2,2,100,0,1
33892,-100,4,2,1,100,0,1
33977,-100,4,2,2,100,0,1
34063,-100,4,2,1,100,0,1
35691,-100,4,2,1,80,0,0
35692,-100,4,2,1,100,0,0
36891,-100,4,2,2,100,0,0
36977,-100,4,2,1,100,0,0

[Colours]
Combo1 : 151,156,161
Combo2 : 66,76,67
Combo3 : 226,186,162
Combo4 : 163,121,108
Combo5 : 151,190,164

[HitObjects]
192,192,206,6,0,L|88:192,2,90,2|2|2,0:0|0:0|0:0,0:0:0:0:
288,192,720,2,0,L|288:296,1,90,2|0,0:0|0:0,0:0:0:0:
144,312,1063,6,0,L|272:312,1,90,2|2,0:0|0:0,0:0:0:0:
88,240,1406,2,0,L|288:240,2,180,2|2|2,0:0|0:0|0:0,0:0:0:0:
264,192,2434,2,0,L|136:192,1,90,2|2,0:0|0:0,0:0:0:0:
320,256,2777,6,0,L|328:72,1,180,2|2,0:0|0:0,0:0:0:0:
236,72,3291,1,2,0:0:0:0:
92,256,3463,6,0,L|84:76,1,180,2|2,0:0|0:0,0:0:0:0:
176,72,3977,1,2,0:0:0:0:
320,72,4148,6,0,L|136:72,1,180,2|2,0:0|0:0,0:0:0:0:
400,72,4834,1,2,0:0:0:0:
176,192,5691,6,0,L|72:192,2,90,2|2|2,0:0|0:0|0:0,0:0:0:0:
272,192,6205,2,0,L|272:296,1,90,2|0,0:0|0:0,0:0:0:0:
416,280,6548,6,0,L|288:280,1,90,2|2,0:0|0:0,0:0:0:0:
180,280,6891,2,0,L|380:280,2,180,2|2|2,0:0|0:0|0:0,0:0:0:0:
360,280,7919,2,0,L|232:280,1,90,2|2,0:0|0:0,0:0:0:0:
104,136,8263,6,0,P|57:155|127:238,1,180,2|2,0:0|0:0,0:0:0:0:
192,224,8777,1,2,0:0:0:0:
336,216,8948,6,0,P|382:196|312:113,1,180,2|2,0:0|0:0,0:0:0:0:
248,128,9462,1,2,0:0:0:0:
104,136,9634,2,0,B|32:136|32:136|32:352|32:352|32:40|32:40|32:216,1,765,2|0,0:0|0:0,0:0:0:0:
184,136,11177,5,14,0:0:0:0:
360,136,11863,2,0,L|176:136,1,180,2|2,0:0|0:0,0:0:0:0:
156,136,12248,1,0,0:0:0:0:
132,136,12291,1,0,0:0:0:0:
124,136,12334,1,0,0:0:0:0:
132,136,12377,1,0,0:0:0:0:
156,136,12420,1,0,0:0:0:0:
180,136,12463,1,0,0:0:0:0:
368,56,12548,6,0,P|427:124|360:167,1,180,14|2,0:0|0:0,0:0:0:0:
192,144,13234,2,0,L|336:144,2,135,2|2|2,0:0|0:0|0:0,0:0:0:0:
336,272,13920,6,0,L|344:152,1,90,2|2,0:0|0:0,0:0:0:0:
248,184,14263,2,0,L|240:64,1,90,2|2,0:0|0:0,0:0:0:0:
472,72,14606,6,0,L|344:72,1,90,14|0,0:0|0:0,0:0:0:0:
240,72,14948,1,0,0:0:0:0:
300,72,15062,1,0,0:0:0:0:
360,72,15176,1,0,0:0:0:0:
168,152,15291,6,0,L|72:152,1,90,10|0,0:0|0:0,0:0:0:0:
224,152,15634,2,0,L|320:152,1,90,10|0,0:0|0:0,0:0:0:0:
80,240,15977,6,0,L|72:304,1,45,10|0,0:0|0:0,0:0:0:0:
192,288,16234,2,0,L|200:352,1,45,2|8,0:0|0:0,0:0:0:0:
80,352,16491,1,2,0:0:0:0:
312,192,16663,6,0,L|200:192,1,90,8|2,0:0|0:0,0:0:0:0:
76,192,17006,2,0,L|188:192,1,90,8|2,0:0|0:0,0:0:0:0:
400,192,17348,5,10,0:0:0:0:
256,192,17520,1,2,0:0:0:0:
400,192,17691,1,10,0:0:0:0:
168,192,17863,2,0,L|360:192,1,180,2|2,0:0|0:0,0:0:0:0:
204,192,18377,5,10,0:0:0:0:
60,192,18548,1,2,0:0:0:0:
296,192,18720,2,0,L|408:192,1,90,10|2,0:0|0:0,0:0:0:0:
432,192,18977,1,2,0:0:0:0:
386,192,19063,5,10,0:0:0:0:
152,192,19234,2,0,L|152:72,1,90,2|8,0:0|0:0,0:0:0:0:
296,96,19577,1,2,0:0:0:0:
152,102,19748,1,10,0:0:0:0:
392,96,19920,6,0,L|216:96,1,135,2|0,0:0|0:0,0:0:0:0:
408,96,20263,2,0,P|455:115|385:198,1,180,2|2,0:0|0:0,0:0:0:0:
344,200,20691,1,2,0:0:0:0:
152,200,20777,6,0,L|56:200,1,90,10|0,0:0|0:0,0:0:0:0:
208,200,21120,2,0,L|304:200,1,90,10|0,0:0|0:0,0:0:0:0:
64,144,21463,6,0,L|56:80,1,45,10|0,0:0|0:0,0:0:0:0:
176,96,21720,2,0,L|184:32,1,45,2|8,0:0|0:0,0:0:0:0:
300,32,21977,1,2,0:0:0:0:
72,32,22148,2,0,L|184:32,1,90,8|2,0:0|0:0,0:0:0:0:
308,32,22492,2,0,L|196:32,1,90,8|2,0:0|0:0,0:0:0:0:
448,192,22834,5,10,0:0:0:0:
304,192,23006,1,2,0:0:0:0:
448,192,23177,1,10,0:0:0:0:
216,192,23349,2,0,L|408:192,1,180,2|2,0:0|0:0,0:0:0:0:
160,192,23863,5,10,0:0:0:0:
396,192,24034,1,2,0:0:0:0:
160,192,24206,2,0,L|48:192,1,90,10|2,0:0|0:0,0:0:0:0:
114,192,24462,1,2,0:0:0:0:
160,192,24548,5,10,0:0:0:0:
396,192,24720,2,0,L|204:192,1,180,10|10,0:0|0:0,0:0:0:0:
360,96,25234,2,0,L|184:96,1,135,10|0,0:0|0:0,0:0:0:0:
432,96,25577,5,14,0:0:0:0:
168,96,26091,1,2,0:0:0:0:
232,96,26177,1,2,0:0:0:0:
448,192,26263,6,0,L|358:192,1,90,10|2,0:0|0:0,0:0:0:0:
212,192,26606,2,0,L|302:192,1,90,10|2,0:0|0:0,0:0:0:0:
72,200,26948,6,0,L|64:264,1,45,8|0,0:0|0:0,0:0:0:0:
184,272,27206,2,0,L|232:280,1,45,2|10,0:0|0:0,0:0:0:0:
344,264,27463,6,0,L|216:264,1,90,2|8,0:0|0:0,0:0:0:0:
108,264,27806,2,0,L|236:264,1,90,2|8,0:0|0:0,0:0:0:0:
432,192,28148,5,2,0:0:0:0:
288,192,28320,1,8,0:0:0:0:
432,192,28491,1,2,0:0:0:0:
200,192,28663,1,10,0:0:0:0:
432,104,28834,6,0,L|432:304,1,180,10|2,0:0|0:0,0:0:0:0:
200,272,29348,2,0,L|290:272,1,90,10|2,0:0|0:0,0:0:0:0:
144,192,29691,6,0,L|234:192,1,90,8|2,0:0|0:0,0:0:0:0:
280,192,29948,1,2,0:0:0:0:
328,192,30034,1,10,0:0:0:0:
96,192,30206,6,0,L|96:72,1,90,2|8,0:0|0:0,0:0:0:0:
240,104,30549,1,2,0:0:0:0:
96,104,30720,1,10,0:0:0:0:
328,184,30891,6,0,L|168:184,1,135,10|0,0:0|0:0,0:0:0:0:
360,184,31234,2,0,P|407:203|337:286,1,180,10|2,0:0|0:0,0:0:0:0:
296,288,31662,1,2,0:0:0:0:
104,288,31748,6,0,L|272:288,1,135,10|8,0:0|0:0,0:0:0:0:
176,216,32091,2,0,L|56:216,1,90,10|0,0:0|0:0,0:0:0:0:
232,216,32434,5,10,0:0:0:0:
88,216,32606,1,2,0:0:0:0:
316,160,32777,2,0,L|308:104,1,45,10|0,0:0|0:0,0:0:0:0:
236,80,32948,2,0,L|244:136,1,45,2|0,0:0|0:0,0:0:0:0:
436,192,33120,6,0,L|308:192,1,90,10|2,0:0|0:0,0:0:0:0:
300,192,33377,1,8,0:0:0:0:
364,120,33463,2,0,L|252:120,1,90,8|2,0:0|0:0,0:0:0:0:
40,120,33806,5,8,0:0:0:0:
160,120,33977,1,10,0:0:0:0:
40,120,34148,1,10,0:0:0:0:
296,120,34320,2,0,L|296:240,1,90,10|0,0:0|0:0,0:0:0:0:
64,216,34663,1,10,0:0:0:0:
184,216,34834,5,10,0:0:0:0:
304,208,35006,1,10,0:0:0:0:
72,104,35177,2,0,L|200:104,1,90,10|10,0:0|0:0,0:0:0:0:
96,104,35434,1,2,0:0:0:0:
32,104,35520,1,10,0:0:0:0:
272,104,35691,6,0,L|120:104,1,135,10|0,0:0|0:0,0:0:0:0:
304,104,36034,2,0,P|344:136|368:280,1,180,2|2,0:0|0:0,0:0:0:0:
144,272,36548,5,10,0:0:0:0:
264,272,36720,1,2,0:0:0:0:
32,272,36891,2,0,P|48:168|240:40,1,315,2|0,0:0|0:0,0:0:0:0:
412,40,37577,5,14,0:0:0:0:
256,192,37748,8,0,42720,0:0:0:0:
