osu file format v14

[General]
AudioFilename: audio.mp3
AudioLeadIn: 0
PreviewTime: 15259
Countdown: 0
SampleSet: Soft
StackLeniency: 0.7
Mode: 2
LetterboxInBreaks: 0
WidescreenStoryboard: 1

[Editor]
DistanceSpacing: 1
BeatDivisor: 4
GridSize: 8
TimelineZoom: 1.7

[Metadata]
Title:Wake Up
TitleUnicode:Wake Up
Artist:you
ArtistUnicode:you
Creator:thx for carry
Version:Stardust Prism's salad
Source:
Tags:j-neration j-core Diamond Smile featured artist Electronic Instrumental Stardust Prism tfc mappers' guild mg mpg fa jcore jneration futurecore good morning
BeatmapID:4426963
BeatmapSetID:2108845

[Difficulty]
HPDrainRate:3
CircleSize:3.5
OverallDifficulty:7
ApproachRate:7
SliderMultiplier:1.34
SliderTickRate:1

[Events]
//Background and Video events
0,0,"BG.jpg",0,0
//Break Periods
//Storyboard Layer 0 (Background)
//Storyboard Layer 1 (Fail)
//Storyboard Layer 2 (Pass)
//Storyboard Layer 3 (Foreground)
//Storyboard Layer 4 (Overlay)
//Storyboard Sound Samples

[TimingPoints]
206,342.857142857143,4,2,1,100,1,0
12548,-100,4,2,1,60,0,0
15291,-100,4,2,1,100,0,1
24720,-100,4,2,1,100,0,0
25577,-100,4,2,2,100,0,0
25663,-100,4,2,1,100,0,0
26263,-100,4,2,1,100,0,1
33291,-100,4,2,2,100,0,1
33377,-100,4,2,1,100,0,1
33634,-100,4,2,2,100,0,1
33720,-100,4,2,1,100,0,1
33806,-100,4,2,2,100,0,1
33892,-100,4,2,1,100,0,1
33977,-100,4,2,2,100,0,1
34063,-100,4,2,1,100,0,1
35691,-100,4,2,1,80,0,0
35692,-100,4,2,1,100,0,0
36891,-100,4,2,2,100,0,0
36977,-100,4,2,1,100,0,0

[Colours]
Combo1 : 151,156,161
Combo2 : 66,76,67
Combo3 : 226,186,162
Combo4 : 163,121,108
Combo5 : 151,190,164

[HitObjects]
299,306,206,5,2,0:0:0:0:
338,258,377,1,2,0:0:0:0:
299,211,548,1,2,0:0:0:0:
221,212,720,1,2,0:0:0:0:
87,159,1063,1,2,0:0:0:0:
20,166,1234,1,2,0:0:0:0:
87,159,1406,1,2,0:0:0:0:
235,300,1748,5,2,0:0:0:0:
101,285,2091,1,2,0:0:0:0:
101,285,2434,1,2,0:0:0:0:
167,281,2605,1,2,0:0:0:0:
246,280,2776,1,2,0:0:0:0:
345,180,3120,5,2,0:0:0:0:
278,175,3291,1,2,0:0:0:0:
198,175,3462,1,2,0:0:0:0:
74,301,3806,1,2,0:0:0:0:
65,230,3977,1,2,0:0:0:0:
144,209,4148,5,2,0:0:0:0:
290,184,4491,1,2,0:0:0:0:
154,348,4834,2,0,P|105:325|170:226,1,201,2|0,0:0|0:0,0:0:0:0:
310,159,5691,5,2,0:0:0:0:
243,153,5862,1,2,0:0:0:0:
176,147,6033,1,2,0:0:0:0:
108,140,6206,1,2,0:0:0:0:
249,248,6548,1,2,0:0:0:0:
313,230,6719,1,2,0:0:0:0:
252,243,6891,1,2,0:0:0:0:
120,226,7234,5,2,0:0:0:0:
279,164,7577,1,2,0:0:0:0:
300,134,7920,1,2,0:0:0:0:
233,130,8091,1,2,0:0:0:0:
151,130,8262,1,2,0:0:0:0:
43,264,8606,5,2,0:0:0:0:
109,263,8777,1,2,0:0:0:0:
195,263,8948,1,2,0:0:0:0:
330,214,9291,1,2,0:0:0:0:
337,163,9463,1,2,0:0:0:0:
255,227,9634,6,0,P|246:161|371:102,1,201,2|0,0:0|0:0,0:0:0:0:
481,122,10491,1,0,0:0:0:0:
346,184,10834,1,0,0:0:0:0:
91,286,11177,5,14,0:0:0:0:
91,293,12548,5,14,0:0:0:0:
91,293,12891,1,2,0:0:0:0:
223,230,13234,1,2,0:0:0:0:
322,213,13491,1,2,0:0:0:0:
223,230,13748,1,2,0:0:0:0:
152,234,13920,6,0,P|114:196|201:101,1,201,2|2,0:0|0:0,0:0:0:0:
351,105,14606,1,14,0:0:0:0:
440,240,14948,1,0,0:0:0:0:
440,240,15120,1,0,0:0:0:0:
280,239,15291,6,0,P|246:189|311:157,1,134,10|10,0:0|0:0,0:0:0:0:
444,117,15977,1,10,0:0:0:0:
311,112,16320,1,8,0:0:0:0:
72,282,16663,6,0,P|48:232|106:183,1,134,8|8,0:0|0:0,0:0:0:0:
165,178,17177,1,2,0:0:0:0:
238,134,17348,2,0,L|92:132,1,134,10|10,0:0|0:0,0:0:0:0:
360,199,18034,6,0,L|448:188,2,67,8|2|10,0:0|0:0|0:0,0:0:0:0:
228,142,18720,1,10,0:0:0:0:
294,141,18891,1,2,0:0:0:0:
361,140,19062,1,10,0:0:0:0:
131,273,19406,6,0,P|129:206|207:170,1,134,8|10,0:0|0:0,0:0:0:0:
255,139,19920,2,0,L|111:133,1,134,2|2,0:0|0:0,0:0:0:0:
49,138,20434,1,8,0:0:0:0:
295,246,20777,6,0,L|343:97,1,134,10|10,0:0|0:0,0:0:0:0:
203,202,21463,1,10,0:0:0:0:
120,124,21806,1,8,0:0:0:0:
373,183,22148,6,0,P|382:105|335:80,1,134,8|8,0:0|0:0,0:0:0:0:
271,76,22663,1,2,0:0:0:0:
202,46,22834,1,10,0:0:0:0:
268,42,23007,1,2,0:0:0:0:
335,38,23178,1,10,0:0:0:0:
95,241,23520,5,8,0:0:0:0:
232,179,23863,2,0,L|314:185,2,67,10|2|10,0:0|0:0|0:0,0:0:0:0:
102,283,24548,1,10,0:0:0:0:
264,246,24720,6,0,P|291:187|229:133,1,134,10|10,0:0|0:0,0:0:0:0:
177,128,25234,1,10,0:0:0:0:
426,93,25577,1,14,0:0:0:0:
435,89,25920,1,0,0:0:0:0:
180,203,26263,6,0,L|331:195,1,134,10|10,0:0|0:0,0:0:0:0:
456,127,26948,2,0,L|306:122,1,134,8|10,0:0|0:0,0:0:0:0:
80,208,27634,5,8,0:0:0:0:
17,220,27806,2,0,P|30:173|110:152,1,134,2|2,0:0|0:0,0:0:0:0:
240,174,28491,1,2,0:0:0:0:
243,107,28662,1,10,0:0:0:0:
83,245,28834,6,0,P|74:180|152:146,1,134,10|2,0:0|0:0,0:0:0:0:
198,143,29348,1,10,0:0:0:0:
355,179,29520,2,0,P|418:170|439:88,1,134,2|2,0:0|0:0,0:0:0:0:
376,96,30034,1,10,0:0:0:0:
304,164,30206,6,0,L|160:151,1,134,2|2,0:0|0:0,0:0:0:0:
239,125,30720,1,10,0:0:0:0:
401,119,30891,1,10,0:0:0:0:
277,167,31234,1,10,0:0:0:0:
90,237,31748,6,0,L|236:233,1,134,10|10,0:0|0:0,0:0:0:0:
293,207,32263,1,0,0:0:0:0:
221,173,32434,1,10,0:0:0:0:
202,112,32605,1,2,0:0:0:0:
253,75,32776,1,10,0:0:0:0:
496,160,33120,5,10,0:0:0:0:
364,194,33463,1,8,0:0:0:0:
291,194,33634,2,0,P|283:141|362:117,1,134,2|10,0:0|0:0,0:0:0:0:
418,107,34148,1,10,0:0:0:0:
262,264,34320,6,0,L|256:119,1,134,10|10,0:0|0:0,0:0:0:0:
323,112,34834,1,10,0:0:0:0:
172,201,35006,1,10,0:0:0:0:
180,138,35177,1,10,0:0:0:0:
242,124,35348,1,10,0:0:0:0:
311,126,35520,1,10,0:0:0:0:
465,134,35691,1,10,0:0:0:0:
465,134,36034,5,2,0:0:0:0:
339,192,36377,1,2,0:0:0:0:
177,213,36548,1,10,0:0:0:0:
110,206,36719,1,2,0:0:0:0:
73,159,36890,1,2,0:0:0:0:
285,131,37577,5,14,0:0:0:0:
256,192,37920,12,0,42720,0:0:0:0:
