osu file format v14

[General]
AudioFilename: audio.mp3
AudioLeadIn: 0
PreviewTime: 15228
Countdown: 0
SampleSet: Normal
StackLeniency: 0.7
Mode: 1
LetterboxInBreaks: 0
WidescreenStoryboard: 0

[Editor]
DistanceSpacing: 1.2
BeatDivisor: 2
GridSize: 4
TimelineZoom: 1.8

[Metadata]
Title:Wake Up
TitleUnicode:Wake Up
Artist:you
ArtistUnicode:you
Creator:komasy
Version:Kantan
Source:
Tags:Diamond Smile J-NERATION
BeatmapID:1254442
BeatmapSetID:592892

[Difficulty]
HPDrainRate:8.5
CircleSize:2
OverallDifficulty:3
ApproachRate:0
SliderMultiplier:1.4
SliderTickRate:1

[Events]
//Background and Video events
0,0,"BG1920x1200.png",0,0
//Break Periods
//Storyboard Layer 0 (Background)
//Storyboard Layer 1 (Fail)
//Storyboard Layer 2 (Pass)
//Storyboard Layer 3 (Foreground)
//Storyboard Sound Samples

[TimingPoints]
228,342.857142857143,4,1,0,50,1,0
9656,-100,4,1,0,25,0,0
11113,-100,4,1,0,70,0,0
11285,-100,4,1,0,60,0,0
12485,-100,4,1,0,70,0,0
12656,-100,4,1,0,60,0,0
14542,-100,4,1,0,70,0,0
15228,-100,4,1,0,90,0,0
15313,-100,4,1,0,90,0,1
35713,-100,4,1,0,90,0,0
36828,-100,4,1,0,80,0,0
37599,-100,4,1,0,70,0,0
37770,-100,4,1,0,50,0,0
37942,-100,4,1,0,30,0,0
38628,-100,4,1,0,20,0,0
39999,-100,4,1,0,10,0,0

[HitObjects]
428,168,228,5,0,0:0:0:0:
368,240,742,1,8,0:0:0:0:
328,192,1428,1,8,0:0:0:0:
392,180,2113,1,0,0:0:0:0:
408,232,2799,1,8,0:0:0:0:
408,220,3485,1,8,0:0:0:0:
84,248,4170,1,0,0:0:0:0:
324,200,5713,1,0,0:0:0:0:
356,200,6228,1,8,0:0:0:0:
52,48,6913,1,0,0:0:0:0:
384,176,7599,1,8,0:0:0:0:
304,92,8285,1,8,0:0:0:0:
376,148,8970,1,8,0:0:0:0:
256,192,9656,12,0,10856,0:0:0:0:
348,172,11199,5,4,0:0:0:0:
436,208,12570,1,4,0:0:0:0:
340,168,14628,1,4,0:0:0:0:
320,200,15313,1,4,0:0:0:0:
340,160,15999,1,8,0:0:0:0:
388,88,16685,1,0,0:0:0:0:
424,144,17028,1,0,0:0:0:0:
192,88,17370,1,8,0:0:0:0:
272,100,18056,1,0,0:0:0:0:
472,56,18742,1,8,0:0:0:0:
320,84,19085,1,8,0:0:0:0:
468,100,19428,1,0,0:0:0:0:
320,200,20799,1,0,0:0:0:0:
340,160,21485,1,8,0:0:0:0:
388,88,22171,1,0,0:0:0:0:
192,88,22514,1,0,0:0:0:0:
424,144,22856,1,8,0:0:0:0:
440,72,23542,1,0,0:0:0:0:
480,64,24228,1,8,0:0:0:0:
352,128,24742,1,4,0:0:0:0:
320,200,26285,1,4,0:0:0:0:
340,160,26971,1,8,0:0:0:0:
424,144,27313,1,8,0:0:0:0:
388,88,27656,1,0,0:0:0:0:
320,104,28342,1,8,0:0:0:0:
116,256,28856,1,0,0:0:0:0:
452,8,29713,1,8,0:0:0:0:
448,96,30399,1,0,0:0:0:0:
320,200,31770,1,4,0:0:0:0:
296,136,32456,1,8,0:0:0:0:
296,136,32799,1,8,0:0:0:0:
308,136,33142,1,0,0:0:0:0:
348,136,33828,1,0,0:0:0:0:
268,136,34342,1,8,0:0:0:0:
400,204,35199,1,8,0:0:0:0:
432,172,35713,1,4,0:0:0:0:
336,160,36570,1,0,0:0:0:0:
312,156,36913,1,12,0:0:0:0:
256,192,37599,12,0,42742,0:0:0:0:
