osu file format v14

[General]
AudioFilename: audio.mp3
AudioLeadIn: 0
PreviewTime: 15228
Countdown: 0
SampleSet: Normal
StackLeniency: 0.7
Mode: 1
LetterboxInBreaks: 0
WidescreenStoryboard: 0

[Editor]
DistanceSpacing: 1.2
BeatDivisor: 4
GridSize: 4
TimelineZoom: 2.3

[Metadata]
Title:Wake Up
TitleUnicode:Wake Up
Artist:you
ArtistUnicode:you
Creator:komasy
Version:Oni
Source:
Tags:Diamond Smile J-NERATION
BeatmapID:1254444
BeatmapSetID:592892

[Difficulty]
HPDrainRate:7
CircleSize:2
OverallDifficulty:5.5
ApproachRate:0
SliderMultiplier:1.4
SliderTickRate:1

[Events]
//Background and Video events
0,0,"BG1920x1200.png",0,0
//Break Periods
//Storyboard Layer 0 (Background)
//Storyboard Layer 1 (Fail)
//Storyboard Layer 2 (Pass)
//Storyboard Layer 3 (Foreground)
//Storyboard Sound Samples

[TimingPoints]
228,342.857142857143,4,1,0,50,1,0
9656,-100,4,1,0,25,0,0
11113,-100,4,1,0,70,0,0
11285,-100,4,1,0,60,0,0
12485,-100,4,1,0,70,0,0
12656,-100,4,1,0,60,0,0
14542,-100,4,1,0,70,0,0
14885,-100,4,1,0,80,0,0
15228,-100,4,1,0,90,0,0
15313,-100,4,1,0,90,0,1
32713,-100,4,1,0,80,0,1
33099,-100,4,1,0,90,0,1
35713,-100,4,1,0,90,0,0
35970,-100,4,1,0,70,0,0
36828,-100,4,1,0,80,0,0
37599,-100,4,1,0,70,0,0
37770,-100,4,1,0,50,0,0
37942,-100,4,1,0,30,0,0
38628,-100,4,1,0,20,0,0
39999,-100,4,1,0,10,0,0

[HitObjects]
428,168,228,5,0,0:0:0:0:
128,164,399,1,8,0:0:0:0:
352,124,570,1,0,0:0:0:0:
308,116,742,1,8,0:0:0:0:
468,208,1085,1,0,0:0:0:0:
412,240,1256,1,0,0:0:0:0:
368,240,1428,1,8,0:0:0:0:
392,180,1770,1,8,0:0:0:0:
468,208,2113,1,0,0:0:0:0:
392,180,2456,1,8,0:0:0:0:
468,232,2628,1,0,0:0:0:0:
392,180,2799,1,8,0:0:0:0:
408,232,3142,1,8,0:0:0:0:
408,232,3313,1,0,0:0:0:0:
392,180,3485,1,8,0:0:0:0:
408,220,3828,1,0,0:0:0:0:
392,180,3999,1,8,0:0:0:0:
408,220,4170,1,0,0:0:0:0:
392,180,4513,1,8,0:0:0:0:
392,180,4856,1,8,0:0:0:0:
324,200,5713,1,0,0:0:0:0:
412,180,5885,1,8,0:0:0:0:
396,136,6056,1,0,0:0:0:0:
412,180,6228,1,8,0:0:0:0:
356,200,6570,1,0,0:0:0:0:
412,180,6742,1,0,0:0:0:0:
412,180,6913,1,8,0:0:0:0:
384,176,7256,1,0,0:0:0:0:
412,180,7599,1,8,0:0:0:0:
400,176,7942,1,0,0:0:0:0:
400,176,8113,1,0,0:0:0:0:
412,180,8285,1,8,0:0:0:0:
304,92,8628,1,0,0:0:0:0:
304,92,8799,1,0,0:0:0:0:
412,180,8970,1,8,0:0:0:0:
376,148,9313,1,0,0:0:0:0:
412,180,9485,1,8,0:0:0:0:
256,192,9656,12,0,10856,0:0:0:0:
348,172,11199,5,4,0:0:0:0:
360,80,12228,1,8,0:0:0:0:
360,80,12313,1,8,0:0:0:0:
360,80,12399,1,8,0:0:0:0:
436,208,12570,1,4,0:0:0:0:
452,216,12913,1,8,0:0:0:0:
452,216,13256,1,8,0:0:0:0:
352,136,13428,1,0,0:0:0:0:
360,168,13513,1,8,0:0:0:0:
352,136,13685,1,0,0:0:0:0:
360,168,13770,1,8,0:0:0:0:
352,136,13942,1,0,0:0:0:0:
360,168,14113,1,8,0:0:0:0:
360,168,14285,1,8,0:0:0:0:
340,168,14628,1,4,0:0:0:0:
340,192,14970,1,12,0:0:0:0:
320,200,15313,1,4,0:0:0:0:
308,176,15656,1,8,0:0:0:0:
340,160,15999,1,0,0:0:0:0:
340,160,16256,1,8,0:0:0:0:
340,160,16342,1,0,0:0:0:0:
340,108,16513,1,8,0:0:0:0:
444,120,16685,1,0,0:0:0:0:
444,120,16770,1,0,0:0:0:0:
376,96,16856,1,8,0:0:0:0:
388,88,17028,1,0,0:0:0:0:
420,160,17199,1,8,0:0:0:0:
424,144,17370,1,0,0:0:0:0:
432,132,17456,1,8,0:0:0:0:
416,132,17542,1,8,0:0:0:0:
372,132,17628,1,0,0:0:0:0:
340,132,17713,1,0,0:0:0:0:
300,88,17885,1,8,0:0:0:0:
276,160,18056,1,0,0:0:0:0:
440,72,18228,1,8,0:0:0:0:
412,96,18313,1,8,0:0:0:0:
480,72,18399,1,0,0:0:0:0:
412,116,18570,1,0,0:0:0:0:
480,64,18742,1,8,0:0:0:0:
448,88,18828,1,0,0:0:0:0:
472,56,18913,1,8,0:0:0:0:
428,64,18999,1,0,0:0:0:0:
476,88,19170,1,0,0:0:0:0:
432,92,19256,1,8,0:0:0:0:
312,140,19428,1,0,0:0:0:0:
448,96,19599,1,8,0:0:0:0:
404,96,19685,1,0,0:0:0:0:
360,184,19770,1,0,0:0:0:0:
448,88,19942,1,8,0:0:0:0:
448,88,20113,1,0,0:0:0:0:
468,100,20199,1,0,0:0:0:0:
468,100,20285,1,8,0:0:0:0:
380,112,20456,1,0,0:0:0:0:
384,112,20628,1,8,0:0:0:0:
352,200,20713,1,8,0:0:0:0:
460,80,20799,1,0,0:0:0:0:
344,72,21142,1,8,0:0:0:0:
372,96,21485,1,0,0:0:0:0:
372,96,21742,1,8,0:0:0:0:
372,96,21828,1,0,0:0:0:0:
448,48,21999,1,8,0:0:0:0:
452,120,22170,1,0,0:0:0:0:
452,120,22256,1,0,0:0:0:0:
448,48,22342,1,8,0:0:0:0:
448,48,22513,1,0,0:0:0:0:
448,48,22685,1,8,0:0:0:0:
368,80,22856,1,0,0:0:0:0:
380,72,22942,1,8,0:0:0:0:
380,72,23028,1,8,0:0:0:0:
360,88,23113,1,0,0:0:0:0:
336,108,23199,1,0,0:0:0:0:
408,44,23370,1,8,0:0:0:0:
408,44,23542,1,0,0:0:0:0:
424,16,23713,1,8,0:0:0:0:
372,56,23799,1,0,0:0:0:0:
424,16,23885,1,8,0:0:0:0:
428,20,24056,1,0,0:0:0:0:
448,24,24228,1,8,0:0:0:0:
424,48,24313,1,0,0:0:0:0:
448,24,24399,1,8,0:0:0:0:
448,24,24485,1,0,0:0:0:0:
312,180,24742,1,4,0:0:0:0:
336,200,25085,1,4,0:0:0:0:
336,200,25256,1,4,0:0:0:0:
316,148,25599,1,12,0:0:0:0:
352,192,25942,1,8,0:0:0:0:
396,160,26113,1,0,0:0:0:0:
392,136,26199,1,0,0:0:0:0:
320,200,26285,1,0,0:0:0:0:
384,120,26456,1,0,0:0:0:0:
308,176,26628,1,8,0:0:0:0:
340,160,26971,1,0,0:0:0:0:
340,160,27228,1,8,0:0:0:0:
340,160,27314,1,0,0:0:0:0:
340,108,27485,1,8,0:0:0:0:
352,104,27657,1,0,0:0:0:0:
308,124,27742,1,0,0:0:0:0:
376,96,27828,1,8,0:0:0:0:
388,88,28000,1,0,0:0:0:0:
420,160,28171,1,8,0:0:0:0:
340,160,28256,1,8,0:0:0:0:
424,144,28342,1,0,0:0:0:0:
388,164,28428,1,8,0:0:0:0:
428,136,28513,1,0,0:0:0:0:
432,132,28599,1,0,0:0:0:0:
300,88,28685,1,8,0:0:0:0:
300,88,28857,1,8,0:0:0:0:
360,104,29199,1,0,0:0:0:0:
364,184,29370,1,8,0:0:0:0:
444,116,29542,1,0,0:0:0:0:
432,144,29628,1,0,0:0:0:0:
380,168,29713,1,8,0:0:0:0:
300,88,29885,1,8,0:0:0:0:
472,56,29971,1,0,0:0:0:0:
472,88,30142,1,0,0:0:0:0:
476,88,30228,1,8,0:0:0:0:
460,116,30400,1,0,0:0:0:0:
300,88,30485,1,0,0:0:0:0:
448,96,30571,1,8,0:0:0:0:
416,104,30656,1,8,0:0:0:0:
344,108,30742,1,0,0:0:0:0:
312,108,30828,1,0,0:0:0:0:
448,88,30914,1,8,0:0:0:0:
392,176,31256,1,12,0:0:0:0:
324,176,31599,1,0,0:0:0:0:
324,176,31685,1,0,0:0:0:0:
324,176,31770,1,0,0:0:0:0:
288,140,32028,1,8,0:0:0:0:
296,136,32113,1,0,0:0:0:0:
296,136,32285,1,8,0:0:0:0:
296,136,32456,1,0,0:0:0:0:
308,136,32628,1,8,0:0:0:0:
308,136,32799,1,8,0:0:0:0:
308,136,32885,1,8,0:0:0:0:
308,136,32970,1,8,0:0:0:0:
308,136,33056,1,8,0:0:0:0:
308,136,33142,1,0,0:0:0:0:
316,144,33399,1,8,0:0:0:0:
316,144,33485,1,0,0:0:0:0:
344,140,33656,1,8,0:0:0:0:
344,140,33828,1,0,0:0:0:0:
304,156,33913,1,0,0:0:0:0:
348,136,33999,1,8,0:0:0:0:
352,84,34085,1,8,0:0:0:0:
348,136,34170,1,0,0:0:0:0:
348,136,34342,1,12,0:0:0:0:
336,192,34685,1,8,0:0:0:0:
336,192,34856,1,0,0:0:0:0:
336,192,34942,1,0,0:0:0:0:
348,208,35028,1,8,0:0:0:0:
400,204,35199,1,0,0:0:0:0:
404,200,35370,1,8,0:0:0:0:
404,200,35456,1,0,0:0:0:0:
416,164,35542,1,0,0:0:0:0:
432,172,35713,1,4,0:0:0:0:
440,208,36056,1,8,0:0:0:0:
440,208,36399,1,8,0:0:0:0:
336,160,36570,1,4,0:0:0:0:
312,156,36913,1,12,0:0:0:0:
256,192,37599,12,0,42742,0:0:0:0:
