osu file format v14

[General]
AudioFilename: audio.mp3
AudioLeadIn: 0
PreviewTime: 15228
Countdown: 0
SampleSet: Normal
StackLeniency: 0.7
Mode: 1
LetterboxInBreaks: 0
WidescreenStoryboard: 0

[Editor]
Bookmarks: 1248,3305,6734,8791,13420,13677,13934
DistanceSpacing: 1.2
BeatDivisor: 4
GridSize: 4
TimelineZoom: 2.3

[Metadata]
Title:Wake Up
TitleUnicode:Wake Up
Artist:you
ArtistUnicode:you
Creator:komasy
Version:Muzukashii
Source:
Tags:Diamond Smile J-NERATION
BeatmapID:1254443
BeatmapSetID:592892

[Difficulty]
HPDrainRate:7.5
CircleSize:2
OverallDifficulty:5
ApproachRate:0
SliderMultiplier:1.4
SliderTickRate:1

[Events]
//Background and Video events
0,0,"BG1920x1200.png",0,0
//Break Periods
//Storyboard Layer 0 (Background)
//Storyboard Layer 1 (Fail)
//Storyboard Layer 2 (Pass)
//Storyboard Layer 3 (Foreground)
//Storyboard Sound Samples

[TimingPoints]
228,342.857142857143,4,1,0,50,1,0
9656,-100,4,1,0,25,0,0
11113,-100,4,1,0,70,0,0
11285,-100,4,1,0,60,0,0
12485,-100,4,1,0,70,0,0
12656,-100,4,1,0,60,0,0
14542,-100,4,1,0,70,0,0
14885,-100,4,1,0,80,0,0
15228,-100,4,1,0,90,0,0
15313,-100,4,1,0,90,0,1
32713,-100,4,1,0,80,0,1
33099,-100,4,1,0,90,0,1
35713,-100,4,1,0,90,0,0
35970,-100,4,1,0,70,0,0
36828,-100,4,1,0,80,0,0
37599,-100,4,1,0,70,0,0
37770,-100,4,1,0,50,0,0
37942,-100,4,1,0,30,0,0
38628,-100,4,1,0,20,0,0
39999,-100,4,1,0,10,0,0

[HitObjects]
428,168,228,5,0,0:0:0:0:
352,124,570,1,0,0:0:0:0:
308,116,742,1,8,0:0:0:0:
468,208,1085,1,0,0:0:0:0:
368,240,1428,1,0,0:0:0:0:
392,180,1770,1,8,0:0:0:0:
468,208,2113,1,0,0:0:0:0:
392,180,2456,1,8,0:0:0:0:
468,232,2628,1,0,0:0:0:0:
392,180,2799,1,8,0:0:0:0:
408,232,3142,1,0,0:0:0:0:
392,180,3485,1,8,0:0:0:0:
408,220,3828,1,0,0:0:0:0:
408,220,3999,1,8,0:0:0:0:
392,180,4170,1,0,0:0:0:0:
392,180,4513,1,8,0:0:0:0:
392,180,4856,1,8,0:0:0:0:
324,200,5713,1,0,0:0:0:0:
396,136,6056,1,0,0:0:0:0:
412,180,6228,1,8,0:0:0:0:
356,200,6570,1,0,0:0:0:0:
412,180,6913,1,0,0:0:0:0:
384,176,7256,1,8,0:0:0:0:
412,180,7599,1,8,0:0:0:0:
400,176,7942,1,0,0:0:0:0:
264,104,8113,1,0,0:0:0:0:
412,180,8285,1,8,0:0:0:0:
304,92,8628,1,0,0:0:0:0:
412,180,8970,1,8,0:0:0:0:
376,148,9313,1,0,0:0:0:0:
412,180,9485,1,8,0:0:0:0:
256,192,9656,12,0,10856,0:0:0:0:
348,172,11199,5,4,0:0:0:0:
360,80,12228,1,8,0:0:0:0:
304,104,12399,1,8,0:0:0:0:
436,208,12570,1,4,0:0:0:0:
452,216,12913,1,8,0:0:0:0:
452,216,13256,1,8,0:0:0:0:
360,168,13513,1,8,0:0:0:0:
360,168,13770,1,8,0:0:0:0:
360,168,14113,1,8,0:0:0:0:
360,168,14285,1,8,0:0:0:0:
340,168,14628,1,4,0:0:0:0:
340,192,14970,1,12,0:0:0:0:
320,200,15313,1,4,0:0:0:0:
308,176,15656,1,8,0:0:0:0:
340,160,15999,1,0,0:0:0:0:
340,108,16256,1,8,0:0:0:0:
340,160,16513,1,0,0:0:0:0:
388,88,16856,1,0,0:0:0:0:
320,104,17199,1,8,0:0:0:0:
424,144,17370,1,0,0:0:0:0:
300,88,17713,1,8,0:0:0:0:
224,84,17885,1,8,0:0:0:0:
272,100,18056,1,0,0:0:0:0:
440,72,18228,1,8,0:0:0:0:
480,72,18399,1,0,0:0:0:0:
480,64,18742,1,8,0:0:0:0:
472,56,18913,1,0,0:0:0:0:
472,56,18999,1,0,0:0:0:0:
432,72,19085,1,0,0:0:0:0:
352,128,19256,1,8,0:0:0:0:
448,96,19599,1,8,0:0:0:0:
360,184,19770,1,0,0:0:0:0:
448,88,19942,1,8,0:0:0:0:
468,100,20285,1,8,0:0:0:0:
384,112,20628,1,0,0:0:0:0:
352,200,20713,1,0,0:0:0:0:
320,200,20799,1,0,0:0:0:0:
308,176,21142,1,8,0:0:0:0:
340,160,21485,1,0,0:0:0:0:
340,108,21742,1,8,0:0:0:0:
340,160,21999,1,0,0:0:0:0:
388,88,22342,1,0,0:0:0:0:
320,104,22685,1,8,0:0:0:0:
424,144,22856,1,0,0:0:0:0:
300,88,23199,1,8,0:0:0:0:
320,104,23370,1,0,0:0:0:0:
272,100,23542,1,0,0:0:0:0:
440,72,23714,1,8,0:0:0:0:
480,72,23885,1,8,0:0:0:0:
480,64,24228,1,8,0:0:0:0:
472,56,24399,1,0,0:0:0:0:
472,56,24485,1,0,0:0:0:0:
444,76,24570,1,0,0:0:0:0:
352,128,24742,1,4,0:0:0:0:
448,96,25085,1,4,0:0:0:0:
360,184,25256,1,4,0:0:0:0:
316,148,25599,1,12,0:0:0:0:
304,120,26113,1,0,0:0:0:0:
304,120,26199,1,0,0:0:0:0:
320,200,26285,1,0,0:0:0:0:
308,176,26628,1,8,0:0:0:0:
340,160,26971,1,0,0:0:0:0:
340,108,27228,1,8,0:0:0:0:
340,160,27485,1,0,0:0:0:0:
424,144,27828,1,8,0:0:0:0:
396,160,28170,1,0,0:0:0:0:
388,88,28342,1,8,0:0:0:0:
432,132,28514,1,0,0:0:0:0:
300,88,28685,1,0,0:0:0:0:
272,100,28856,1,8,0:0:0:0:
440,72,29200,1,0,0:0:0:0:
480,72,29371,1,8,0:0:0:0:
240,136,29542,1,8,0:0:0:0:
480,64,29714,1,0,0:0:0:0:
472,56,29885,1,0,0:0:0:0:
472,56,29971,1,0,0:0:0:0:
432,60,30056,1,0,0:0:0:0:
352,128,30228,1,8,0:0:0:0:
448,96,30571,1,8,0:0:0:0:
360,184,30742,1,0,0:0:0:0:
448,88,30914,1,8,0:0:0:0:
392,176,31256,1,12,0:0:0:0:
324,176,31599,1,0,0:0:0:0:
324,176,31685,1,0,0:0:0:0:
320,200,31771,1,0,0:0:0:0:
296,136,32113,1,8,0:0:0:0:
296,136,32456,1,0,0:0:0:0:
308,136,32628,1,8,0:0:0:0:
308,136,32799,1,8,0:0:0:0:
308,136,32885,1,8,0:0:0:0:
308,136,32970,1,8,0:0:0:0:
308,136,33142,1,0,0:0:0:0:
316,144,33485,1,0,0:0:0:0:
344,140,33656,1,8,0:0:0:0:
344,140,33828,1,0,0:0:0:0:
348,136,33999,1,8,0:0:0:0:
320,88,34170,1,0,0:0:0:0:
348,136,34342,1,12,0:0:0:0:
336,192,34685,1,8,0:0:0:0:
336,192,34856,1,0,0:0:0:0:
348,208,35028,1,8,0:0:0:0:
400,204,35199,1,0,0:0:0:0:
364,104,35370,1,8,0:0:0:0:
404,200,35456,1,8,0:0:0:0:
288,104,35542,1,8,0:0:0:0:
432,172,35713,1,4,0:0:0:0:
440,208,36056,1,8,0:0:0:0:
440,208,36399,1,8,0:0:0:0:
336,160,36570,1,0,0:0:0:0:
312,156,36913,1,12,0:0:0:0:
256,192,37599,12,0,42742,0:0:0:0:
