osu file format v14

[General]
AudioFilename: audio.mp3
AudioLeadIn: 0
PreviewTime: 15228
Countdown: 0
SampleSet: Normal
StackLeniency: 0.7
Mode: 1
LetterboxInBreaks: 0
WidescreenStoryboard: 0

[Editor]
DistanceSpacing: 1.2
BeatDivisor: 2
GridSize: 4
TimelineZoom: 1.3

[Metadata]
Title:Wake Up
TitleUnicode:Wake Up
Artist:you
ArtistUnicode:you
Creator:komasy
Version:Futsuu
Source:
Tags:Diamond Smile J-NERATION
BeatmapID:1254441
BeatmapSetID:592892

[Difficulty]
HPDrainRate:8
CircleSize:2
OverallDifficulty:4
ApproachRate:0
SliderMultiplier:1.4
SliderTickRate:1

[Events]
//Background and Video events
0,0,"BG1920x1200.png",0,0
//Break Periods
//Storyboard Layer 0 (Background)
//Storyboard Layer 1 (Fail)
//Storyboard Layer 2 (Pass)
//Storyboard Layer 3 (Foreground)
//Storyboard Sound Samples

[TimingPoints]
228,342.857142857143,4,1,0,50,1,0
9656,-100,4,1,0,25,0,0
11113,-100,4,1,0,70,0,0
11285,-100,4,1,0,60,0,0
12485,-100,4,1,0,70,0,0
12656,-100,4,1,0,60,0,0
14542,-100,4,1,0,70,0,0
14885,-100,4,1,0,80,0,0
15228,-100,4,1,0,90,0,0
15313,-100,4,1,0,90,0,1
32713,-100,4,1,0,80,0,1
33099,-100,4,1,0,90,0,1
35713,-100,4,1,0,90,0,0
35970,-100,4,1,0,70,0,0
36828,-100,4,1,0,80,0,0
37599,-100,4,1,0,70,0,0
37770,-100,4,1,0,50,0,0
37942,-100,4,1,0,30,0,0
38628,-100,4,1,0,20,0,0
39999,-100,4,1,0,10,0,0

[HitObjects]
428,168,228,5,0,0:0:0:0:
264,88,742,1,8,0:0:0:0:
304,96,1428,1,8,0:0:0:0:
304,96,1770,1,8,0:0:0:0:
304,96,2113,1,0,0:0:0:0:
304,96,2799,1,8,0:0:0:0:
304,96,3485,1,8,0:0:0:0:
320,96,4170,1,0,0:0:0:0:
356,88,4513,5,8,0:0:0:0:
356,88,4856,1,8,0:0:0:0:
428,168,5713,5,0,0:0:0:0:
264,88,6228,1,8,0:0:0:0:
304,96,6913,1,0,0:0:0:0:
304,96,7256,1,0,0:0:0:0:
304,96,7599,1,8,0:0:0:0:
304,96,8285,1,8,0:0:0:0:
260,104,8970,1,8,0:0:0:0:
376,148,9313,1,0,0:0:0:0:
256,192,9656,12,0,10856,0:0:0:0:
348,172,11199,5,4,0:0:0:0:
360,80,12228,1,8,0:0:0:0:
436,208,12570,1,4,0:0:0:0:
301,76,13942,1,8,0:0:0:0:
340,168,14628,1,4,0:0:0:0:
340,192,14970,1,12,0:0:0:0:
320,200,15313,1,4,0:0:0:0:
308,176,15656,1,8,0:0:0:0:
340,160,15999,1,0,0:0:0:0:
340,108,16342,1,8,0:0:0:0:
252,140,16513,1,0,0:0:0:0:
253,79,16856,1,0,0:0:0:0:
253,79,17028,1,8,0:0:0:0:
320,104,17370,1,0,0:0:0:0:
176,80,17713,1,8,0:0:0:0:
272,100,18056,1,0,0:0:0:0:
440,72,18228,1,8,0:0:0:0:
480,72,18399,1,0,0:0:0:0:
480,64,18742,1,8,0:0:0:0:
288,64,19085,1,0,0:0:0:0:
307,119,19256,1,8,0:0:0:0:
294,48,19599,1,8,0:0:0:0:
380,180,19770,1,0,0:0:0:0:
380,180,20113,1,8,0:0:0:0:
320,200,20799,1,0,0:0:0:0:
308,176,21142,1,8,0:0:0:0:
340,160,21485,1,0,0:0:0:0:
340,108,21828,1,8,0:0:0:0:
340,160,21999,1,0,0:0:0:0:
245,74,22342,1,0,0:0:0:0:
424,144,22513,1,8,0:0:0:0:
320,104,22856,1,0,0:0:0:0:
300,88,23199,1,8,0:0:0:0:
272,100,23542,1,0,0:0:0:0:
440,72,23714,1,8,0:0:0:0:
480,72,23885,1,8,0:0:0:0:
480,64,24228,1,8,0:0:0:0:
352,128,24742,1,4,0:0:0:0:
316,148,25599,1,12,0:0:0:0:
320,200,26285,1,4,0:0:0:0:
308,176,26628,1,8,0:0:0:0:
340,160,26971,1,0,0:0:0:0:
340,108,27314,1,8,0:0:0:0:
340,160,27485,1,0,0:0:0:0:
388,88,27828,1,0,0:0:0:0:
88,144,27999,1,8,0:0:0:0:
192,104,28342,1,0,0:0:0:0:
300,88,28685,1,0,0:0:0:0:
272,100,28856,1,0,0:0:0:0:
440,72,29200,1,0,0:0:0:0:
480,72,29371,1,8,0:0:0:0:
480,64,29714,1,0,0:0:0:0:
352,128,30056,1,8,0:0:0:0:
280,88,30228,1,0,0:0:0:0:
448,88,30570,1,8,0:0:0:0:
280,88,30913,1,0,0:0:0:0:
392,176,31256,1,12,0:0:0:0:
320,200,31771,1,0,0:0:0:0:
296,136,32113,1,8,0:0:0:0:
296,136,32456,1,0,0:0:0:0:
308,136,32799,1,8,0:0:0:0:
308,136,32970,1,8,0:0:0:0:
308,136,33142,1,0,0:0:0:0:
308,140,33485,1,8,0:0:0:0:
164,36,33828,1,0,0:0:0:0:
320,88,34170,1,0,0:0:0:0:
348,136,34342,1,12,0:0:0:0:
336,192,34685,1,8,0:0:0:0:
348,208,35028,1,8,0:0:0:0:
400,204,35199,1,0,0:0:0:0:
332,168,35370,1,0,0:0:0:0:
432,172,35713,1,4,0:0:0:0:
336,160,36570,1,0,0:0:0:0:
312,156,36913,1,12,0:0:0:0:
256,192,37599,12,0,42742,0:0:0:0:
