osu file format v14

[General]
AudioFilename: audio.mp3
AudioLeadIn: 0
PreviewTime: 14559
Countdown: 0
SampleSet: Soft
StackLeniency: 0.7
Mode: 0
LetterboxInBreaks: 0
WidescreenStoryboard: 0

[Editor]
Bookmarks: 26259
DistanceSpacing: 1.2
BeatDivisor: 2
GridSize: 32
TimelineZoom: 1

[Metadata]
Title:Wake Up
TitleUnicode:Wake Up
Artist:you
ArtistUnicode:you
Creator:Garden
Version:Normal
Source:
Tags:bellicose ibell asterisk diamond smile j-neration jneration j-core jcore hardcore featured artist fa electronic dance music edm instrumental mappers' guild mg mpg
BeatmapID:4457598
BeatmapSetID:2121373

[Difficulty]
HPDrainRate:3
CircleSize:3
OverallDifficulty:4
ApproachRate:5.8
SliderMultiplier:1
SliderTickRate:1

[Events]
//Background and Video events
0,0,"89657237_p0.jpg",0,0
//Break Periods
//Storyboard Layer 0 (Background)
//Storyboard Layer 1 (Fail)
//Storyboard Layer 2 (Pass)
//Storyboard Layer 3 (Foreground)
//Storyboard Layer 4 (Overlay)
//Storyboard Sound Samples

[TimingPoints]
202,342.857142857143,4,2,1,50,1,0
11173,-125,4,2,1,50,0,0
12202,-125,4,2,1,60,0,0
14602,-125,4,2,1,75,0,0
15287,-100,4,2,1,90,0,0
36587,-100,4,2,1,70,0,0
36887,-100,4,2,1,90,0,0
37573,-100,4,2,1,70,0,0
38602,-100,4,2,1,60,0,0
39287,-100,4,2,1,50,0,0
39973,-100,4,2,1,40,0,0
40659,-100,4,2,1,30,0,0
41344,-100,4,2,1,20,0,0
42030,-100,4,2,1,40,0,0
42716,-100,4,2,1,10,0,0

[Colours]
Combo1 : 133,203,245
Combo2 : 166,166,210

[HitObjects]
256,192,11173,5,4,3:2:0:0:
256,192,12544,6,0,B|226:106|296:129|254:38,2,160,4|2|2,3:1|0:0|0:0,0:0:0:0:
304,265,14259,1,2,0:0:0:0:
389,286,14602,2,0,P|460:271|476:176,1,160,4|4,3:2|3:1,0:0:0:0:
456,87,15630,5,10,3:2:0:0:
364,148,15973,2,0,P|317:140|246:123,1,100,2|8,3:2|3:2,0:0:0:0:
216,153,16487,1,2,0:0:0:0:
146,68,16830,1,2,0:0:0:0:
59,134,17173,1,2,0:0:0:0:
59,134,17344,2,0,P|62:164|69:204,1,50,2|2,3:2|0:0,0:0:0:0:
109,225,17687,1,10,3:2:0:0:
109,225,17859,1,0,0:0:0:0:
19,289,18202,6,0,P|22:319|29:359,1,50,2|10,0:0|3:2,0:0:0:0:
76,370,18544,1,2,0:0:0:0:
76,370,18716,2,0,P|132:360|199:356,1,100,2|10,3:2|3:2,0:0:0:0:
212,316,19230,1,2,0:0:0:0:
150,224,19573,2,0,P|124:229|81:230,2,50,2|10|2,0:0|3:2|0:0,0:0:0:0:
256,192,20259,2,0,B|272:129|234:147|255:72,1,100,6|2,0:0|0:0,0:0:0:0:
256,40,20773,5,4,3:1:0:0:
362,13,21116,1,10,3:2:0:0:
409,112,21459,2,0,P|414:173|400:232,1,100,2|8,3:2|3:2,0:0:0:0:
370,251,21973,1,2,0:0:0:0:
405,355,22316,2,0,P|358:343|293:341,1,100,2|2,0:0|0:0,0:0:0:0:
258,314,22830,2,0,P|252:289|241:267,1,50,2|2,3:2|0:0,0:0:0:0:
223,220,23173,1,10,3:2:0:0:
223,220,23344,1,2,0:0:0:0:
319,164,23687,5,2,0:0:0:0:
319,164,23859,2,0,P|313:139|302:117,1,50,10|2,3:2|0:0,0:0:0:0:
339,76,24202,2,0,P|344:25|306:-2,1,100,2|8,3:2|3:2,0:0:0:0:
253,0,24716,2,0,P|205:23|150:32,1,100,4|4,3:2|3:2,0:0:0:0:
104,25,25230,1,12,3:2:0:0:
39,114,25573,2,0,P|69:178|140:178,1,150,6|2,3:2|0:0,0:0:0:0:
177,130,26259,6,0,P|200:134|244:151,1,50,4|0,3:1|0:0,0:0:0:0:
281,164,26602,1,10,3:2:0:0:
281,164,26773,2,0,P|259:210|249:266,1,100,0|2,0:0|0:0,0:0:0:0:
250,318,27287,1,8,3:2:0:0:
250,318,27459,1,2,0:0:0:0:
353,379,27802,6,0,P|364:355|367:318,1,50,2|8,0:0|3:2,0:0:0:0:
369,271,28144,2,0,P|415:300|471:285,1,100,2|2,0:0|0:2,0:0:0:0:
508,258,28659,1,10,3:2:0:0:
508,258,28830,1,6,3:2:0:0:
495,138,29173,6,0,P|456:147|432:161,1,50,2|14,3:2|3:2,0:0:0:0:
390,171,29516,2,0,P|385:110|323:92,1,100,0|2,0:0|0:0,0:0:0:0:
307,124,30030,1,8,3:2:0:0:
307,124,30202,2,0,P|288:172|280:242,1,100,2|2,0:0|0:0,0:0:0:0:
355,313,30887,1,4,3:2:0:0:
245,363,31230,2,0,P|209:332|142:350,1,100,6|2,3:2|0:0,0:0:0:0:
111,372,31744,5,4,3:1:0:0:
12,303,32087,2,0,P|16:274|31:240,1,50,10|2,3:2|3:2,0:0:0:0:
40,200,32430,1,10,3:2:0:0:
40,200,32602,1,2,3:2:0:0:
86,26,33116,5,6,3:2:0:0:
185,95,33459,2,0,P|181:124|166:158,1,50,10|4,3:2|3:2,0:0:0:0:
157,198,33802,1,10,3:2:0:0:
157,198,33973,2,0,P|186:202|220:217,1,50,4|10,3:2|3:2,0:0:0:0:
262,227,34316,1,6,3:2:0:0:
287,109,34659,6,0,P|291:80|306:46,1,50,6|10,3:2|3:2,0:0:0:0:
334,12,35002,2,0,P|363:16|397:31,1,50,6|10,3:2|3:2,0:0:0:0:
408,77,35344,2,0,P|431:85|456:87,1,50,6|8,3:2|3:2,0:0:0:0:
489,138,35687,2,0,P|489:254|368:255,1,250,4|6,3:2|3:2,0:0:0:0:
283,337,36887,2,0,P|264:287|264:233,1,100,4|0,0:0|0:0,0:0:0:0:
340,148,37573,1,6,3:1:0:0:
256,192,37916,12,2,42716,0:0:0:0:
