osu file format v14

[General]
AudioFilename: audio.mp3
AudioLeadIn: 0
PreviewTime: 15291
Countdown: 0
SampleSet: Soft
StackLeniency: 0.7
Mode: 3
LetterboxInBreaks: 0
SpecialStyle: 0
WidescreenStoryboard: 1

[Editor]
Bookmarks: 11173
DistanceSpacing: 1
BeatDivisor: 4
GridSize: 32
TimelineZoom: 1.1

[Metadata]
Title:Wake Up
TitleUnicode:Wake Up
Artist:you
ArtistUnicode:you
Creator:Bei
Version:Mich's Novice
Source:
Tags:diamond smile j-neration fa featured artist happy hardcore electronic instrumental mich_ forest13 jneration JNEX-0001 track 1 one jcore j-core mappers' guild mg mpg
BeatmapID:4384468
BeatmapSetID:2091265

[Difficulty]
HPDrainRate:7.3
CircleSize:4
OverallDifficulty:7.3
ApproachRate:5
SliderMultiplier:1.4
SliderTickRate:1

[Events]
//Background and Video events
0,0,"bggagagaga.jpg",0,0
//Break Periods
//Storyboard Layer 0 (Background)
//Storyboard Layer 1 (Fail)
//Storyboard Layer 2 (Pass)
//Storyboard Layer 3 (Foreground)
//Storyboard Layer 4 (Overlay)
//Storyboard Sound Samples

[TimingPoints]
206,342.857142857143,4,2,1,50,1,0
15291,-100,4,2,1,60,0,1
35691,-100,4,2,1,50,0,0

[HitObjects]
448,192,206,5,0,0:0:0:0:
320,192,377,1,0,0:0:0:0:
64,192,548,1,0,0:0:0:0:
192,192,720,128,0,1063:0:0:0:0:
320,192,1063,1,0,0:0:0:0:
64,192,1234,1,0,0:0:0:0:
448,192,1406,1,0,0:0:0:0:
192,192,1748,1,0,0:0:0:0:
320,192,2091,128,0,2434:0:0:0:0:
64,192,2434,1,0,0:0:0:0:
448,192,2606,1,0,0:0:0:0:
192,192,2777,128,0,3120:0:0:0:0:
320,192,3120,1,0,0:0:0:0:
64,192,3291,1,0,0:0:0:0:
448,192,3463,128,0,3806:0:0:0:0:
192,192,3806,1,0,0:0:0:0:
320,192,3977,1,0,0:0:0:0:
64,192,4148,128,0,4491:0:0:0:0:
448,192,4491,1,0,0:0:0:0:
192,192,4834,128,0,5348:0:0:0:0:
320,192,5691,1,0,0:0:0:0:
64,192,5863,1,0,0:0:0:0:
448,192,6034,1,0,0:0:0:0:
192,192,6206,128,0,6548:0:0:0:0:
320,192,6548,1,0,0:0:0:0:
64,192,6720,1,0,0:0:0:0:
192,192,6891,1,0,0:0:0:0:
448,192,7234,1,0,0:0:0:0:
64,192,7577,128,0,7920:0:0:0:0:
320,192,7920,1,0,0:0:0:0:
192,192,8091,1,0,0:0:0:0:
448,192,8263,128,0,8606:0:0:0:0:
64,192,8606,1,0,0:0:0:0:
320,192,8777,1,0,0:0:0:0:
192,192,8948,128,0,9291:0:0:0:0:
320,192,9291,1,0,0:0:0:0:
64,192,9463,1,0,0:0:0:0:
448,192,9634,128,0,11177:0:0:0:0:
64,192,11177,1,0,0:0:0:0:
192,192,11177,1,0,0:0:0:0:
320,192,11863,128,0,12206:0:0:0:0:
192,192,12206,128,0,12548:0:0:0:0:
64,192,12548,1,0,0:0:0:0:
448,192,12548,1,0,0:0:0:0:
320,192,12720,1,0,0:0:0:0:
64,192,12891,1,0,0:0:0:0:
448,192,13234,1,0,0:0:0:0:
448,192,13491,1,0,0:0:0:0:
192,192,13663,1,0,0:0:0:0:
448,192,13748,1,0,0:0:0:0:
64,192,13920,1,0,0:0:0:0:
320,192,14091,1,0,0:0:0:0:
192,192,14263,1,0,0:0:0:0:
64,192,14434,1,0,0:0:0:0:
448,192,14606,1,0,0:0:0:0:
320,192,14606,1,0,0:0:0:0:
64,192,14948,128,0,15291:0:0:0:0:
320,192,15291,1,0,0:0:0:0:
448,192,15291,1,0,0:0:0:0:
192,192,15634,1,0,0:0:0:0:
64,192,15634,1,0,0:0:0:0:
320,192,15977,1,0,0:0:0:0:
192,192,16148,128,0,16320:0:0:0:0:
320,192,16320,1,0,0:0:0:0:
448,192,16320,1,0,0:0:0:0:
64,192,16491,1,0,0:0:0:0:
320,192,16663,1,0,0:0:0:0:
192,192,16834,1,0,0:0:0:0:
64,192,17006,1,0,0:0:0:0:
320,192,17006,1,0,0:0:0:0:
448,192,17177,1,0,0:0:0:0:
64,192,17348,1,0,0:0:0:0:
192,192,17520,1,0,0:0:0:0:
320,192,17691,1,0,0:0:0:0:
64,192,17691,1,0,0:0:0:0:
448,192,17863,128,0,18206:0:0:0:0:
64,192,18206,1,0,0:0:0:0:
320,192,18377,1,0,0:0:0:0:
448,192,18377,1,0,0:0:0:0:
192,192,18548,1,0,0:0:0:0:
448,192,18720,1,0,0:0:0:0:
320,192,18891,128,0,19063:0:0:0:0:
448,192,19063,1,0,0:0:0:0:
192,192,19063,1,0,0:0:0:0:
64,192,19234,128,0,19577:0:0:0:0:
448,192,19577,1,0,0:0:0:0:
320,192,19748,1,0,0:0:0:0:
64,192,19748,1,0,0:0:0:0:
192,192,19920,1,0,0:0:0:0:
448,192,20091,1,0,0:0:0:0:
320,192,20263,128,0,20606:0:0:0:0:
64,192,20606,128,0,20777:0:0:0:0:
448,192,20777,1,0,0:0:0:0:
64,192,21120,1,0,0:0:0:0:
192,192,21120,1,0,0:0:0:0:
320,192,21463,1,0,0:0:0:0:
64,192,21634,128,0,21806:0:0:0:0:
192,192,21806,1,0,0:0:0:0:
448,192,21806,1,0,0:0:0:0:
320,192,21977,1,0,0:0:0:0:
448,192,22148,1,0,0:0:0:0:
64,192,22320,1,0,0:0:0:0:
320,192,22491,1,0,0:0:0:0:
192,192,22491,1,0,0:0:0:0:
448,192,22663,1,0,0:0:0:0:
64,192,22834,1,0,0:0:0:0:
448,192,23006,1,0,0:0:0:0:
64,192,23177,1,0,0:0:0:0:
192,192,23177,1,0,0:0:0:0:
320,192,23348,128,0,23691:0:0:0:0:
192,192,23691,1,0,0:0:0:0:
448,192,23863,1,0,0:0:0:0:
320,192,23863,1,0,0:0:0:0:
64,192,24034,1,0,0:0:0:0:
192,192,24206,1,0,0:0:0:0:
448,192,24377,128,0,24548:0:0:0:0:
320,192,24548,1,0,0:0:0:0:
64,192,24548,1,0,0:0:0:0:
448,192,24720,1,0,0:0:0:0:
192,192,24720,1,0,0:0:0:0:
192,192,25063,1,0,0:0:0:0:
64,192,25063,1,0,0:0:0:0:
320,192,25234,1,0,0:0:0:0:
448,192,25234,1,0,0:0:0:0:
64,192,25577,1,0,0:0:0:0:
192,192,25577,1,0,0:0:0:0:
320,192,25920,1,0,0:0:0:0:
192,192,26091,128,0,26263:0:0:0:0:
64,192,26263,1,0,0:0:0:0:
448,192,26263,1,0,0:0:0:0:
448,192,26434,1,0,0:0:0:0:
192,192,26606,1,0,0:0:0:0:
320,192,26606,1,0,0:0:0:0:
192,192,26777,1,0,0:0:0:0:
448,192,26948,1,0,0:0:0:0:
64,192,27120,1,0,0:0:0:0:
320,192,27291,1,0,0:0:0:0:
192,192,27291,1,0,0:0:0:0:
320,192,27463,1,0,0:0:0:0:
448,192,27634,1,0,0:0:0:0:
64,192,27806,128,0,27977:0:0:0:0:
320,192,27977,1,0,0:0:0:0:
448,192,27977,1,0,0:0:0:0:
192,192,28148,128,0,28320:0:0:0:0:
320,192,28320,1,0,0:0:0:0:
448,192,28491,1,0,0:0:0:0:
64,192,28663,1,0,0:0:0:0:
192,192,28663,1,0,0:0:0:0:
448,192,28834,128,0,29177:0:0:0:0:
320,192,28834,1,0,0:0:0:0:
320,192,29177,1,0,0:0:0:0:
64,192,29348,1,0,0:0:0:0:
448,192,29348,1,0,0:0:0:0:
192,192,29520,128,0,29691:0:0:0:0:
320,192,29691,1,0,0:0:0:0:
448,192,29863,1,0,0:0:0:0:
192,192,30034,1,0,0:0:0:0:
64,192,30034,1,0,0:0:0:0:
320,192,30206,128,0,30548:0:0:0:0:
64,192,30548,128,0,30720:0:0:0:0:
320,192,30720,1,0,0:0:0:0:
448,192,30720,1,0,0:0:0:0:
192,192,30891,128,0,31234:0:0:0:0:
448,192,31234,1,0,0:0:0:0:
192,192,31577,128,0,31748:0:0:0:0:
64,192,31748,1,0,0:0:0:0:
448,192,31748,1,0,0:0:0:0:
320,192,32006,1,0,0:0:0:0:
64,192,32091,1,0,0:0:0:0:
192,192,32091,1,0,0:0:0:0:
448,192,32263,1,0,0:0:0:0:
320,192,32434,1,0,0:0:0:0:
64,192,32434,1,0,0:0:0:0:
192,192,32606,1,0,0:0:0:0:
448,192,32777,1,0,0:0:0:0:
320,192,32777,1,0,0:0:0:0:
320,192,32948,1,0,0:0:0:0:
64,192,33120,1,0,0:0:0:0:
192,192,33120,1,0,0:0:0:0:
448,192,33377,1,0,0:0:0:0:
320,192,33463,1,0,0:0:0:0:
192,192,33463,1,0,0:0:0:0:
64,192,33634,128,0,33806:0:0:0:0:
320,192,33806,1,0,0:0:0:0:
448,192,33806,1,0,0:0:0:0:
192,192,33977,128,0,34148:0:0:0:0:
448,192,34148,1,0,0:0:0:0:
64,192,34148,1,0,0:0:0:0:
320,192,34320,128,0,34663:0:0:0:0:
64,192,34663,1,0,0:0:0:0:
192,192,34834,1,0,0:0:0:0:
448,192,34834,1,0,0:0:0:0:
320,192,35006,1,0,0:0:0:0:
192,192,35177,1,0,0:0:0:0:
64,192,35177,1,0,0:0:0:0:
448,192,35348,1,0,0:0:0:0:
320,192,35520,1,0,0:0:0:0:
64,192,35520,1,0,0:0:0:0:
448,192,35691,128,0,36548:0:0:0:0:
192,192,35691,1,0,0:0:0:0:
64,192,36034,1,0,0:0:0:0:
192,192,36377,1,0,0:0:0:0:
64,192,36548,128,0,36891:0:0:0:0:
320,192,36548,1,0,0:0:0:0:
192,192,36720,1,0,0:0:0:0:
320,192,36891,128,0,37234:0:0:0:0:
64,192,37577,1,0,0:0:0:0:
192,192,37577,128,0,42720:0:0:0:0:
448,192,42034,128,0,42720:0:0:0:0:
