osu file format v14

[General]
AudioFilename: audio.mp3
AudioLeadIn: 0
PreviewTime: 85174
Countdown: 0
SampleSet: Soft
StackLeniency: 0.7
Mode: 3
LetterboxInBreaks: 0
SpecialStyle: 0
WidescreenStoryboard: 0

[Editor]
DistanceSpacing: 1
BeatDivisor: 4
GridSize: 16
TimelineZoom: 1.8

[Metadata]
Title:Shiawase Transmission
TitleUnicode:Shiawase Transmission
Artist:you
ArtistUnicode:you
Creator:Tsukahara
Version:NOVICE
Source:SOUND VOLTEX III GRAVITY WARS
Tags:Makina Maiheartbeat MION leqek SDVX
BeatmapID:1090265
BeatmapSetID:513064

[Difficulty]
HPDrainRate:7
CircleSize:4
OverallDifficulty:7
ApproachRate:5
SliderMultiplier:1.4
SliderTickRate:1

[Events]
//Background and Video events
0,0,"shiawase.jpg",0,0
//Break Periods
//Storyboard Layer 0 (Background)
//Storyboard Layer 1 (Fail)
//Storyboard Layer 2 (Pass)
//Storyboard Layer 3 (Foreground)
//Storyboard Sound Samples

[TimingPoints]
603,285.714285714286,4,2,1,35,1,0
9745,-100,4,2,1,35,0,1
27460,-100,4,2,1,35,0,0
85174,-100,4,2,1,35,0,1
102888,-100,4,2,1,35,0,0

[HitObjects]
64,192,603,128,0,888:0:0:0:0:
192,192,888,128,0,1174:0:0:0:0:
320,192,1174,128,0,1460:0:0:0:0:
448,192,1460,1,0,0:0:0:0:
192,192,1603,1,0,0:0:0:0:
64,192,1888,128,0,2174:0:0:0:0:
448,192,2174,1,0,0:0:0:0:
320,192,2460,1,0,0:0:0:0:
192,192,2745,128,0,3031:0:0:0:0:
448,192,3031,1,0,0:0:0:0:
320,192,3174,1,0,0:0:0:0:
192,192,3317,1,0,0:0:0:0:
64,192,3460,1,0,0:0:0:0:
320,192,3603,128,0,3888:0:0:0:0:
192,192,3888,1,0,0:0:0:0:
64,192,4174,1,0,0:0:0:0:
448,192,4460,128,0,4745:0:0:0:0:
320,192,4745,1,0,0:0:0:0:
192,192,4888,1,0,0:0:0:0:
64,192,5031,1,0,0:0:0:0:
320,192,5174,128,0,5460:0:0:0:0:
192,192,5460,128,0,5745:0:0:0:0:
448,192,5745,128,0,6031:0:0:0:0:
64,192,6031,1,0,0:0:0:0:
192,192,6174,1,0,0:0:0:0:
320,192,6460,128,0,6745:0:0:0:0:
192,192,6745,1,0,0:0:0:0:
64,192,7031,1,0,0:0:0:0:
192,192,7317,128,0,8603:0:0:0:0:
320,192,8603,1,2,0:0:0:0:
448,192,8603,1,0,0:0:0:0:
448,192,9174,1,0,0:0:0:0:
320,192,9317,1,0,0:0:0:0:
192,192,9460,1,0,0:0:0:0:
64,192,9603,1,0,0:0:0:0:
448,192,9745,1,2,0:0:0:0:
320,192,9745,128,0,10031:0:0:0:0:
64,192,10031,1,8,0:0:0:0:
192,192,10031,128,0,10317:0:0:0:0:
320,192,10317,1,2,0:0:0:0:
448,192,10317,128,0,10603:0:0:0:0:
192,192,10603,1,8,0:0:0:0:
64,192,10603,1,0,0:0:0:0:
320,192,10745,1,0,0:0:0:0:
192,192,11031,128,0,11317:0:0:0:0:
448,192,11317,1,0,0:0:0:0:
320,192,11603,1,0,0:0:0:0:
64,192,11888,128,0,12174:0:0:0:0:
448,192,12174,1,0,0:0:0:0:
320,192,12317,1,8,0:0:0:0:
192,192,12460,1,0,0:0:0:0:
64,192,12603,1,2,0:0:0:0:
448,192,12745,128,0,13031:0:0:0:0:
192,192,13031,1,0,0:0:0:0:
192,192,13317,1,0,0:0:0:0:
320,192,13603,128,0,13888:0:0:0:0:
64,192,13888,1,0,0:0:0:0:
192,192,14031,1,8,0:0:0:0:
320,192,14174,1,2,0:0:0:0:
64,192,14317,1,0,0:0:0:0:
448,192,14317,128,2,14603:0:0:0:0:
192,192,14603,1,0,0:0:0:0:
320,192,14603,128,8,14888:0:0:0:0:
448,192,14888,1,0,0:0:0:0:
64,192,14888,128,2,15174:0:0:0:0:
320,192,15174,1,8,0:0:0:0:
448,192,15174,1,0,0:0:0:0:
192,192,15317,1,0,0:0:0:0:
320,192,15603,128,0,15888:0:0:0:0:
64,192,15888,1,0,0:0:0:0:
192,192,16174,1,0,0:0:0:0:
448,192,16460,128,0,16745:0:0:0:0:
320,192,16745,128,0,17031:0:0:0:0:
192,192,17031,128,0,17460:0:0:0:0:
320,192,17460,1,0,0:0:0:0:
448,192,17460,1,8,0:0:0:0:
192,192,17603,1,0,0:0:0:0:
64,192,17603,1,8,0:0:0:0:
448,192,17888,1,8,0:0:0:0:
64,192,17888,1,0,0:0:0:0:
192,192,18031,128,0,18174:0:0:0:0:
320,192,18174,1,2,0:0:0:0:
448,192,18174,1,0,0:0:0:0:
64,192,18317,1,2,0:0:0:0:
192,192,18460,1,2,0:0:0:0:
320,192,18603,1,2,0:0:0:0:
448,192,18745,1,2,0:0:0:0:
192,192,18888,1,2,0:0:0:0:
64,192,18888,1,0,0:0:0:0:
448,192,19174,1,10,0:0:0:0:
320,192,19174,1,0,0:0:0:0:
320,192,19460,1,2,0:0:0:0:
64,192,19460,1,0,0:0:0:0:
192,192,19745,1,8,0:0:0:0:
448,192,19745,1,0,0:0:0:0:
64,192,19888,1,0,0:0:0:0:
320,192,20174,128,0,20460:0:0:0:0:
64,192,20460,1,0,0:0:0:0:
192,192,20745,1,0,0:0:0:0:
448,192,21031,128,0,21317:0:0:0:0:
320,192,21317,1,0,0:0:0:0:
192,192,21460,1,2,0:0:0:0:
64,192,21460,1,0,0:0:0:0:
320,192,21603,1,2,0:0:0:0:
448,192,21603,1,0,0:0:0:0:
448,192,21888,1,2,0:0:0:0:
64,192,21888,1,0,0:0:0:0:
320,192,22174,1,2,0:0:0:0:
192,192,22174,128,0,22745:0:0:0:0:
64,192,22745,1,2,0:0:0:0:
448,192,22745,128,0,23031:0:0:0:0:
192,192,23031,1,2,0:0:0:0:
64,192,23174,1,2,0:0:0:0:
448,192,23317,1,2,0:0:0:0:
64,192,23460,1,2,0:0:0:0:
320,192,23603,1,0,0:0:0:0:
64,192,23745,1,8,0:0:0:0:
320,192,23888,1,0,0:0:0:0:
448,192,24031,1,2,0:0:0:0:
192,192,24174,1,0,0:0:0:0:
448,192,24317,1,8,0:0:0:0:
192,192,24460,128,8,24745:0:0:0:0:
320,192,25031,1,0,0:0:0:0:
448,192,25174,128,0,25317:0:0:0:0:
192,192,25317,1,2,0:0:0:0:
64,192,25460,1,2,0:0:0:0:
320,192,25603,1,8,0:0:0:0:
448,192,25603,128,0,25888:0:0:0:0:
192,192,25888,1,2,0:0:0:0:
320,192,26174,1,2,0:0:0:0:
320,192,26460,128,0,26745:0:0:0:0:
64,192,26745,1,2,0:0:0:0:
64,192,27031,1,2,0:0:0:0:
448,192,27317,1,2,0:0:0:0:
192,192,27460,1,2,0:0:0:0:
320,192,27745,128,0,28031:0:0:0:0:
64,192,28031,1,2,0:0:0:0:
448,192,28031,1,0,0:0:0:0:
320,192,28603,1,2,0:0:0:0:
64,192,28888,1,2,0:0:0:0:
448,192,29174,1,2,0:0:0:0:
320,192,29460,1,2,0:0:0:0:
192,192,29603,1,2,0:0:0:0:
320,192,29745,1,2,0:0:0:0:
448,192,30031,1,2,0:0:0:0:
192,192,30317,1,2,0:0:0:0:
64,192,30317,1,0,0:0:0:0:
320,192,30460,1,0,0:0:0:0:
448,192,30603,1,8,0:0:0:0:
320,192,30888,1,2,0:0:0:0:
192,192,31031,1,0,0:0:0:0:
64,192,31174,1,8,0:0:0:0:
448,192,31317,1,0,0:0:0:0:
192,192,31460,1,2,0:0:0:0:
320,192,31603,1,0,0:0:0:0:
64,192,31745,1,8,0:0:0:0:
192,192,31888,1,0,0:0:0:0:
448,192,32031,1,2,0:0:0:0:
320,192,32174,1,0,0:0:0:0:
192,192,32317,1,8,0:0:0:0:
64,192,32460,1,0,0:0:0:0:
320,192,32603,1,2,0:0:0:0:
448,192,32745,1,0,0:0:0:0:
64,192,32888,1,8,0:0:0:0:
192,192,33031,1,0,0:0:0:0:
448,192,33174,1,2,0:0:0:0:
320,192,33317,1,0,0:0:0:0:
192,192,33460,1,8,0:0:0:0:
64,192,33603,1,0,0:0:0:0:
320,192,33745,1,2,0:0:0:0:
192,192,33888,1,0,0:0:0:0:
320,192,34031,1,8,0:0:0:0:
192,192,34174,1,0,0:0:0:0:
448,192,34317,1,2,0:0:0:0:
320,192,34460,1,0,0:0:0:0:
192,192,34603,1,8,0:0:0:0:
64,192,34745,1,2,0:0:0:0:
320,192,34888,1,2,0:0:0:0:
192,192,35031,1,0,0:0:0:0:
64,192,35174,1,8,0:0:0:0:
192,192,35460,1,2,0:0:0:0:
320,192,35603,1,0,0:0:0:0:
448,192,35745,1,8,0:0:0:0:
64,192,35888,1,0,0:0:0:0:
320,192,36031,1,2,0:0:0:0:
192,192,36174,1,0,0:0:0:0:
448,192,36317,1,8,0:0:0:0:
320,192,36460,1,0,0:0:0:0:
64,192,36603,1,2,0:0:0:0:
192,192,36745,1,0,0:0:0:0:
320,192,36888,1,8,0:0:0:0:
448,192,37031,1,0,0:0:0:0:
64,192,37174,128,2,37460:0:0:0:0:
448,192,37460,1,8,0:0:0:0:
320,192,37745,1,8,0:0:0:0:
192,192,37745,1,0,0:0:0:0:
320,192,38031,1,8,0:0:0:0:
192,192,38031,1,0,0:0:0:0:
448,192,38317,1,2,0:0:0:0:
320,192,38460,1,2,0:0:0:0:
192,192,38603,1,2,0:0:0:0:
64,192,38745,1,2,0:0:0:0:
320,192,39031,1,2,0:0:0:0:
64,192,39174,1,0,0:0:0:0:
192,192,39460,1,8,0:0:0:0:
448,192,39460,1,0,0:0:0:0:
320,192,39745,1,8,0:0:0:0:
64,192,39745,1,0,0:0:0:0:
192,192,40031,1,2,0:0:0:0:
448,192,40317,1,8,0:0:0:0:
64,192,40317,1,8,0:0:0:0:
320,192,40603,1,2,0:0:0:0:
192,192,40745,1,0,0:0:0:0:
192,192,41031,1,0,0:0:0:0:
192,192,41317,1,0,0:0:0:0:
192,192,41603,1,0,0:0:0:0:
320,192,41745,1,2,0:0:0:0:
448,192,41745,1,0,0:0:0:0:
64,192,42031,1,8,0:0:0:0:
192,192,42031,1,0,0:0:0:0:
320,192,42174,1,0,0:0:0:0:
448,192,42460,1,0,0:0:0:0:
192,192,42603,1,8,0:0:0:0:
64,192,42603,1,0,0:0:0:0:
320,192,42888,1,0,0:0:0:0:
448,192,42888,1,2,0:0:0:0:
320,192,43174,1,0,0:0:0:0:
448,192,43174,1,2,0:0:0:0:
64,192,43460,1,2,0:0:0:0:
192,192,43603,1,2,0:0:0:0:
320,192,43745,1,8,0:0:0:0:
64,192,43745,1,0,0:0:0:0:
448,192,43888,1,2,0:0:0:0:
192,192,44031,1,8,0:0:0:0:
64,192,44031,1,0,0:0:0:0:
192,192,44317,1,8,0:0:0:0:
64,192,44317,1,0,0:0:0:0:
320,192,44603,1,8,0:0:0:0:
448,192,44603,1,0,0:0:0:0:
320,192,44888,1,8,0:0:0:0:
448,192,44888,1,0,0:0:0:0:
192,192,45031,1,8,0:0:0:0:
64,192,45031,1,0,0:0:0:0:
448,192,45317,1,8,0:0:0:0:
64,192,45317,1,0,0:0:0:0:
64,192,45603,1,8,0:0:0:0:
448,192,45603,1,0,0:0:0:0:
192,192,45745,128,2,46031:0:0:0:0:
320,192,45745,128,0,46031:0:0:0:0:
64,192,46031,1,2,0:0:0:0:
448,192,46031,1,0,0:0:0:0:
320,192,46317,1,2,0:0:0:0:
320,192,46460,1,2,0:0:0:0:
448,192,46603,1,0,0:0:0:0:
192,192,46888,1,2,0:0:0:0:
192,192,47031,1,2,0:0:0:0:
64,192,47174,1,0,0:0:0:0:
320,192,47460,128,2,48031:0:0:0:0:
64,192,48031,1,2,0:0:0:0:
192,192,48317,1,0,0:0:0:0:
448,192,48603,1,2,0:0:0:0:
64,192,48603,1,2,0:0:0:0:
320,192,48745,1,0,0:0:0:0:
192,192,48888,1,0,0:0:0:0:
64,192,49031,128,2,49317:0:0:0:0:
192,192,49317,1,2,0:0:0:0:
320,192,49460,1,0,0:0:0:0:
448,192,49603,128,2,50888:0:0:0:0:
320,192,50888,1,2,0:0:0:0:
64,192,50888,1,0,0:0:0:0:
192,192,51031,1,0,0:0:0:0:
320,192,51174,1,0,0:0:0:0:
448,192,51317,128,2,51603:0:0:0:0:
320,192,51603,1,2,0:0:0:0:
192,192,51745,1,0,0:0:0:0:
64,192,51888,128,2,53174:0:0:0:0:
320,192,53174,1,2,0:0:0:0:
448,192,53174,1,0,0:0:0:0:
192,192,53317,1,0,0:0:0:0:
64,192,53460,1,0,0:0:0:0:
320,192,53603,128,0,53888:0:0:0:0:
64,192,53888,1,2,0:0:0:0:
192,192,54031,1,0,0:0:0:0:
320,192,54174,1,2,0:0:0:0:
448,192,54460,1,2,0:0:0:0:
64,192,54460,128,2,54888:0:0:0:0:
448,192,54888,1,2,0:0:0:0:
320,192,55031,1,2,0:0:0:0:
192,192,55174,1,2,0:0:0:0:
64,192,55317,128,2,56460:0:0:0:0:
448,192,55603,1,2,0:0:0:0:
448,192,55888,1,2,0:0:0:0:
448,192,56174,1,2,0:0:0:0:
192,192,56460,128,2,57174:0:0:0:0:
448,192,57174,1,2,0:0:0:0:
320,192,57745,1,2,0:0:0:0:
64,192,57745,128,0,58460:0:0:0:0:
192,192,58460,128,0,58888:0:0:0:0:
320,192,58888,128,0,59603:0:0:0:0:
448,192,59603,128,0,60031:0:0:0:0:
320,192,60031,128,0,60460:0:0:0:0:
192,192,60460,128,0,60888:0:0:0:0:
64,192,60888,128,0,61745:0:0:0:0:
320,192,61745,128,0,62031:0:0:0:0:
192,192,62031,128,0,62317:0:0:0:0:
448,192,62317,128,0,63174:0:0:0:0:
320,192,63174,1,0,0:0:0:0:
192,192,63317,1,0,0:0:0:0:
64,192,63460,128,0,64317:0:0:0:0:
192,192,64317,128,0,64603:0:0:0:0:
320,192,64603,128,0,65460:0:0:0:0:
192,192,65460,1,0,0:0:0:0:
64,192,65603,1,0,0:0:0:0:
448,192,65745,128,0,66888:0:0:0:0:
320,192,66888,1,0,0:0:0:0:
64,192,66888,128,0,68031:0:0:0:0:
192,192,68031,128,0,68603:0:0:0:0:
320,192,68603,128,0,69174:0:0:0:0:
448,192,69174,128,0,70031:0:0:0:0:
320,192,70031,1,0,0:0:0:0:
192,192,70174,1,0,0:0:0:0:
64,192,70317,128,0,71460:0:0:0:0:
192,192,71460,128,0,71888:0:0:0:0:
320,192,71888,128,0,72317:0:0:0:0:
448,192,72317,128,0,73174:0:0:0:0:
320,192,73174,128,0,73745:0:0:0:0:
192,192,73745,128,0,76031:0:0:0:0:
320,192,74888,128,0,76031:0:0:0:0:
64,192,76031,5,2,0:0:0:0:
448,192,76031,1,0,0:0:0:0:
320,192,76317,1,0,0:0:0:0:
192,192,76603,1,0,0:0:0:0:
320,192,76888,1,0,0:0:0:0:
448,192,77031,1,0,0:0:0:0:
64,192,77317,128,0,77603:0:0:0:0:
320,192,77603,1,0,0:0:0:0:
192,192,77888,1,0,0:0:0:0:
448,192,78174,128,0,78460:0:0:0:0:
64,192,78460,1,0,0:0:0:0:
192,192,78603,1,0,0:0:0:0:
320,192,78745,1,0,0:0:0:0:
448,192,78888,1,0,0:0:0:0:
64,192,79031,128,0,79317:0:0:0:0:
320,192,79317,1,0,0:0:0:0:
448,192,79317,1,2,0:0:0:0:
448,192,79603,1,2,0:0:0:0:
64,192,79603,1,0,0:0:0:0:
64,192,79888,1,2,0:0:0:0:
192,192,79888,1,0,0:0:0:0:
448,192,80174,1,2,0:0:0:0:
64,192,80174,1,0,0:0:0:0:
320,192,80317,1,2,0:0:0:0:
192,192,80460,1,2,0:0:0:0:
64,192,80603,1,2,0:0:0:0:
448,192,80603,1,0,0:0:0:0:
320,192,80888,1,0,0:0:0:0:
192,192,81174,1,0,0:0:0:0:
64,192,81460,1,0,0:0:0:0:
448,192,81603,1,0,0:0:0:0:
192,192,81888,1,0,0:0:0:0:
320,192,82174,1,0,0:0:0:0:
64,192,82460,1,0,0:0:0:0:
448,192,82745,128,0,84031:0:0:0:0:
192,192,84031,1,10,0:0:0:0:
64,192,84031,1,0,0:0:0:0:
64,192,84603,1,0,0:0:0:0:
192,192,84745,1,0,0:0:0:0:
320,192,84888,1,0,0:0:0:0:
448,192,85031,1,0,0:0:0:0:
64,192,85174,1,2,0:0:0:0:
192,192,85174,128,0,85460:0:0:0:0:
448,192,85460,1,8,0:0:0:0:
320,192,85460,128,0,85745:0:0:0:0:
64,192,85745,128,2,86031:0:0:0:0:
192,192,85745,1,0,0:0:0:0:
448,192,86031,1,8,0:0:0:0:
320,192,86031,1,0,0:0:0:0:
192,192,86174,1,0,0:0:0:0:
320,192,86460,128,0,86745:0:0:0:0:
64,192,86745,1,0,0:0:0:0:
192,192,87031,1,0,0:0:0:0:
448,192,87317,128,0,87603:0:0:0:0:
64,192,87603,1,0,0:0:0:0:
192,192,87745,1,8,0:0:0:0:
320,192,87888,1,0,0:0:0:0:
448,192,88031,1,2,0:0:0:0:
64,192,88174,128,0,88460:0:0:0:0:
320,192,88460,1,0,0:0:0:0:
320,192,88745,1,0,0:0:0:0:
192,192,89031,128,0,89317:0:0:0:0:
448,192,89317,1,0,0:0:0:0:
320,192,89460,1,8,0:0:0:0:
192,192,89603,1,2,0:0:0:0:
64,192,89745,128,0,90031:0:0:0:0:
448,192,89745,1,2,0:0:0:0:
320,192,90031,1,8,0:0:0:0:
192,192,90031,128,0,90317:0:0:0:0:
64,192,90317,1,0,0:0:0:0:
448,192,90317,128,2,90603:0:0:0:0:
192,192,90603,1,0,0:0:0:0:
64,192,90603,1,8,0:0:0:0:
320,192,90745,1,0,0:0:0:0:
192,192,91031,128,0,91317:0:0:0:0:
448,192,91317,1,0,0:0:0:0:
320,192,91603,1,0,0:0:0:0:
64,192,91888,128,0,92174:0:0:0:0:
192,192,92174,128,0,92460:0:0:0:0:
320,192,92460,128,0,92888:0:0:0:0:
192,192,92888,1,8,0:0:0:0:
64,192,92888,1,0,0:0:0:0:
448,192,93031,1,2,0:0:0:0:
320,192,93031,1,0,0:0:0:0:
64,192,93317,1,0,0:0:0:0:
448,192,93317,1,2,0:0:0:0:
320,192,93460,128,0,93603:0:0:0:0:
192,192,93603,1,2,0:0:0:0:
64,192,93603,1,0,0:0:0:0:
448,192,93745,1,2,0:0:0:0:
320,192,93888,1,2,0:0:0:0:
192,192,94031,1,2,0:0:0:0:
64,192,94174,1,2,0:0:0:0:
448,192,94317,1,2,0:0:0:0:
320,192,94317,1,0,0:0:0:0:
64,192,94603,1,10,0:0:0:0:
192,192,94603,1,0,0:0:0:0:
448,192,94888,1,2,0:0:0:0:
192,192,94888,1,0,0:0:0:0:
64,192,95174,1,8,0:0:0:0:
320,192,95174,1,0,0:0:0:0:
448,192,95317,1,0,0:0:0:0:
192,192,95603,128,0,95888:0:0:0:0:
448,192,95888,1,0,0:0:0:0:
320,192,96174,1,0,0:0:0:0:
64,192,96460,128,0,96745:0:0:0:0:
192,192,96745,1,0,0:0:0:0:
448,192,96888,1,2,0:0:0:0:
320,192,96888,1,0,0:0:0:0:
64,192,97031,1,2,0:0:0:0:
192,192,97031,1,0,0:0:0:0:
64,192,97317,1,0,0:0:0:0:
448,192,97317,1,2,0:0:0:0:
320,192,97603,128,2,98174:0:0:0:0:
192,192,97603,1,0,0:0:0:0:
192,192,98174,1,2,0:0:0:0:
64,192,98174,128,0,98460:0:0:0:0:
448,192,98460,1,2,0:0:0:0:
320,192,98603,1,2,0:0:0:0:
64,192,98745,1,2,0:0:0:0:
448,192,98888,1,2,0:0:0:0:
192,192,99031,1,0,0:0:0:0:
448,192,99174,1,8,0:0:0:0:
192,192,99317,1,0,0:0:0:0:
64,192,99460,1,2,0:0:0:0:
320,192,99603,1,0,0:0:0:0:
64,192,99745,1,8,0:0:0:0:
320,192,99888,128,2,100317:0:0:0:0:
192,192,100460,1,0,0:0:0:0:
64,192,100603,128,0,100745:0:0:0:0:
320,192,100745,1,2,0:0:0:0:
448,192,100888,1,2,0:0:0:0:
64,192,101031,128,8,101317:0:0:0:0:
192,192,101031,1,0,0:0:0:0:
320,192,101317,1,2,0:0:0:0:
192,192,101603,1,2,0:0:0:0:
192,192,101888,128,0,102174:0:0:0:0:
448,192,102174,1,2,0:0:0:0:
448,192,102460,1,2,0:0:0:0:
64,192,102745,1,2,0:0:0:0:
320,192,102888,1,2,0:0:0:0:
192,192,103174,128,0,103460:0:0:0:0:
64,192,103460,1,2,0:0:0:0:
448,192,103460,1,0,0:0:0:0:
320,192,103603,1,0,0:0:0:0:
192,192,103745,1,0,0:0:0:0:
64,192,103888,128,2,104174:0:0:0:0:
192,192,104174,1,2,0:0:0:0:
320,192,104317,1,0,0:0:0:0:
448,192,104460,128,2,105745:0:0:0:0:
64,192,105745,1,2,0:0:0:0:
320,192,105745,1,2,0:0:0:0:
192,192,105888,1,0,0:0:0:0:
320,192,106031,1,0,0:0:0:0:
448,192,106174,128,2,106460:0:0:0:0:
320,192,106460,1,2,0:0:0:0:
192,192,106603,1,0,0:0:0:0:
64,192,106745,128,2,108031:0:0:0:0:
448,192,108031,1,2,0:0:0:0:
320,192,108031,1,0,0:0:0:0:
192,192,108174,1,0,0:0:0:0:
64,192,108317,1,0,0:0:0:0:
320,192,108460,128,0,108745:0:0:0:0:
64,192,108745,1,2,0:0:0:0:
192,192,108888,1,0,0:0:0:0:
320,192,109031,1,2,0:0:0:0:
64,192,109317,128,2,109745:0:0:0:0:
448,192,109317,1,0,0:0:0:0:
448,192,109745,1,2,0:0:0:0:
320,192,109888,1,2,0:0:0:0:
192,192,110031,1,2,0:0:0:0:
64,192,110174,128,2,111317:0:0:0:0:
448,192,110460,1,2,0:0:0:0:
448,192,110745,1,2,0:0:0:0:
448,192,111031,1,2,0:0:0:0:
192,192,111317,128,2,112460:0:0:0:0:
320,192,111317,1,0,0:0:0:0:
320,192,111603,1,2,0:0:0:0:
320,192,111888,1,2,0:0:0:0:
320,192,112174,1,2,0:0:0:0:
64,192,112460,1,2,0:0:0:0:
448,192,112460,128,0,114888:0:0:0:0:
