osu file format v14

[General]
AudioFilename: A02.mp3
AudioLeadIn: 0
PreviewTime: 8606
Countdown: 0
SampleSet: Normal
StackLeniency: 0.7
Mode: 3
LetterboxInBreaks: 0
SpecialStyle: 0
WidescreenStoryboard: 1

[Editor]
Bookmarks: 606,8606,9748,18891,19177,23463,28034,30320,39463,48606,53177,57177,57748,66891,76034,80606,84034,85177,94320,94606,98891,103463,108034,112606,114891
DistanceSpacing: 0.8
BeatDivisor: 4
GridSize: 8
TimelineZoom: 4.019998

[Metadata]
Title:Shiawase Transmission
TitleUnicode:Shiawase Transmission
Artist:you
ArtistUnicode:you
Creator:Cadmium-113
Version:Act II. Departure
Source:SOUND VOLTEX III GRAVITY WARS
Tags:Konami Bemani SDVX Happy Hardcore A Journey Through 4K 02
BeatmapID:1044356
BeatmapSetID:489902

[Difficulty]
HPDrainRate:8
CircleSize:4
OverallDifficulty:8
ApproachRate:5
SliderMultiplier:1.4
SliderTickRate:1

[Events]
//Background and Video events
0,0,"A02.jpg",0,0
//Break Periods
//Storyboard Layer 0 (Background)
//Storyboard Layer 1 (Fail)
//Storyboard Layer 2 (Pass)
//Storyboard Layer 3 (Foreground)
//Storyboard Sound Samples

[TimingPoints]
606.093886438803,285.714285714286,4,1,1,10,1,0
8606,-29.4117647058824,4,1,1,15,0,0
8641,-500,4,1,1,15,0,0
8748,-100,4,1,1,15,0,0
9748,-35.7142857142857,4,1,1,20,0,1
9772,-1000,4,1,1,20,0,1
9820,-100,4,1,1,20,0,1
10034,-35.7142857142857,4,1,1,20,0,1
10058,-1000,4,1,1,20,0,1
10106,-100,4,1,1,20,0,1
10320,-35.7142857142857,4,1,1,20,0,1
10344,-1000,4,1,1,20,0,1
10391,-100,4,1,1,20,0,1
10606,-35.7142857142857,4,1,1,20,0,1
10629,-1000,4,1,1,20,0,1
10677,-100,4,1,1,20,0,1
10748,-35.7142857142857,4,1,1,20,0,1
10772,-1000,4,1,1,20,0,1
10820,-100,4,1,1,20,0,1
11034,-35.7142857142857,4,1,1,20,0,1
11058,-1000,4,1,1,20,0,1
11106,-100,4,1,1,20,0,1
11320,-35.7142857142857,4,1,1,20,0,1
11344,-1000,4,1,1,20,0,1
11391,-100,4,1,1,20,0,1
11606,-35.7142857142857,4,1,1,20,0,1
11629,-1000,4,1,1,20,0,1
11677,-100,4,1,1,20,0,1
11891,-35.7142857142857,4,1,1,20,0,1
11915,-1000,4,1,1,20,0,1
11963,-100,4,1,1,20,0,1
12177,-41.6666666666667,4,1,1,20,0,1
12201,-333.333333333333,4,1,1,20,0,1
12248,-100,4,1,1,20,0,1
12320,-41.6666666666667,4,1,1,20,0,1
12344,-333.333333333333,4,1,1,20,0,1
12391,-100,4,1,1,20,0,1
12463,-41.6666666666667,4,1,1,20,0,1
12487,-333.333333333333,4,1,1,20,0,1
12534,-100,4,1,1,20,0,1
12606,-41.6666666666667,4,1,1,20,0,1
12629,-333.333333333333,4,1,1,20,0,1
12677,-100,4,1,1,20,0,1
12748,-41.6666666666667,4,1,1,20,0,1
12772,-333.333333333333,4,1,1,20,0,1
12820,-100,4,1,1,20,0,1
13034,-35.7142857142857,4,1,1,20,0,1
13058,-1000,4,1,1,20,0,1
13106,-100,4,1,1,20,0,1
13320,-35.7142857142857,4,1,1,20,0,1
13344,-1000,4,1,1,20,0,1
13391,-100,4,1,1,20,0,1
13606,-35.7142857142857,4,1,1,20,0,1
13629,-1000,4,1,1,20,0,1
13677,-100,4,1,1,20,0,1
13891,-41.6666666666667,4,1,1,20,0,1
13915,-333.333333333333,4,1,1,20,0,1
13963,-100,4,1,1,20,0,1
14034,-41.6666666666667,4,1,1,20,0,1
14058,-333.333333333333,4,1,1,20,0,1
14106,-100,4,1,1,20,0,1
14177,-41.6666666666667,4,1,1,20,0,1
14201,-333.333333333333,4,1,1,20,0,1
14248,-100,4,1,1,20,0,1
14320,-35.7142857142857,4,1,1,20,0,1
14344,-1000,4,1,1,20,0,1
14391,-100,4,1,1,20,0,1
14606,-35.7142857142857,4,1,1,20,0,1
14629,-1000,4,1,1,20,0,1
14677,-100,4,1,1,20,0,1
14891,-35.7142857142857,4,1,1,20,0,1
14915,-1000,4,1,1,20,0,1
14963,-100,4,1,1,20,0,1
15177,-35.7142857142857,4,1,1,20,0,1
15201,-1000,4,1,1,20,0,1
15248,-100,4,1,1,20,0,1
15606,-35.7142857142857,4,1,1,20,0,1
15629,-1000,4,1,1,20,0,1
15677,-100,4,1,1,20,0,1
15891,-35.7142857142857,4,1,1,20,0,1
15915,-1000,4,1,1,20,0,1
15963,-100,4,1,1,20,0,1
16177,-35.7142857142857,4,1,1,20,0,1
16201,-1000,4,1,1,20,0,1
16248,-100,4,1,1,20,0,1
16463,-35.7142857142857,4,1,1,20,0,1
16487,-1000,4,1,1,20,0,1
16534,-100,4,1,1,20,0,1
16748,-41.6666666666667,4,1,1,20,0,1
16772,-333.333333333333,4,1,1,20,0,1
16820,-100,4,1,1,20,0,1
16891,-41.6666666666667,4,1,1,20,0,1
16915,-333.333333333333,4,1,1,20,0,1
16963,-100,4,1,1,20,0,1
17034,-41.6666666666667,4,1,1,20,0,1
17058,-333.333333333333,4,1,1,20,0,1
17106,-100,4,1,1,20,0,1
17463,-41.6666666666667,4,1,1,20,0,1
17487,-333.333333333333,4,1,1,20,0,1
17534,-100,4,1,1,20,0,1
17606,-33.3333333333333,4,1,1,20,0,1
17653,-166.666666666667,4,1,1,20,0,1
17891,-33.3333333333333,4,1,1,20,0,1
17915,-166.666666666667,4,1,1,20,0,1
18034,-100,4,1,1,20,0,1
18177,-50,4,1,1,20,0,1
18225,-200,4,1,1,20,0,1
18320,-50,4,1,1,20,0,1
18367,-200,4,1,1,20,0,1
18463,-50,4,1,1,20,0,1
18510,-200,4,1,1,20,0,1
18606,-50,4,1,1,20,0,1
18653,-200,4,1,1,20,0,1
18748,-100,4,1,1,20,0,1
18891,-200,4,1,1,20,0,0
19141,-22.2222222222222,4,1,1,20,0,0
19177,-35.7142857142857,4,1,1,20,0,1
19201,-1000,4,1,1,20,0,1
19248,-100,4,1,1,20,0,1
19463,-35.7142857142857,4,1,1,20,0,1
19487,-1000,4,1,1,20,0,1
19534,-100,4,1,1,20,0,1
19748,-41.6666666666667,4,1,1,20,0,1
19772,-333.333333333333,4,1,1,20,0,1
19820,-100,4,1,1,20,0,1
19891,-41.6666666666667,4,1,1,20,0,1
19915,-333.333333333333,4,1,1,20,0,1
19963,-100,4,1,1,20,0,1
20177,-35.7142857142857,4,1,1,20,0,1
20201,-1000,4,1,1,20,0,1
20248,-100,4,1,1,20,0,1
20463,-35.7142857142857,4,1,1,20,0,1
20487,-1000,4,1,1,20,0,1
20534,-100,4,1,1,20,0,1
20748,-35.7142857142857,4,1,1,20,0,1
20772,-1000,4,1,1,20,0,1
20820,-100,4,1,1,20,0,1
21034,-35.7142857142857,4,1,1,20,0,1
21058,-1000,4,1,1,20,0,1
21106,-100,4,1,1,20,0,1
21320,-41.6666666666667,4,1,1,20,0,1
21344,-333.333333333333,4,1,1,20,0,1
21391,-100,4,1,1,20,0,1
21463,-41.6666666666667,4,1,1,20,0,1
21487,-333.333333333333,4,1,1,20,0,1
21534,-100,4,1,1,20,0,1
21606,-166.666666666667,4,1,1,20,0,1
21844,-33.3333333333333,4,1,1,20,0,1
21891,-166.666666666667,4,1,1,20,0,1
22129,-33.3333333333333,4,1,1,20,0,1
22177,-100,4,1,1,20,0,1
23034,-1000,4,1,1,20,0,1
23070,-52.6315789473684,4,1,1,20,0,1
23106,-1000,4,1,1,20,0,1
23141,-52.6315789473684,4,1,1,20,0,1
23177,-1000,4,1,1,20,0,1
23213,-52.6315789473684,4,1,1,20,0,1
23248,-1000,4,1,1,20,0,1
23284,-52.6315789473684,4,1,1,20,0,1
23320,-1000,4,1,1,20,0,1
23356,-52.6315789473684,4,1,1,20,0,1
23391,-1000,4,1,1,20,0,1
23427,-52.6315789473684,4,1,1,20,0,1
23463,-41.6666666666667,4,1,1,20,0,1
23487,-333.333333333333,4,1,1,20,0,1
23534,-100,4,1,1,20,0,1
23606,-41.6666666666667,4,1,1,20,0,1
23629,-333.333333333333,4,1,1,20,0,1
23677,-100,4,1,1,20,0,1
23748,-41.6666666666667,4,1,1,20,0,1
23772,-333.333333333333,4,1,1,20,0,1
23820,-100,4,1,1,20,0,1
23891,-41.6666666666667,4,1,1,20,0,1
23915,-333.333333333333,4,1,1,20,0,1
23963,-100,4,1,1,20,0,1
24034,-41.6666666666667,4,1,1,20,0,1
24058,-333.333333333333,4,1,1,20,0,1
24106,-100,4,1,1,20,0,1
24177,-41.6666666666667,4,1,1,20,0,1
24201,-333.333333333333,4,1,1,20,0,1
24248,-100,4,1,1,20,0,1
24320,-41.6666666666667,4,1,1,20,0,1
24344,-333.333333333333,4,1,1,20,0,1
24391,-100,4,1,1,20,0,1
24463,-41.6666666666667,4,1,1,20,0,1
24487,-333.333333333333,4,1,1,20,0,1
24534,-100,4,1,1,20,0,1
24606,-35.7142857142857,4,1,1,20,0,1
24629,-1000,4,1,1,20,0,1
24677,-100,4,1,1,20,0,1
25034,-35.7142857142857,4,1,1,20,0,1
25058,-1000,4,1,1,20,0,1
25106,-100,4,1,1,20,0,1
25606,-40,4,1,1,20,0,1
25653,-142.857142857143,4,1,1,20,0,1
25891,-40,4,1,1,20,0,1
25939,-142.857142857143,4,1,1,20,0,1
26177,-40,4,1,1,20,0,1
26225,-142.857142857143,4,1,1,20,0,1
26463,-100,4,1,1,20,0,1
26820,-40,4,1,1,20,0,1
26856,-142.857142857143,4,1,1,20,0,1
27034,-40,4,1,1,20,0,1
27082,-142.857142857143,4,1,1,20,0,1
27320,-40,4,1,1,20,0,1
27344,-142.857142857143,4,1,1,20,0,1
27463,-100,4,1,1,20,0,0
28034,-40,4,1,1,20,0,0
28106,-200,4,1,1,20,0,0
28320,-100,4,1,1,20,0,0
28606,-62.5,4,1,1,20,0,0
28677,-125,4,1,1,20,0,0
28891,-62.5,4,1,1,20,0,0
28963,-125,4,1,1,20,0,0
29177,-62.5,4,1,1,20,0,0
29248,-125,4,1,1,20,0,0
29463,-66.6666666666667,4,1,1,20,0,0
29534,-200,4,1,1,20,0,0
29606,-66.6666666666667,4,1,1,20,0,0
29677,-200,4,1,1,20,0,0
29748,-62.5,4,1,1,20,0,0
29820,-125,4,1,1,20,0,0
30034,-100,4,1,1,20,0,0
37463,-35.7142857142857,4,1,1,20,0,0
37487,-1000,4,1,1,20,0,0
37534,-100,4,1,1,20,0,0
37748,-35.7142857142857,4,1,1,20,0,0
37772,-1000,4,1,1,20,0,0
37820,-100,4,1,1,20,0,0
38034,-35.7142857142857,4,1,1,20,0,0
38058,-1000,4,1,1,20,0,0
38106,-100,4,1,1,20,0,0
38320,-35.7142857142857,4,1,1,20,0,0
38344,-1000,4,1,1,20,0,0
38391,-100,4,1,1,20,0,0
38463,-35.7142857142857,4,1,1,20,0,0
38487,-1000,4,1,1,20,0,0
38534,-100,4,1,1,20,0,0
38606,-35.7142857142857,4,1,1,20,0,0
38629,-1000,4,1,1,20,0,0
38677,-100,4,1,1,20,0,0
38748,-200,4,1,1,20,0,0
38987,-33.3333333333333,4,1,1,20,0,0
39034,-100,4,1,1,20,0,0
39463,-35.7142857142857,4,1,1,20,0,0
39487,-1000,4,1,1,20,0,0
39534,-100,4,1,1,20,0,0
40034,-35.7142857142857,4,1,1,20,0,0
40058,-1000,4,1,1,20,0,0
40106,-100,4,1,1,20,0,0
40606,-35.7142857142857,4,1,1,20,0,0
40629,-1000,4,1,1,20,0,0
40677,-100,4,1,1,20,0,0
40748,-35.7142857142857,4,1,1,20,0,0
40772,-1000,4,1,1,20,0,0
40820,-100,4,1,1,20,0,0
41034,-35.7142857142857,4,1,1,20,0,0
41058,-1000,4,1,1,20,0,0
41106,-100,4,1,1,20,0,0
41320,-35.7142857142857,4,1,1,20,0,0
41344,-1000,4,1,1,20,0,0
41391,-100,4,1,1,20,0,0
41606,-35.7142857142857,4,1,1,20,0,0
41629,-1000,4,1,1,20,0,0
41677,-100,4,1,1,20,0,0
41748,-35.7142857142857,4,1,1,20,0,0
41772,-1000,4,1,1,20,0,0
41820,-100,4,1,1,20,0,0
42034,-41.6666666666667,4,1,1,20,0,0
42058,-333.333333333333,4,1,1,20,0,0
42106,-100,4,1,1,20,0,0
42177,-35.7142857142857,4,1,1,20,0,0
42201,-1000,4,1,1,20,0,0
42248,-100,4,1,1,20,0,0
42463,-41.6666666666667,4,1,1,20,0,0
42487,-333.333333333333,4,1,1,20,0,0
42534,-100,4,1,1,20,0,0
42606,-35.7142857142857,4,1,1,20,0,0
42629,-1000,4,1,1,20,0,0
42677,-100,4,1,1,20,0,0
42891,-35.7142857142857,4,1,1,20,0,0
42915,-1000,4,1,1,20,0,0
42963,-100,4,1,1,20,0,0
43177,-35.7142857142857,4,1,1,20,0,0
43201,-1000,4,1,1,20,0,0
43248,-100,4,1,1,20,0,0
43463,-41.6666666666667,4,1,1,20,0,0
43487,-333.333333333333,4,1,1,20,0,0
43534,-100,4,1,1,20,0,0
43606,-41.6666666666667,4,1,1,20,0,0
43629,-333.333333333333,4,1,1,20,0,0
43677,-100,4,1,1,20,0,0
43748,-35.7142857142857,4,1,1,20,0,0
43772,-1000,4,1,1,20,0,0
43820,-100,4,1,1,20,0,0
44034,-35.7142857142857,4,1,1,20,0,0
44058,-1000,4,1,1,20,0,0
44106,-100,4,1,1,20,0,0
44606,-35.7142857142857,4,1,1,20,0,0
44629,-1000,4,1,1,20,0,0
44677,-100,4,1,1,20,0,0
45034,-35.7142857142857,4,1,1,20,0,0
45058,-1000,4,1,1,20,0,0
45106,-100,4,1,1,20,0,0
45320,-35.7142857142857,4,1,1,20,0,0
45344,-1000,4,1,1,20,0,0
45391,-100,4,1,1,20,0,0
45606,-35.7142857142857,4,1,1,20,0,0
45629,-1000,4,1,1,20,0,0
45677,-100,4,1,1,20,0,0
45748,-38.4615384615385,4,1,1,20,0,0
45772,-500,4,1,1,20,0,0
45820,-100,4,1,1,20,0,0
46320,-35.7142857142857,4,1,1,20,0,0
46344,-1000,4,1,1,20,0,0
46391,-100,4,1,1,20,0,0
46463,-35.7142857142857,4,1,1,20,0,0
46487,-1000,4,1,1,20,0,0
46534,-100,4,1,1,20,0,0
46891,-35.7142857142857,4,1,1,20,0,0
46915,-1000,4,1,1,20,0,0
46963,-100,4,1,1,20,0,0
47034,-35.7142857142857,4,1,1,20,0,0
47058,-1000,4,1,1,20,0,0
47106,-100,4,1,1,20,0,0
47748,-50,4,1,1,20,0,0
47796,-200,4,1,1,20,0,0
47891,-100,4,1,1,20,0,0
48606,-35.7142857142857,4,1,1,20,0,1
48629,-1000,4,1,1,20,0,1
48677,-100,4,1,1,20,0,1
49034,-52.6315789473684,4,1,1,20,0,1
49058,-1000,4,1,1,20,0,1
49082,-100,4,1,1,20,0,1
49320,-35.7142857142857,4,1,1,20,0,1
49344,-1000,4,1,1,20,0,1
49391,-100,4,1,1,20,0,1
49606,-52.6315789473684,4,1,1,20,0,1
49629,-1000,4,1,1,20,0,1
49653,-100,4,1,1,20,0,1
50891,-35.7142857142857,4,1,1,20,0,1
50915,-1000,4,1,1,20,0,1
50963,-100,4,1,1,20,0,1
51320,-52.6315789473684,4,1,1,20,0,1
51344,-1000,4,1,1,20,0,1
51367,-100,4,1,1,20,0,1
51606,-35.7142857142857,4,1,1,20,0,1
51629,-1000,4,1,1,20,0,1
51677,-100,4,1,1,20,0,1
51891,-52.6315789473684,4,1,1,20,0,1
51915,-1000,4,1,1,20,0,1
51939,-100,4,1,1,20,0,1
53177,-35.7142857142857,4,1,1,20,0,1
53201,-1000,4,1,1,20,0,1
53248,-100,4,1,1,20,0,1
53891,-35.7142857142857,4,1,1,20,0,1
53915,-1000,4,1,1,20,0,1
53963,-100,4,1,1,20,0,1
54177,-333.333333333333,4,1,1,20,0,1
54415,-22.2222222222222,4,1,1,20,0,1
54463,-100,4,1,1,20,0,1
54891,-35.7142857142857,4,1,1,20,0,1
54915,-1000,4,1,1,20,0,1
54963,-100,4,1,1,20,0,1
55034,-35.7142857142857,4,1,1,20,0,1
55058,-1000,4,1,1,20,0,1
55106,-100,4,1,1,20,0,1
55177,-35.7142857142857,4,1,1,20,0,1
55201,-1000,4,1,1,20,0,1
55248,-100,4,1,1,20,0,1
55320,-52.6315789473684,4,1,1,20,0,1
55344,-1000,4,1,1,20,0,1
55367,-100,4,1,1,20,0,1
55606,-52.6315789473684,4,1,1,20,0,1
55629,-1000,4,1,1,20,0,1
55653,-100,4,1,1,20,0,1
55748,-35.7142857142857,4,1,1,20,0,1
55772,-1000,4,1,1,20,0,1
55820,-100,4,1,1,20,0,1
55891,-35.7142857142857,4,1,1,20,0,1
55915,-1000,4,1,1,20,0,1
55963,-100,4,1,1,20,0,1
56034,-52.6315789473684,4,1,1,20,0,1
56058,-1000,4,1,1,20,0,1
56082,-100,4,1,1,20,0,1
56177,-52.6315789473684,4,1,1,20,0,1
56201,-1000,4,1,1,20,0,1
56225,-100,4,1,1,20,0,1
56320,-52.6315789473684,4,1,1,20,0,1
56344,-1000,4,1,1,20,0,1
56367,-100,4,1,1,20,0,1
56463,-52.6315789473684,4,1,1,20,0,1
56487,-1000,4,1,1,20,0,1
56510,-100,4,1,1,20,0,1
57177,-100,4,1,1,20,0,0
57177,-28.5714285714286,4,1,1,20,0,0
57213,-200,4,1,1,20,0,0
57391,-100,4,1,1,20,0,0
57820,-100,4,1,1,10,0,0
76034,-100,4,1,1,20,0,0
79391,-22.2222222222222,4,1,1,20,0,0
79427,-333.333333333333,4,1,1,20,0,0
79606,-100,4,1,1,20,0,0
79677,-22.2222222222222,4,1,1,20,0,0
79713,-333.333333333333,4,1,1,20,0,0
79891,-100,4,1,1,20,0,0
80177,-40,4,1,1,20,0,0
80201,-142.857142857143,4,1,1,20,0,0
80320,-40,4,1,1,20,0,0
80344,-142.857142857143,4,1,1,20,0,0
80463,-40,4,1,1,20,0,0
80487,-142.857142857143,4,1,1,20,0,0
80606,-100,4,1,1,10,0,0
82748,-100,4,1,1,15,0,0
84034,-29.4117647058824,4,1,1,15,0,0
84070,-500,4,1,1,15,0,0
84177,-100,4,1,1,15,0,0
85177,-35.7142857142857,4,1,1,20,0,1
85201,-1000,4,1,1,20,0,1
85248,-100,4,1,1,20,0,1
85463,-35.7142857142857,4,1,1,20,0,1
85487,-1000,4,1,1,20,0,1
85534,-100,4,1,1,20,0,1
85748,-35.7142857142857,4,1,1,20,0,1
85772,-1000,4,1,1,20,0,1
85820,-100,4,1,1,20,0,1
86034,-35.7142857142857,4,1,1,20,0,1
86058,-1000,4,1,1,20,0,1
86106,-100,4,1,1,20,0,1
86177,-35.7142857142857,4,1,1,20,0,1
86201,-1000,4,1,1,20,0,1
86248,-100,4,1,1,20,0,1
86463,-35.7142857142857,4,1,1,20,0,1
86487,-1000,4,1,1,20,0,1
86534,-100,4,1,1,20,0,1
86748,-35.7142857142857,4,1,1,20,0,1
86772,-1000,4,1,1,20,0,1
86820,-100,4,1,1,20,0,1
87034,-35.7142857142857,4,1,1,20,0,1
87058,-1000,4,1,1,20,0,1
87106,-100,4,1,1,20,0,1
87320,-35.7142857142857,4,1,1,20,0,1
87344,-1000,4,1,1,20,0,1
87391,-100,4,1,1,20,0,1
87606,-41.6666666666667,4,1,1,20,0,1
87629,-333.333333333333,4,1,1,20,0,1
87677,-100,4,1,1,20,0,1
87748,-41.6666666666667,4,1,1,20,0,1
87772,-333.333333333333,4,1,1,20,0,1
87820,-100,4,1,1,20,0,1
87891,-41.6666666666667,4,1,1,20,0,1
87915,-333.333333333333,4,1,1,20,0,1
87963,-100,4,1,1,20,0,1
88034,-41.6666666666667,4,1,1,20,0,1
88058,-333.333333333333,4,1,1,20,0,1
88106,-100,4,1,1,20,0,1
88177,-41.6666666666667,4,1,1,20,0,1
88201,-333.333333333333,4,1,1,20,0,1
88248,-100,4,1,1,20,0,1
88463,-35.7142857142857,4,1,1,20,0,1
88487,-1000,4,1,1,20,0,1
88534,-100,4,1,1,20,0,1
88748,-35.7142857142857,4,1,1,20,0,1
88772,-1000,4,1,1,20,0,1
88820,-100,4,1,1,20,0,1
89034,-35.7142857142857,4,1,1,20,0,1
89058,-1000,4,1,1,20,0,1
89106,-100,4,1,1,20,0,1
89320,-41.6666666666667,4,1,1,20,0,1
89344,-333.333333333333,4,1,1,20,0,1
89391,-100,4,1,1,20,0,1
89463,-41.6666666666667,4,1,1,20,0,1
89487,-333.333333333333,4,1,1,20,0,1
89534,-100,4,1,1,20,0,1
89606,-41.6666666666667,4,1,1,20,0,1
89629,-333.333333333333,4,1,1,20,0,1
89677,-100,4,1,1,20,0,1
89748,-35.7142857142857,4,1,1,20,0,1
89772,-1000,4,1,1,20,0,1
89820,-100,4,1,1,20,0,1
90034,-35.7142857142857,4,1,1,20,0,1
90058,-1000,4,1,1,20,0,1
90106,-100,4,1,1,20,0,1
90320,-35.7142857142857,4,1,1,20,0,1
90344,-1000,4,1,1,20,0,1
90391,-100,4,1,1,20,0,1
90606,-35.7142857142857,4,1,1,20,0,1
90629,-1000,4,1,1,20,0,1
90677,-100,4,1,1,20,0,1
90748,-35.7142857142857,4,1,1,20,0,1
90772,-1000,4,1,1,20,0,1
90820,-100,4,1,1,20,0,1
91034,-35.7142857142857,4,1,1,20,0,1
91058,-1000,4,1,1,20,0,1
91106,-100,4,1,1,20,0,1
91320,-35.7142857142857,4,1,1,20,0,1
91344,-1000,4,1,1,20,0,1
91391,-100,4,1,1,20,0,1
91606,-35.7142857142857,4,1,1,20,0,1
91629,-1000,4,1,1,20,0,1
91677,-100,4,1,1,20,0,1
91891,-35.7142857142857,4,1,1,20,0,1
91915,-1000,4,1,1,20,0,1
91963,-100,4,1,1,20,0,1
92177,-41.6666666666667,4,1,1,20,0,1
92201,-333.333333333333,4,1,1,20,0,1
92248,-100,4,1,1,20,0,1
92320,-41.6666666666667,4,1,1,20,0,1
92344,-333.333333333333,4,1,1,20,0,1
92391,-100,4,1,1,20,0,1
92463,-41.6666666666667,4,1,1,20,0,1
92487,-333.333333333333,4,1,1,20,0,1
92534,-100,4,1,1,20,0,1
92606,-41.6666666666667,4,1,1,20,0,1
92629,-333.333333333333,4,1,1,20,0,1
92677,-100,4,1,1,20,0,1
92891,-35.7142857142857,4,1,1,20,0,1
92915,-1000,4,1,1,20,0,1
92963,-100,4,1,1,20,0,1
93034,-33.3333333333333,4,1,1,20,0,1
93082,-166.666666666667,4,1,1,20,0,1
93320,-35.7142857142857,4,1,1,20,0,1
93320,-100,4,1,1,20,0,1
93344,-1000,4,1,1,20,0,1
93391,-100,4,1,1,20,0,1
93606,-35.7142857142857,4,1,1,20,0,1
93629,-1000,4,1,1,20,0,1
93677,-100,4,1,1,20,0,1
93748,-35.7142857142857,4,1,1,20,0,1
93772,-1000,4,1,1,20,0,1
93820,-100,4,1,1,20,0,1
93891,-35.7142857142857,4,1,1,20,0,1
93915,-1000,4,1,1,20,0,1
93963,-100,4,1,1,20,0,1
94034,-35.7142857142857,4,1,1,20,0,1
94058,-1000,4,1,1,20,0,1
94106,-100,4,1,1,20,0,1
94320,-200,4,1,1,20,0,1
94570,-22.2222222222222,4,1,1,20,0,1
94606,-35.7142857142857,4,1,1,20,0,1
94629,-1000,4,1,1,20,0,1
94677,-100,4,1,1,20,0,1
94891,-35.7142857142857,4,1,1,20,0,1
94915,-1000,4,1,1,20,0,1
94963,-100,4,1,1,20,0,1
95177,-35.7142857142857,4,1,1,20,0,1
95201,-1000,4,1,1,20,0,1
95248,-100,4,1,1,20,0,1
95320,-35.7142857142857,4,1,1,20,0,1
95344,-1000,4,1,1,20,0,1
95391,-100,4,1,1,20,0,1
95606,-35.7142857142857,4,1,1,20,0,1
95629,-1000,4,1,1,20,0,1
95677,-100,4,1,1,20,0,1
95891,-35.7142857142857,4,1,1,20,0,1
95915,-1000,4,1,1,20,0,1
95963,-100,4,1,1,20,0,1
96177,-35.7142857142857,4,1,1,20,0,1
96201,-1000,4,1,1,20,0,1
96248,-100,4,1,1,20,0,1
96463,-35.7142857142857,4,1,1,20,0,1
96487,-1000,4,1,1,20,0,1
96534,-100,4,1,1,20,0,1
96748,-41.6666666666667,4,1,1,20,0,1
96772,-333.333333333333,4,1,1,20,0,1
96820,-100,4,1,1,20,0,1
96891,-41.6666666666667,4,1,1,20,0,1
96915,-333.333333333333,4,1,1,20,0,1
96963,-100,4,1,1,20,0,1
97034,-166.666666666667,4,1,1,20,0,1
97272,-33.3333333333333,4,1,1,20,0,1
97320,-166.666666666667,4,1,1,20,0,1
97558,-33.3333333333333,4,1,1,20,0,1
97606,-100,4,1,1,20,0,1
98463,-1000,4,1,1,20,0,1
98498,-52.6315789473684,4,1,1,20,0,1
98534,-1000,4,1,1,20,0,1
98570,-52.6315789473684,4,1,1,20,0,1
98606,-1000,4,1,1,20,0,1
98641,-52.6315789473684,4,1,1,20,0,1
98677,-1000,4,1,1,20,0,1
98713,-52.6315789473684,4,1,1,20,0,1
98748,-1000,4,1,1,20,0,1
98784,-52.6315789473684,4,1,1,20,0,1
98820,-1000,4,1,1,20,0,1
98856,-52.6315789473684,4,1,1,20,0,1
98891,-41.6666666666667,4,1,1,20,0,1
98915,-333.333333333333,4,1,1,20,0,1
98963,-100,4,1,1,20,0,1
99034,-41.6666666666667,4,1,1,20,0,1
99058,-333.333333333333,4,1,1,20,0,1
99106,-100,4,1,1,20,0,1
99177,-41.6666666666667,4,1,1,20,0,1
99201,-333.333333333333,4,1,1,20,0,1
99248,-100,4,1,1,20,0,1
99320,-41.6666666666667,4,1,1,20,0,1
99344,-333.333333333333,4,1,1,20,0,1
99391,-100,4,1,1,20,0,1
99463,-41.6666666666667,4,1,1,20,0,1
99487,-333.333333333333,4,1,1,20,0,1
99534,-100,4,1,1,20,0,1
99606,-41.6666666666667,4,1,1,20,0,1
99629,-333.333333333333,4,1,1,20,0,1
99677,-100,4,1,1,20,0,1
99748,-41.6666666666667,4,1,1,20,0,1
99772,-333.333333333333,4,1,1,20,0,1
99820,-100,4,1,1,20,0,1
99891,-41.6666666666667,4,1,1,20,0,1
99915,-333.333333333333,4,1,1,20,0,1
99963,-100,4,1,1,20,0,1
100463,-35.7142857142857,4,1,1,20,0,1
100487,-1000,4,1,1,20,0,1
100534,-100,4,1,1,20,0,1
101034,-40,4,1,1,20,0,1
101082,-142.857142857143,4,1,1,20,0,1
101320,-40,4,1,1,20,0,1
101367,-142.857142857143,4,1,1,20,0,1
101606,-40,4,1,1,20,0,1
101653,-142.857142857143,4,1,1,20,0,1
101891,-100,4,1,1,20,0,1
102248,-40,4,1,1,20,0,1
102284,-142.857142857143,4,1,1,20,0,1
102463,-40,4,1,1,20,0,1
102510,-142.857142857143,4,1,1,20,0,1
102748,-40,4,1,1,20,0,1
102772,-142.857142857143,4,1,1,20,0,1
102891,-100,4,1,1,20,0,0
103463,-35.7142857142857,4,1,1,20,0,1
103487,-1000,4,1,1,20,0,1
103534,-100,4,1,1,20,0,1
103891,-52.6315789473684,4,1,1,20,0,1
103915,-1000,4,1,1,20,0,1
103939,-100,4,1,1,20,0,1
104177,-35.7142857142857,4,1,1,20,0,1
104201,-1000,4,1,1,20,0,1
104248,-100,4,1,1,20,0,1
104463,-52.6315789473684,4,1,1,20,0,1
104487,-1000,4,1,1,20,0,1
104510,-100,4,1,1,20,0,1
105748,-35.7142857142857,4,1,1,20,0,1
105772,-1000,4,1,1,20,0,1
105820,-100,4,1,1,20,0,1
106177,-52.6315789473684,4,1,1,20,0,1
106201,-1000,4,1,1,20,0,1
106225,-100,4,1,1,20,0,1
106463,-35.7142857142857,4,1,1,20,0,1
106487,-1000,4,1,1,20,0,1
106534,-100,4,1,1,20,0,1
106748,-52.6315789473684,4,1,1,20,0,1
106772,-1000,4,1,1,20,0,1
106796,-100,4,1,1,20,0,1
108034,-35.7142857142857,4,1,1,20,0,1
108058,-1000,4,1,1,20,0,1
108106,-100,4,1,1,20,0,1
108748,-35.7142857142857,4,1,1,20,0,1
108772,-1000,4,1,1,20,0,1
108820,-100,4,1,1,20,0,1
109034,-200,4,1,1,20,0,1
109272,-28.5714285714286,4,1,1,20,0,1
109320,-100,4,1,1,20,0,1
109748,-35.7142857142857,4,1,1,20,0,1
109772,-1000,4,1,1,20,0,1
109820,-100,4,1,1,20,0,1
109891,-35.7142857142857,4,1,1,20,0,1
109915,-1000,4,1,1,20,0,1
109963,-100,4,1,1,20,0,1
110034,-35.7142857142857,4,1,1,20,0,1
110058,-1000,4,1,1,20,0,1
110106,-100,4,1,1,20,0,1
110177,-52.6315789473684,4,1,1,20,0,1
110201,-1000,4,1,1,20,0,1
110225,-100,4,1,1,20,0,1
110463,-52.6315789473684,4,1,1,20,0,1
110487,-1000,4,1,1,20,0,1
110510,-100,4,1,1,20,0,1
110606,-35.7142857142857,4,1,1,20,0,1
110629,-1000,4,1,1,20,0,1
110677,-100,4,1,1,20,0,1
110748,-35.7142857142857,4,1,1,20,0,1
110772,-1000,4,1,1,20,0,1
110820,-100,4,1,1,20,0,1
110891,-52.6315789473684,4,1,1,20,0,1
110915,-1000,4,1,1,20,0,1
110939,-100,4,1,1,20,0,1
111034,-52.6315789473684,4,1,1,20,0,1
111058,-1000,4,1,1,20,0,1
111082,-100,4,1,1,20,0,1
111177,-35.7142857142857,4,1,1,20,0,1
111201,-1000,4,1,1,20,0,1
111248,-100,4,1,1,20,0,1
111320,-35.7142857142857,4,1,1,20,0,1
111344,-1000,4,1,1,20,0,1
111391,-100,4,1,1,20,0,1
111463,-52.6315789473684,4,1,1,20,0,1
111487,-1000,4,1,1,20,0,1
111510,-100,4,1,1,20,0,1
111606,-52.6315789473684,4,1,1,20,0,1
111629,-1000,4,1,1,20,0,1
111653,-100,4,1,1,20,0,1
111748,-35.7142857142857,4,1,1,20,0,1
111772,-1000,4,1,1,20,0,1
111820,-100,4,1,1,20,0,1
111891,-35.7142857142857,4,1,1,20,0,1
111915,-1000,4,1,1,20,0,1
111963,-100,4,1,1,20,0,1
112034,-52.6315789473684,4,1,1,20,0,1
112058,-1000,4,1,1,20,0,1
112082,-100,4,1,1,20,0,1
112177,-52.6315789473684,4,1,1,20,0,1
112201,-1000,4,1,1,20,0,1
112225,-100,4,1,1,20,0,1
112320,-35.7142857142857,4,1,1,20,0,1
112344,-1000,4,1,1,20,0,1
112391,-100,4,1,1,20,0,1
112463,-100,4,1,1,5,0,0

[HitObjects]
192,192,606,5,0,0:0:0:0:
64,192,653,1,0,0:0:0:0:
320,192,701,1,0,0:0:0:0:
192,192,748,1,0,0:0:0:0:
448,192,796,1,0,0:0:0:0:
320,192,844,1,0,0:0:0:0:
64,192,891,1,0,0:0:0:0:
192,192,939,1,0,0:0:0:0:
448,192,987,1,0,0:0:0:0:
64,192,1034,1,0,0:0:0:0:
320,192,1082,1,0,0:0:0:0:
192,192,1129,1,0,0:0:0:0:
448,192,1177,1,0,0:0:0:0:
320,192,1225,1,0,0:0:0:0:
64,192,1272,1,0,0:0:0:0:
192,192,1320,1,0,0:0:0:0:
320,192,1367,1,0,0:0:0:0:
448,192,1415,1,0,0:0:0:0:
192,192,1463,1,0,0:0:0:0:
320,192,1510,1,0,0:0:0:0:
64,192,1558,1,0,0:0:0:0:
448,192,1606,1,0,0:0:0:0:
192,192,1653,1,0,0:0:0:0:
320,192,1701,1,0,0:0:0:0:
64,192,1748,1,0,0:0:0:0:
64,192,1820,1,0,0:0:0:0:
320,192,1891,1,0,0:0:0:0:
192,192,1939,1,0,0:0:0:0:
448,192,1987,1,0,0:0:0:0:
64,192,2034,1,0,0:0:0:0:
192,192,2082,1,0,0:0:0:0:
320,192,2129,1,0,0:0:0:0:
64,192,2177,1,0,0:0:0:0:
448,192,2225,1,0,0:0:0:0:
320,192,2272,1,0,0:0:0:0:
192,192,2320,1,0,0:0:0:0:
192,192,2391,1,0,0:0:0:0:
448,192,2463,1,0,0:0:0:0:
64,192,2510,1,0,0:0:0:0:
192,192,2558,1,0,0:0:0:0:
320,192,2606,1,0,0:0:0:0:
320,192,2677,1,0,0:0:0:0:
64,192,2748,1,0,0:0:0:0:
448,192,2796,1,0,0:0:0:0:
320,192,2844,1,0,0:0:0:0:
192,192,2891,1,0,0:0:0:0:
64,192,2939,1,0,0:0:0:0:
320,192,2987,1,0,0:0:0:0:
192,192,3034,1,0,0:0:0:0:
448,192,3082,1,0,0:0:0:0:
64,192,3129,1,0,0:0:0:0:
192,192,3177,1,0,0:0:0:0:
320,192,3225,1,0,0:0:0:0:
64,192,3272,1,0,0:0:0:0:
448,192,3320,1,0,0:0:0:0:
320,192,3367,1,0,0:0:0:0:
192,192,3415,1,0,0:0:0:0:
448,192,3463,1,0,0:0:0:0:
64,192,3510,1,0,0:0:0:0:
320,192,3558,1,0,0:0:0:0:
192,192,3606,1,0,0:0:0:0:
448,192,3653,1,0,0:0:0:0:
320,192,3701,1,0,0:0:0:0:
64,192,3748,1,0,0:0:0:0:
192,192,3796,1,0,0:0:0:0:
448,192,3844,1,0,0:0:0:0:
320,192,3891,1,0,0:0:0:0:
192,192,3939,1,0,0:0:0:0:
448,192,3987,1,0,0:0:0:0:
64,192,4034,1,0,0:0:0:0:
64,192,4106,1,0,0:0:0:0:
320,192,4177,1,0,0:0:0:0:
192,192,4225,1,0,0:0:0:0:
64,192,4272,1,0,0:0:0:0:
448,192,4320,1,0,0:0:0:0:
448,192,4391,1,0,0:0:0:0:
192,192,4463,1,0,0:0:0:0:
320,192,4510,1,0,0:0:0:0:
448,192,4558,1,0,0:0:0:0:
64,192,4606,1,0,0:0:0:0:
320,192,4653,1,0,0:0:0:0:
192,192,4701,1,0,0:0:0:0:
448,192,4748,1,0,0:0:0:0:
320,192,4796,1,0,0:0:0:0:
64,192,4844,1,0,0:0:0:0:
192,192,4891,1,0,0:0:0:0:
448,192,4939,1,0,0:0:0:0:
64,192,4987,1,0,0:0:0:0:
320,192,5034,1,0,0:0:0:0:
192,192,5082,1,0,0:0:0:0:
448,192,5129,1,0,0:0:0:0:
320,192,5177,1,0,0:0:0:0:
64,192,5225,1,0,0:0:0:0:
192,192,5272,1,0,0:0:0:0:
320,192,5320,1,0,0:0:0:0:
64,192,5367,1,0,0:0:0:0:
448,192,5415,1,0,0:0:0:0:
192,192,5463,1,0,0:0:0:0:
64,192,5510,1,0,0:0:0:0:
320,192,5558,1,0,0:0:0:0:
448,192,5606,1,0,0:0:0:0:
192,192,5653,1,0,0:0:0:0:
320,192,5701,1,0,0:0:0:0:
64,192,5748,1,0,0:0:0:0:
192,192,5796,1,0,0:0:0:0:
448,192,5844,1,0,0:0:0:0:
320,192,5891,1,0,0:0:0:0:
192,192,5939,1,0,0:0:0:0:
448,192,5987,1,0,0:0:0:0:
64,192,6034,1,0,0:0:0:0:
192,192,6082,1,0,0:0:0:0:
320,192,6129,1,0,0:0:0:0:
64,192,6177,1,0,0:0:0:0:
448,192,6225,1,0,0:0:0:0:
320,192,6272,1,0,0:0:0:0:
192,192,6320,1,0,0:0:0:0:
192,192,6391,1,0,0:0:0:0:
448,192,6463,1,0,0:0:0:0:
64,192,6510,1,0,0:0:0:0:
192,192,6558,1,0,0:0:0:0:
448,192,6606,1,0,0:0:0:0:
320,192,6653,1,0,0:0:0:0:
192,192,6701,1,0,0:0:0:0:
448,192,6748,1,0,0:0:0:0:
64,192,6796,1,0,0:0:0:0:
192,192,6844,1,0,0:0:0:0:
320,192,6891,1,0,0:0:0:0:
320,192,6963,1,0,0:0:0:0:
64,192,7034,1,0,0:0:0:0:
192,192,7082,1,0,0:0:0:0:
320,192,7129,1,0,0:0:0:0:
448,192,7177,1,0,0:0:0:0:
448,192,7248,1,0,0:0:0:0:
192,192,7320,1,0,0:0:0:0:
320,192,7367,1,0,0:0:0:0:
448,192,7415,1,0,0:0:0:0:
192,192,7463,1,0,0:0:0:0:
64,192,7510,1,0,0:0:0:0:
320,192,7558,1,0,0:0:0:0:
192,192,7606,1,0,0:0:0:0:
448,192,7653,1,0,0:0:0:0:
64,192,7701,1,0,0:0:0:0:
192,192,7748,1,0,0:0:0:0:
320,192,7796,1,0,0:0:0:0:
448,192,7844,1,0,0:0:0:0:
192,192,7891,1,0,0:0:0:0:
320,192,7939,1,0,0:0:0:0:
64,192,7987,1,0,0:0:0:0:
192,192,8034,1,0,0:0:0:0:
448,192,8082,1,0,0:0:0:0:
320,192,8129,1,0,0:0:0:0:
192,192,8177,1,0,0:0:0:0:
448,192,8225,1,0,0:0:0:0:
64,192,8272,1,0,0:0:0:0:
192,192,8320,1,0,0:0:0:0:
320,192,8367,1,0,0:0:0:0:
64,192,8415,1,0,0:0:0:0:
192,192,8463,1,0,0:0:0:0:
448,192,8510,1,0,0:0:0:0:
320,192,8558,1,0,0:0:0:0:
64,192,8606,1,0,0:0:0:0:
192,192,8606,1,0,0:0:0:0:
448,192,8606,1,0,0:0:0:0:
192,192,8748,1,0,0:0:0:0:
320,192,8820,1,0,0:0:0:0:
448,192,8891,1,0,0:0:0:0:
64,192,9034,1,0,0:0:0:0:
448,192,9177,128,0,9320:0:0:0:0:
320,192,9320,128,0,9391:0:0:0:0:
192,192,9391,128,0,9463:0:0:0:0:
64,192,9463,128,0,9748:0:0:0:0:
448,192,9463,128,0,9534:0:0:0:0:
448,192,9606,128,0,9677:0:0:0:0:
192,192,9748,1,0,0:0:0:0:
320,192,9748,1,0,0:0:0:0:
448,192,9748,1,0,0:0:0:0:
64,192,9820,1,0,0:0:0:0:
320,192,9891,1,0,0:0:0:0:
192,192,9963,1,0,0:0:0:0:
64,192,10034,1,0,0:0:0:0:
320,192,10034,1,0,0:0:0:0:
448,192,10034,1,0,0:0:0:0:
192,192,10106,1,0,0:0:0:0:
448,192,10177,1,0,0:0:0:0:
320,192,10248,1,0,0:0:0:0:
64,192,10320,1,0,0:0:0:0:
192,192,10320,1,0,0:0:0:0:
448,192,10320,1,0,0:0:0:0:
320,192,10391,1,0,0:0:0:0:
64,192,10463,1,0,0:0:0:0:
448,192,10534,1,0,0:0:0:0:
64,192,10606,1,0,0:0:0:0:
192,192,10606,1,0,0:0:0:0:
320,192,10606,1,0,0:0:0:0:
448,192,10677,1,0,0:0:0:0:
192,192,10748,1,0,0:0:0:0:
320,192,10748,1,0,0:0:0:0:
64,192,10820,1,0,0:0:0:0:
448,192,10891,1,0,0:0:0:0:
320,192,10963,1,0,0:0:0:0:
192,192,11034,1,0,0:0:0:0:
448,192,11034,1,0,0:0:0:0:
64,192,11106,1,0,0:0:0:0:
448,192,11177,1,0,0:0:0:0:
192,192,11248,1,0,0:0:0:0:
320,192,11320,1,0,0:0:0:0:
64,192,11320,1,0,0:0:0:0:
448,192,11391,1,0,0:0:0:0:
64,192,11463,1,0,0:0:0:0:
192,192,11463,1,0,0:0:0:0:
320,192,11534,1,0,0:0:0:0:
64,192,11606,1,0,0:0:0:0:
448,192,11606,1,0,0:0:0:0:
320,192,11677,1,0,0:0:0:0:
64,192,11748,1,0,0:0:0:0:
192,192,11748,1,0,0:0:0:0:
320,192,11820,1,0,0:0:0:0:
448,192,11891,1,0,0:0:0:0:
192,192,11891,1,0,0:0:0:0:
64,192,11963,1,0,0:0:0:0:
320,192,12034,1,0,0:0:0:0:
448,192,12034,1,0,0:0:0:0:
192,192,12106,1,0,0:0:0:0:
64,192,12177,1,0,0:0:0:0:
448,192,12177,1,0,0:0:0:0:
320,192,12248,1,0,0:0:0:0:
192,192,12320,1,0,0:0:0:0:
448,192,12320,1,0,0:0:0:0:
64,192,12391,1,0,0:0:0:0:
192,192,12463,1,0,0:0:0:0:
320,192,12463,1,0,0:0:0:0:
448,192,12534,1,0,0:0:0:0:
64,192,12606,1,0,0:0:0:0:
320,192,12606,1,0,0:0:0:0:
192,192,12677,1,0,0:0:0:0:
448,192,12748,1,0,0:0:0:0:
64,192,12748,1,0,0:0:0:0:
320,192,12820,1,0,0:0:0:0:
64,192,12891,1,0,0:0:0:0:
192,192,12891,1,0,0:0:0:0:
448,192,12963,1,0,0:0:0:0:
320,192,13034,1,0,0:0:0:0:
192,192,13034,1,0,0:0:0:0:
64,192,13106,1,0,0:0:0:0:
320,192,13177,1,0,0:0:0:0:
448,192,13177,1,0,0:0:0:0:
192,192,13248,1,0,0:0:0:0:
64,192,13320,1,0,0:0:0:0:
448,192,13320,1,0,0:0:0:0:
192,192,13391,1,0,0:0:0:0:
320,192,13463,1,0,0:0:0:0:
448,192,13463,1,0,0:0:0:0:
64,192,13534,1,0,0:0:0:0:
192,192,13606,1,0,0:0:0:0:
448,192,13606,1,0,0:0:0:0:
320,192,13677,1,0,0:0:0:0:
64,192,13748,1,0,0:0:0:0:
448,192,13748,1,0,0:0:0:0:
192,192,13820,1,0,0:0:0:0:
64,192,13891,1,0,0:0:0:0:
320,192,13891,1,0,0:0:0:0:
448,192,13963,1,0,0:0:0:0:
64,192,14034,1,0,0:0:0:0:
192,192,14034,1,0,0:0:0:0:
320,192,14106,1,0,0:0:0:0:
64,192,14177,1,0,0:0:0:0:
192,192,14177,1,0,0:0:0:0:
448,192,14248,1,0,0:0:0:0:
64,192,14320,1,0,0:0:0:0:
192,192,14320,1,0,0:0:0:0:
320,192,14320,1,0,0:0:0:0:
448,192,14391,1,0,0:0:0:0:
320,192,14463,1,0,0:0:0:0:
192,192,14534,1,0,0:0:0:0:
64,192,14606,1,0,0:0:0:0:
320,192,14606,1,0,0:0:0:0:
448,192,14606,1,0,0:0:0:0:
192,192,14677,1,0,0:0:0:0:
320,192,14748,1,0,0:0:0:0:
448,192,14820,1,0,0:0:0:0:
64,192,14891,1,0,0:0:0:0:
192,192,14891,1,0,0:0:0:0:
320,192,14891,1,0,0:0:0:0:
448,192,14963,1,0,0:0:0:0:
192,192,15034,1,0,0:0:0:0:
320,192,15106,1,0,0:0:0:0:
64,192,15177,1,0,0:0:0:0:
192,192,15177,1,0,0:0:0:0:
448,192,15177,1,0,0:0:0:0:
320,192,15248,1,0,0:0:0:0:
64,192,15320,1,0,0:0:0:0:
448,192,15320,1,0,0:0:0:0:
192,192,15391,1,0,0:0:0:0:
320,192,15463,1,0,0:0:0:0:
64,192,15534,1,0,0:0:0:0:
192,192,15606,1,0,0:0:0:0:
448,192,15606,1,0,0:0:0:0:
320,192,15677,1,0,0:0:0:0:
64,192,15748,1,0,0:0:0:0:
448,192,15820,1,0,0:0:0:0:
192,192,15891,1,0,0:0:0:0:
320,192,15891,1,0,0:0:0:0:
64,192,15963,1,0,0:0:0:0:
320,192,16034,1,0,0:0:0:0:
448,192,16034,1,0,0:0:0:0:
192,192,16106,1,0,0:0:0:0:
64,192,16177,1,0,0:0:0:0:
448,192,16177,1,0,0:0:0:0:
192,192,16248,1,0,0:0:0:0:
320,192,16320,1,0,0:0:0:0:
448,192,16320,1,0,0:0:0:0:
64,192,16391,1,0,0:0:0:0:
192,192,16463,1,0,0:0:0:0:
448,192,16463,1,0,0:0:0:0:
320,192,16534,1,0,0:0:0:0:
64,192,16606,1,0,0:0:0:0:
192,192,16606,1,0,0:0:0:0:
448,192,16677,1,0,0:0:0:0:
192,192,16748,1,0,0:0:0:0:
320,192,16748,1,0,0:0:0:0:
64,192,16820,1,0,0:0:0:0:
192,192,16891,1,0,0:0:0:0:
320,192,16891,1,0,0:0:0:0:
448,192,16963,1,0,0:0:0:0:
64,192,17034,1,0,0:0:0:0:
192,192,17034,1,0,0:0:0:0:
320,192,17106,1,0,0:0:0:0:
448,192,17177,1,0,0:0:0:0:
192,192,17177,1,0,0:0:0:0:
64,192,17248,1,0,0:0:0:0:
192,192,17320,1,0,0:0:0:0:
320,192,17320,1,0,0:0:0:0:
448,192,17391,1,0,0:0:0:0:
64,192,17463,1,0,0:0:0:0:
192,192,17463,1,0,0:0:0:0:
320,192,17534,1,0,0:0:0:0:
448,192,17606,1,0,0:0:0:0:
192,192,17606,1,0,0:0:0:0:
64,192,17606,1,0,0:0:0:0:
192,192,17891,1,0,0:0:0:0:
320,192,17891,1,0,0:0:0:0:
448,192,17891,1,0,0:0:0:0:
64,192,18034,1,0,0:0:0:0:
192,192,18058,1,0,0:0:0:0:
320,192,18082,1,0,0:0:0:0:
448,192,18106,1,0,0:0:0:0:
64,192,18129,1,0,0:0:0:0:
192,192,18153,1,0,0:0:0:0:
320,192,18177,1,0,0:0:0:0:
448,192,18177,1,0,0:0:0:0:
64,192,18320,1,0,0:0:0:0:
448,192,18320,1,0,0:0:0:0:
320,192,18320,1,0,0:0:0:0:
320,192,18463,1,0,0:0:0:0:
448,192,18463,1,0,0:0:0:0:
192,192,18463,1,0,0:0:0:0:
64,192,18606,1,0,0:0:0:0:
448,192,18606,1,0,0:0:0:0:
192,192,18606,1,0,0:0:0:0:
64,192,18748,1,0,0:0:0:0:
448,192,18748,1,0,0:0:0:0:
320,192,18748,1,0,0:0:0:0:
448,192,18820,1,0,0:0:0:0:
320,192,18820,1,0,0:0:0:0:
192,192,18891,1,0,0:0:0:0:
64,192,18891,128,0,19177:0:0:0:0:
320,192,19177,1,0,0:0:0:0:
448,192,19177,1,0,0:0:0:0:
192,192,19248,1,0,0:0:0:0:
64,192,19320,1,0,0:0:0:0:
320,192,19391,1,0,0:0:0:0:
64,192,19463,1,0,0:0:0:0:
192,192,19463,1,0,0:0:0:0:
448,192,19463,1,0,0:0:0:0:
320,192,19534,1,0,0:0:0:0:
192,192,19606,1,0,0:0:0:0:
64,192,19677,1,0,0:0:0:0:
320,192,19748,1,0,0:0:0:0:
448,192,19748,1,0,0:0:0:0:
192,192,19748,1,0,0:0:0:0:
64,192,19820,1,0,0:0:0:0:
320,192,19891,1,0,0:0:0:0:
448,192,19891,1,0,0:0:0:0:
192,192,19963,1,0,0:0:0:0:
64,192,20034,1,0,0:0:0:0:
448,192,20034,1,0,0:0:0:0:
320,192,20106,1,0,0:0:0:0:
192,192,20177,1,0,0:0:0:0:
448,192,20177,1,0,0:0:0:0:
64,192,20248,1,0,0:0:0:0:
320,192,20320,1,0,0:0:0:0:
448,192,20320,1,0,0:0:0:0:
192,192,20391,1,0,0:0:0:0:
320,192,20463,1,0,0:0:0:0:
64,192,20463,1,0,0:0:0:0:
192,192,20534,1,0,0:0:0:0:
320,192,20606,1,0,0:0:0:0:
448,192,20606,1,0,0:0:0:0:
64,192,20677,1,0,0:0:0:0:
192,192,20748,1,0,0:0:0:0:
448,192,20748,1,0,0:0:0:0:
320,192,20820,1,0,0:0:0:0:
64,192,20891,1,0,0:0:0:0:
192,192,20891,1,0,0:0:0:0:
448,192,20963,1,0,0:0:0:0:
64,192,21034,1,0,0:0:0:0:
320,192,21034,1,0,0:0:0:0:
192,192,21106,1,0,0:0:0:0:
320,192,21177,1,0,0:0:0:0:
448,192,21177,1,0,0:0:0:0:
64,192,21248,1,0,0:0:0:0:
320,192,21320,1,0,0:0:0:0:
192,192,21320,1,0,0:0:0:0:
448,192,21391,1,0,0:0:0:0:
64,192,21463,1,0,0:0:0:0:
192,192,21463,1,0,0:0:0:0:
320,192,21534,1,0,0:0:0:0:
64,192,21606,1,0,0:0:0:0:
192,192,21606,1,0,0:0:0:0:
448,192,21606,1,0,0:0:0:0:
192,192,21891,1,0,0:0:0:0:
320,192,21891,1,0,0:0:0:0:
448,192,21891,1,0,0:0:0:0:
320,192,22177,1,0,0:0:0:0:
192,192,22177,128,0,22748:0:0:0:0:
64,192,22177,1,0,0:0:0:0:
448,192,22748,1,0,0:0:0:0:
320,192,22748,128,0,23034:0:0:0:0:
64,192,22748,1,0,0:0:0:0:
192,192,23034,1,0,0:0:0:0:
448,192,23034,1,0,0:0:0:0:
64,192,23106,1,0,0:0:0:0:
320,192,23106,1,0,0:0:0:0:
320,192,23177,1,0,0:0:0:0:
448,192,23177,1,0,0:0:0:0:
64,192,23248,1,0,0:0:0:0:
192,192,23248,1,0,0:0:0:0:
64,192,23320,1,0,0:0:0:0:
448,192,23320,1,0,0:0:0:0:
320,192,23391,1,0,0:0:0:0:
192,192,23391,1,0,0:0:0:0:
64,192,23463,1,0,0:0:0:0:
320,192,23463,1,0,0:0:0:0:
448,192,23463,1,0,0:0:0:0:
192,192,23534,1,0,0:0:0:0:
64,192,23606,1,0,0:0:0:0:
320,192,23606,1,0,0:0:0:0:
448,192,23677,1,0,0:0:0:0:
192,192,23748,1,0,0:0:0:0:
320,192,23748,1,0,0:0:0:0:
64,192,23748,1,0,0:0:0:0:
448,192,23820,1,0,0:0:0:0:
192,192,23891,1,0,0:0:0:0:
320,192,23891,1,0,0:0:0:0:
64,192,23963,1,0,0:0:0:0:
192,192,24034,1,0,0:0:0:0:
320,192,24034,1,0,0:0:0:0:
448,192,24034,1,0,0:0:0:0:
64,192,24106,1,0,0:0:0:0:
448,192,24177,1,0,0:0:0:0:
192,192,24177,1,0,0:0:0:0:
320,192,24248,1,0,0:0:0:0:
64,192,24320,1,0,0:0:0:0:
192,192,24320,1,0,0:0:0:0:
448,192,24320,1,0,0:0:0:0:
320,192,24391,1,0,0:0:0:0:
64,192,24463,1,0,0:0:0:0:
192,192,24463,1,0,0:0:0:0:
448,192,24534,1,0,0:0:0:0:
192,192,24606,1,0,0:0:0:0:
64,192,24606,1,0,0:0:0:0:
320,192,24606,1,0,0:0:0:0:
448,192,24677,1,0,0:0:0:0:
320,192,24748,1,0,0:0:0:0:
192,192,24820,1,0,0:0:0:0:
320,192,24891,1,0,0:0:0:0:
448,192,24891,1,0,0:0:0:0:
64,192,24891,1,0,0:0:0:0:
192,192,24963,1,0,0:0:0:0:
64,192,25034,1,0,0:0:0:0:
448,192,25034,1,0,0:0:0:0:
320,192,25106,1,0,0:0:0:0:
64,192,25177,1,0,0:0:0:0:
192,192,25201,1,0,0:0:0:0:
320,192,25225,1,0,0:0:0:0:
448,192,25248,1,0,0:0:0:0:
64,192,25272,1,0,0:0:0:0:
192,192,25296,1,0,0:0:0:0:
320,192,25320,1,0,0:0:0:0:
448,192,25320,1,0,0:0:0:0:
64,192,25391,1,0,0:0:0:0:
192,192,25463,1,0,0:0:0:0:
320,192,25463,1,0,0:0:0:0:
448,192,25463,1,0,0:0:0:0:
64,192,25534,1,0,0:0:0:0:
192,192,25606,1,0,0:0:0:0:
320,192,25606,1,0,0:0:0:0:
448,192,25606,1,0,0:0:0:0:
64,192,25891,1,0,0:0:0:0:
192,192,25891,1,0,0:0:0:0:
448,192,25891,1,0,0:0:0:0:
64,192,26177,1,0,0:0:0:0:
320,192,26177,1,0,0:0:0:0:
448,192,26177,1,0,0:0:0:0:
448,192,26463,1,0,0:0:0:0:
320,192,26487,1,0,0:0:0:0:
192,192,26510,1,0,0:0:0:0:
64,192,26534,1,0,0:0:0:0:
448,192,26558,1,0,0:0:0:0:
320,192,26582,1,0,0:0:0:0:
192,192,26606,1,0,0:0:0:0:
448,192,26641,1,0,0:0:0:0:
64,192,26677,1,0,0:0:0:0:
192,192,26713,1,0,0:0:0:0:
320,192,26748,1,0,0:0:0:0:
448,192,26748,1,0,0:0:0:0:
64,192,26820,1,0,0:0:0:0:
192,192,26820,1,0,0:0:0:0:
64,192,27034,1,0,0:0:0:0:
192,192,27034,1,0,0:0:0:0:
320,192,27034,1,0,0:0:0:0:
64,192,27320,1,0,0:0:0:0:
448,192,27320,1,0,0:0:0:0:
192,192,27320,1,0,0:0:0:0:
64,192,27463,1,0,0:0:0:0:
320,192,27463,1,0,0:0:0:0:
448,192,27463,1,0,0:0:0:0:
448,192,27748,128,0,28034:0:0:0:0:
64,192,28034,1,0,0:0:0:0:
192,192,28034,1,0,0:0:0:0:
448,192,28320,128,0,28606:0:0:0:0:
64,192,28606,1,0,0:0:0:0:
192,192,28606,1,0,0:0:0:0:
320,192,28606,1,0,0:0:0:0:
64,192,28891,1,0,0:0:0:0:
192,192,28891,1,0,0:0:0:0:
448,192,28891,1,0,0:0:0:0:
64,192,29177,1,0,0:0:0:0:
320,192,29177,1,0,0:0:0:0:
448,192,29177,1,0,0:0:0:0:
64,192,29463,1,0,0:0:0:0:
192,192,29463,1,0,0:0:0:0:
448,192,29463,1,0,0:0:0:0:
64,192,29606,1,0,0:0:0:0:
320,192,29606,1,0,0:0:0:0:
448,192,29606,1,0,0:0:0:0:
64,192,29748,1,0,0:0:0:0:
192,192,29748,1,0,0:0:0:0:
320,192,29748,1,0,0:0:0:0:
320,192,30034,1,0,0:0:0:0:
64,192,30034,128,0,30106:0:0:0:0:
448,192,30034,1,0,0:0:0:0:
64,192,30177,128,0,30248:0:0:0:0:
64,192,30320,1,0,0:0:0:0:
192,192,30320,1,0,0:0:0:0:
320,192,30391,1,0,0:0:0:0:
448,192,30463,1,0,0:0:0:0:
192,192,30534,1,0,0:0:0:0:
64,192,30606,1,0,0:0:0:0:
320,192,30606,1,0,0:0:0:0:
448,192,30653,1,0,0:0:0:0:
192,192,30701,1,0,0:0:0:0:
320,192,30748,1,0,0:0:0:0:
64,192,30820,1,0,0:0:0:0:
448,192,30891,1,0,0:0:0:0:
320,192,30891,1,0,0:0:0:0:
192,192,30963,1,0,0:0:0:0:
448,192,31034,1,0,0:0:0:0:
64,192,31082,1,0,0:0:0:0:
320,192,31129,1,0,0:0:0:0:
192,192,31177,1,0,0:0:0:0:
448,192,31177,1,0,0:0:0:0:
64,192,31248,1,0,0:0:0:0:
320,192,31320,1,0,0:0:0:0:
448,192,31391,1,0,0:0:0:0:
64,192,31463,1,0,0:0:0:0:
192,192,31463,1,0,0:0:0:0:
320,192,31510,1,0,0:0:0:0:
448,192,31558,1,0,0:0:0:0:
64,192,31606,1,0,0:0:0:0:
320,192,31677,1,0,0:0:0:0:
192,192,31748,1,0,0:0:0:0:
448,192,31748,1,0,0:0:0:0:
64,192,31820,1,0,0:0:0:0:
320,192,31891,1,0,0:0:0:0:
448,192,31939,1,0,0:0:0:0:
192,192,31987,1,0,0:0:0:0:
64,192,32034,1,0,0:0:0:0:
320,192,32034,1,0,0:0:0:0:
448,192,32106,1,0,0:0:0:0:
192,192,32177,1,0,0:0:0:0:
320,192,32248,1,0,0:0:0:0:
64,192,32320,1,0,0:0:0:0:
448,192,32320,1,0,0:0:0:0:
192,192,32367,1,0,0:0:0:0:
320,192,32415,1,0,0:0:0:0:
64,192,32463,1,0,0:0:0:0:
192,192,32534,1,0,0:0:0:0:
320,192,32606,1,0,0:0:0:0:
448,192,32606,1,0,0:0:0:0:
64,192,32653,1,0,0:0:0:0:
320,192,32701,1,0,0:0:0:0:
448,192,32748,1,0,0:0:0:0:
64,192,32820,1,0,0:0:0:0:
192,192,32891,1,0,0:0:0:0:
320,192,32891,1,0,0:0:0:0:
448,192,32963,1,0,0:0:0:0:
64,192,33034,1,0,0:0:0:0:
320,192,33082,1,0,0:0:0:0:
192,192,33129,1,0,0:0:0:0:
64,192,33177,1,0,0:0:0:0:
448,192,33177,1,0,0:0:0:0:
320,192,33248,1,0,0:0:0:0:
192,192,33320,1,0,0:0:0:0:
448,192,33391,1,0,0:0:0:0:
64,192,33463,1,0,0:0:0:0:
320,192,33463,1,0,0:0:0:0:
192,192,33510,1,0,0:0:0:0:
448,192,33558,1,0,0:0:0:0:
64,192,33606,1,0,0:0:0:0:
320,192,33677,1,0,0:0:0:0:
64,192,33748,1,0,0:0:0:0:
192,192,33748,1,0,0:0:0:0:
448,192,33796,1,0,0:0:0:0:
320,192,33844,1,0,0:0:0:0:
192,192,33891,1,0,0:0:0:0:
448,192,33963,1,0,0:0:0:0:
64,192,34034,1,0,0:0:0:0:
320,192,34034,1,0,0:0:0:0:
192,192,34106,1,0,0:0:0:0:
448,192,34177,1,0,0:0:0:0:
64,192,34248,1,0,0:0:0:0:
192,192,34320,1,0,0:0:0:0:
320,192,34320,1,0,0:0:0:0:
448,192,34367,1,0,0:0:0:0:
64,192,34415,1,0,0:0:0:0:
320,192,34463,1,0,0:0:0:0:
192,192,34534,1,0,0:0:0:0:
64,192,34606,1,0,0:0:0:0:
448,192,34606,1,0,0:0:0:0:
320,192,34653,1,0,0:0:0:0:
192,192,34701,1,0,0:0:0:0:
448,192,34748,1,0,0:0:0:0:
64,192,34820,1,0,0:0:0:0:
320,192,34891,1,0,0:0:0:0:
448,192,34891,1,0,0:0:0:0:
192,192,34963,1,0,0:0:0:0:
64,192,35034,1,0,0:0:0:0:
320,192,35106,1,0,0:0:0:0:
192,192,35177,1,0,0:0:0:0:
448,192,35177,1,0,0:0:0:0:
64,192,35225,1,0,0:0:0:0:
320,192,35272,1,0,0:0:0:0:
192,192,35320,1,0,0:0:0:0:
448,192,35391,1,0,0:0:0:0:
64,192,35463,1,0,0:0:0:0:
192,192,35463,1,0,0:0:0:0:
448,192,35534,1,0,0:0:0:0:
320,192,35606,1,0,0:0:0:0:
64,192,35653,1,0,0:0:0:0:
448,192,35701,1,0,0:0:0:0:
320,192,35748,1,0,0:0:0:0:
192,192,35748,1,0,0:0:0:0:
64,192,35820,1,0,0:0:0:0:
448,192,35891,1,0,0:0:0:0:
192,192,35963,1,0,0:0:0:0:
320,192,36034,1,0,0:0:0:0:
448,192,36034,1,0,0:0:0:0:
64,192,36082,1,0,0:0:0:0:
192,192,36129,1,0,0:0:0:0:
320,192,36177,1,0,0:0:0:0:
64,192,36248,1,0,0:0:0:0:
192,192,36320,1,0,0:0:0:0:
448,192,36320,1,0,0:0:0:0:
320,192,36391,1,0,0:0:0:0:
64,192,36463,1,0,0:0:0:0:
448,192,36510,1,0,0:0:0:0:
320,192,36558,1,0,0:0:0:0:
64,192,36606,1,0,0:0:0:0:
192,192,36606,1,0,0:0:0:0:
448,192,36677,1,0,0:0:0:0:
192,192,36748,1,0,0:0:0:0:
320,192,36820,1,0,0:0:0:0:
64,192,36891,1,0,0:0:0:0:
448,192,36891,1,0,0:0:0:0:
192,192,36939,1,0,0:0:0:0:
320,192,36987,1,0,0:0:0:0:
448,192,37034,1,0,0:0:0:0:
320,192,37106,1,0,0:0:0:0:
192,192,37177,1,0,0:0:0:0:
64,192,37177,128,0,37463:0:0:0:0:
448,192,37248,1,0,0:0:0:0:
320,192,37320,1,0,0:0:0:0:
192,192,37391,1,0,0:0:0:0:
320,192,37463,1,0,0:0:0:0:
448,192,37463,1,0,0:0:0:0:
192,192,37534,1,0,0:0:0:0:
64,192,37606,1,0,0:0:0:0:
320,192,37677,1,0,0:0:0:0:
64,192,37748,1,0,0:0:0:0:
192,192,37748,1,0,0:0:0:0:
448,192,37748,1,0,0:0:0:0:
320,192,37820,1,0,0:0:0:0:
192,192,37891,1,0,0:0:0:0:
64,192,37963,1,0,0:0:0:0:
192,192,38034,1,0,0:0:0:0:
320,192,38034,1,0,0:0:0:0:
448,192,38034,1,0,0:0:0:0:
64,192,38106,1,0,0:0:0:0:
320,192,38177,1,0,0:0:0:0:
448,192,38248,1,0,0:0:0:0:
192,192,38320,1,0,0:0:0:0:
64,192,38320,1,0,0:0:0:0:
320,192,38320,1,0,0:0:0:0:
448,192,38391,1,0,0:0:0:0:
192,192,38463,1,0,0:0:0:0:
64,192,38463,1,0,0:0:0:0:
320,192,38534,1,0,0:0:0:0:
64,192,38606,1,0,0:0:0:0:
192,192,38606,1,0,0:0:0:0:
448,192,38606,1,0,0:0:0:0:
320,192,38677,1,0,0:0:0:0:
64,192,38748,1,0,0:0:0:0:
192,192,38748,1,0,0:0:0:0:
448,192,39034,1,0,0:0:0:0:
64,192,39034,128,0,39463:0:0:0:0:
192,192,39034,1,0,0:0:0:0:
320,192,39177,1,0,0:0:0:0:
320,192,39463,1,0,0:0:0:0:
448,192,39463,1,0,0:0:0:0:
192,192,39463,1,0,0:0:0:0:
64,192,39534,1,0,0:0:0:0:
320,192,39606,1,0,0:0:0:0:
448,192,39677,1,0,0:0:0:0:
64,192,39748,1,0,0:0:0:0:
192,192,39748,1,0,0:0:0:0:
320,192,39820,1,0,0:0:0:0:
448,192,39891,1,0,0:0:0:0:
64,192,39963,1,0,0:0:0:0:
192,192,40034,1,0,0:0:0:0:
320,192,40034,1,0,0:0:0:0:
448,192,40034,1,0,0:0:0:0:
64,192,40106,1,0,0:0:0:0:
192,192,40177,1,0,0:0:0:0:
448,192,40248,1,0,0:0:0:0:
64,192,40320,1,0,0:0:0:0:
192,192,40320,1,0,0:0:0:0:
320,192,40391,1,0,0:0:0:0:
448,192,40463,1,0,0:0:0:0:
192,192,40534,1,0,0:0:0:0:
320,192,40606,1,0,0:0:0:0:
448,192,40606,1,0,0:0:0:0:
64,192,40606,1,0,0:0:0:0:
192,192,40677,1,0,0:0:0:0:
320,192,40748,1,0,0:0:0:0:
448,192,40748,1,0,0:0:0:0:
192,192,40820,1,0,0:0:0:0:
64,192,40891,1,0,0:0:0:0:
320,192,40891,1,0,0:0:0:0:
192,192,40963,1,0,0:0:0:0:
320,192,41034,1,0,0:0:0:0:
448,192,41034,1,0,0:0:0:0:
64,192,41106,1,0,0:0:0:0:
192,192,41177,1,0,0:0:0:0:
320,192,41177,1,0,0:0:0:0:
448,192,41248,1,0,0:0:0:0:
64,192,41320,1,0,0:0:0:0:
192,192,41320,1,0,0:0:0:0:
320,192,41391,1,0,0:0:0:0:
448,192,41463,1,0,0:0:0:0:
64,192,41463,1,0,0:0:0:0:
320,192,41534,1,0,0:0:0:0:
64,192,41606,1,0,0:0:0:0:
192,192,41606,1,0,0:0:0:0:
320,192,41677,1,0,0:0:0:0:
64,192,41748,1,0,0:0:0:0:
192,192,41748,1,0,0:0:0:0:
448,192,41748,1,0,0:0:0:0:
320,192,41820,1,0,0:0:0:0:
192,192,41891,1,0,0:0:0:0:
64,192,41963,1,0,0:0:0:0:
320,192,42034,1,0,0:0:0:0:
448,192,42034,1,0,0:0:0:0:
192,192,42106,1,0,0:0:0:0:
64,192,42177,1,0,0:0:0:0:
448,192,42177,1,0,0:0:0:0:
320,192,42248,1,0,0:0:0:0:
192,192,42320,1,0,0:0:0:0:
448,192,42320,1,0,0:0:0:0:
320,192,42391,1,0,0:0:0:0:
64,192,42463,1,0,0:0:0:0:
192,192,42463,1,0,0:0:0:0:
320,192,42534,1,0,0:0:0:0:
64,192,42606,1,0,0:0:0:0:
448,192,42606,1,0,0:0:0:0:
192,192,42677,1,0,0:0:0:0:
320,192,42748,1,0,0:0:0:0:
64,192,42820,1,0,0:0:0:0:
320,192,42891,1,0,0:0:0:0:
448,192,42891,1,0,0:0:0:0:
192,192,42891,1,0,0:0:0:0:
64,192,42963,1,0,0:0:0:0:
192,192,43034,1,0,0:0:0:0:
320,192,43106,1,0,0:0:0:0:
448,192,43177,1,0,0:0:0:0:
192,192,43177,1,0,0:0:0:0:
64,192,43177,1,0,0:0:0:0:
320,192,43248,1,0,0:0:0:0:
448,192,43320,1,0,0:0:0:0:
192,192,43391,1,0,0:0:0:0:
64,192,43463,1,0,0:0:0:0:
320,192,43463,1,0,0:0:0:0:
448,192,43463,1,0,0:0:0:0:
192,192,43534,1,0,0:0:0:0:
320,192,43606,1,0,0:0:0:0:
448,192,43606,1,0,0:0:0:0:
64,192,43677,1,0,0:0:0:0:
192,192,43748,1,0,0:0:0:0:
320,192,43748,1,0,0:0:0:0:
448,192,43820,1,0,0:0:0:0:
64,192,43891,1,0,0:0:0:0:
320,192,43963,1,0,0:0:0:0:
64,192,44034,1,0,0:0:0:0:
192,192,44034,1,0,0:0:0:0:
448,192,44034,1,0,0:0:0:0:
320,192,44106,1,0,0:0:0:0:
448,192,44177,1,0,0:0:0:0:
64,192,44248,1,0,0:0:0:0:
192,192,44320,1,0,0:0:0:0:
320,192,44320,1,0,0:0:0:0:
448,192,44320,1,0,0:0:0:0:
64,192,44391,1,0,0:0:0:0:
192,192,44463,1,0,0:0:0:0:
448,192,44534,1,0,0:0:0:0:
320,192,44606,1,0,0:0:0:0:
192,192,44606,1,0,0:0:0:0:
64,192,44606,1,0,0:0:0:0:
448,192,44677,1,0,0:0:0:0:
320,192,44748,1,0,0:0:0:0:
192,192,44820,1,0,0:0:0:0:
320,192,44891,1,0,0:0:0:0:
448,192,44891,1,0,0:0:0:0:
64,192,44891,1,0,0:0:0:0:
192,192,44963,1,0,0:0:0:0:
320,192,45034,1,0,0:0:0:0:
448,192,45034,1,0,0:0:0:0:
64,192,45106,1,0,0:0:0:0:
192,192,45177,1,0,0:0:0:0:
448,192,45248,1,0,0:0:0:0:
64,192,45320,1,0,0:0:0:0:
192,192,45320,1,0,0:0:0:0:
320,192,45320,1,0,0:0:0:0:
448,192,45391,1,0,0:0:0:0:
320,192,45463,1,0,0:0:0:0:
64,192,45534,1,0,0:0:0:0:
192,192,45606,1,0,0:0:0:0:
320,192,45606,1,0,0:0:0:0:
448,192,45606,1,0,0:0:0:0:
64,192,45677,1,0,0:0:0:0:
192,192,45748,1,0,0:0:0:0:
320,192,45748,1,0,0:0:0:0:
448,192,45820,1,0,0:0:0:0:
64,192,45891,1,0,0:0:0:0:
448,192,45963,1,0,0:0:0:0:
320,192,46034,1,0,0:0:0:0:
192,192,46034,1,0,0:0:0:0:
64,192,46106,1,0,0:0:0:0:
192,192,46177,1,0,0:0:0:0:
320,192,46248,1,0,0:0:0:0:
64,192,46320,1,0,0:0:0:0:
192,192,46320,1,0,0:0:0:0:
448,192,46320,1,0,0:0:0:0:
320,192,46391,1,0,0:0:0:0:
64,192,46463,1,0,0:0:0:0:
192,192,46463,1,0,0:0:0:0:
448,192,46534,1,0,0:0:0:0:
64,192,46606,128,0,46891:0:0:0:0:
320,192,46606,1,0,0:0:0:0:
320,192,46748,1,0,0:0:0:0:
192,192,46891,1,0,0:0:0:0:
320,192,46891,1,0,0:0:0:0:
448,192,46891,1,0,0:0:0:0:
64,192,46963,1,0,0:0:0:0:
320,192,47034,1,0,0:0:0:0:
448,192,47034,1,0,0:0:0:0:
192,192,47106,1,0,0:0:0:0:
64,192,47177,1,0,0:0:0:0:
448,192,47177,128,0,47463:0:0:0:0:
192,192,47320,1,0,0:0:0:0:
64,192,47463,1,0,0:0:0:0:
192,192,47463,1,0,0:0:0:0:
320,192,47498,1,0,0:0:0:0:
448,192,47534,1,0,0:0:0:0:
320,192,47748,128,0,47891:0:0:0:0:
64,192,48034,1,0,0:0:0:0:
192,192,48034,1,0,0:0:0:0:
448,192,48034,128,0,48106:0:0:0:0:
320,192,48320,1,0,0:0:0:0:
64,192,48320,128,0,48391:0:0:0:0:
448,192,48391,1,0,0:0:0:0:
64,192,48606,1,0,0:0:0:0:
192,192,48606,1,0,0:0:0:0:
320,192,48677,1,0,0:0:0:0:
192,192,48748,1,0,0:0:0:0:
448,192,48748,1,0,0:0:0:0:
64,192,48820,1,0,0:0:0:0:
192,192,48891,1,0,0:0:0:0:
320,192,48891,1,0,0:0:0:0:
448,192,48963,1,0,0:0:0:0:
64,192,49034,1,0,0:0:0:0:
192,192,49034,1,0,0:0:0:0:
320,192,49082,1,0,0:0:0:0:
448,192,49129,1,0,0:0:0:0:
192,192,49177,1,0,0:0:0:0:
320,192,49225,1,0,0:0:0:0:
64,192,49272,1,0,0:0:0:0:
448,192,49320,1,0,0:0:0:0:
192,192,49320,1,0,0:0:0:0:
320,192,49391,1,0,0:0:0:0:
448,192,49463,1,0,0:0:0:0:
64,192,49463,1,0,0:0:0:0:
192,192,49534,1,0,0:0:0:0:
320,192,49606,1,0,0:0:0:0:
448,192,49606,1,0,0:0:0:0:
64,192,49653,1,0,0:0:0:0:
192,192,49701,1,0,0:0:0:0:
448,192,49748,1,0,0:0:0:0:
320,192,49796,1,0,0:0:0:0:
192,192,49844,1,0,0:0:0:0:
448,192,49891,1,0,0:0:0:0:
64,192,49939,1,0,0:0:0:0:
192,192,49987,1,0,0:0:0:0:
320,192,50034,1,0,0:0:0:0:
448,192,50082,1,0,0:0:0:0:
192,192,50129,1,0,0:0:0:0:
64,192,50177,1,0,0:0:0:0:
320,192,50225,1,0,0:0:0:0:
192,192,50272,1,0,0:0:0:0:
448,192,50320,1,0,0:0:0:0:
320,192,50367,1,0,0:0:0:0:
64,192,50415,1,0,0:0:0:0:
192,192,50463,1,0,0:0:0:0:
448,192,50510,1,0,0:0:0:0:
64,192,50558,1,0,0:0:0:0:
320,192,50606,1,0,0:0:0:0:
448,192,50653,1,0,0:0:0:0:
64,192,50701,1,0,0:0:0:0:
320,192,50748,1,0,0:0:0:0:
192,192,50796,1,0,0:0:0:0:
64,192,50844,1,0,0:0:0:0:
320,192,50891,1,0,0:0:0:0:
448,192,50891,1,0,0:0:0:0:
192,192,50963,1,0,0:0:0:0:
64,192,51034,1,0,0:0:0:0:
448,192,51034,1,0,0:0:0:0:
320,192,51106,1,0,0:0:0:0:
192,192,51177,1,0,0:0:0:0:
448,192,51177,1,0,0:0:0:0:
64,192,51248,1,0,0:0:0:0:
320,192,51320,1,0,0:0:0:0:
448,192,51320,1,0,0:0:0:0:
192,192,51367,1,0,0:0:0:0:
64,192,51415,1,0,0:0:0:0:
448,192,51463,1,0,0:0:0:0:
192,192,51510,1,0,0:0:0:0:
320,192,51558,1,0,0:0:0:0:
448,192,51606,1,0,0:0:0:0:
64,192,51606,1,0,0:0:0:0:
192,192,51677,1,0,0:0:0:0:
64,192,51748,1,0,0:0:0:0:
320,192,51748,1,0,0:0:0:0:
448,192,51820,1,0,0:0:0:0:
64,192,51891,1,0,0:0:0:0:
192,192,51891,1,0,0:0:0:0:
320,192,51939,1,0,0:0:0:0:
448,192,51987,1,0,0:0:0:0:
192,192,52034,1,0,0:0:0:0:
64,192,52082,1,0,0:0:0:0:
320,192,52129,1,0,0:0:0:0:
192,192,52177,1,0,0:0:0:0:
448,192,52225,1,0,0:0:0:0:
320,192,52272,1,0,0:0:0:0:
64,192,52320,1,0,0:0:0:0:
192,192,52367,1,0,0:0:0:0:
320,192,52415,1,0,0:0:0:0:
448,192,52463,1,0,0:0:0:0:
64,192,52510,1,0,0:0:0:0:
320,192,52558,1,0,0:0:0:0:
192,192,52606,1,0,0:0:0:0:
64,192,52653,1,0,0:0:0:0:
320,192,52701,1,0,0:0:0:0:
448,192,52748,1,0,0:0:0:0:
192,192,52796,1,0,0:0:0:0:
64,192,52844,1,0,0:0:0:0:
448,192,52891,1,0,0:0:0:0:
320,192,52939,1,0,0:0:0:0:
192,192,52987,1,0,0:0:0:0:
448,192,53034,1,0,0:0:0:0:
64,192,53082,1,0,0:0:0:0:
192,192,53129,1,0,0:0:0:0:
320,192,53177,1,0,0:0:0:0:
448,192,53177,1,0,0:0:0:0:
64,192,53248,1,0,0:0:0:0:
192,192,53320,1,0,0:0:0:0:
448,192,53320,1,0,0:0:0:0:
320,192,53391,1,0,0:0:0:0:
64,192,53463,1,0,0:0:0:0:
448,192,53463,1,0,0:0:0:0:
192,192,53534,1,0,0:0:0:0:
64,192,53606,1,0,0:0:0:0:
320,192,53606,1,0,0:0:0:0:
448,192,53653,1,0,0:0:0:0:
192,192,53701,1,0,0:0:0:0:
64,192,53748,1,0,0:0:0:0:
448,192,53796,1,0,0:0:0:0:
320,192,53844,1,0,0:0:0:0:
64,192,53891,1,0,0:0:0:0:
192,192,53891,1,0,0:0:0:0:
320,192,53963,1,0,0:0:0:0:
448,192,54034,1,0,0:0:0:0:
64,192,54034,1,0,0:0:0:0:
192,192,54106,1,0,0:0:0:0:
448,192,54177,1,0,0:0:0:0:
320,192,54177,1,0,0:0:0:0:
448,192,54463,1,0,0:0:0:0:
320,192,54463,128,0,54891:0:0:0:0:
64,192,54891,1,0,0:0:0:0:
192,192,54891,1,0,0:0:0:0:
448,192,54963,1,0,0:0:0:0:
192,192,55034,1,0,0:0:0:0:
320,192,55034,1,0,0:0:0:0:
64,192,55106,1,0,0:0:0:0:
320,192,55177,1,0,0:0:0:0:
448,192,55177,1,0,0:0:0:0:
192,192,55248,1,0,0:0:0:0:
64,192,55320,1,0,0:0:0:0:
448,192,55320,1,0,0:0:0:0:
320,192,55367,1,0,0:0:0:0:
192,192,55415,1,0,0:0:0:0:
448,192,55463,1,0,0:0:0:0:
64,192,55510,1,0,0:0:0:0:
192,192,55558,1,0,0:0:0:0:
320,192,55606,1,0,0:0:0:0:
448,192,55606,1,0,0:0:0:0:
64,192,55653,1,0,0:0:0:0:
192,192,55701,1,0,0:0:0:0:
320,192,55748,1,0,0:0:0:0:
448,192,55748,1,0,0:0:0:0:
64,192,55820,1,0,0:0:0:0:
192,192,55891,1,0,0:0:0:0:
320,192,55891,1,0,0:0:0:0:
448,192,55963,1,0,0:0:0:0:
192,192,56034,1,0,0:0:0:0:
64,192,56034,1,0,0:0:0:0:
320,192,56082,1,0,0:0:0:0:
448,192,56129,1,0,0:0:0:0:
64,192,56177,1,0,0:0:0:0:
192,192,56177,1,0,0:0:0:0:
320,192,56225,1,0,0:0:0:0:
448,192,56272,1,0,0:0:0:0:
64,192,56320,1,0,0:0:0:0:
192,192,56320,1,0,0:0:0:0:
320,192,56367,1,0,0:0:0:0:
64,192,56415,1,0,0:0:0:0:
192,192,56463,1,0,0:0:0:0:
448,192,56463,1,0,0:0:0:0:
320,192,56510,1,0,0:0:0:0:
64,192,56558,1,0,0:0:0:0:
192,192,56606,1,0,0:0:0:0:
448,192,56653,1,0,0:0:0:0:
320,192,56701,1,0,0:0:0:0:
192,192,56748,1,0,0:0:0:0:
448,192,56796,1,0,0:0:0:0:
64,192,56844,1,0,0:0:0:0:
192,192,56891,1,0,0:0:0:0:
320,192,56939,1,0,0:0:0:0:
64,192,56987,1,0,0:0:0:0:
448,192,57034,1,0,0:0:0:0:
320,192,57082,1,0,0:0:0:0:
192,192,57129,1,0,0:0:0:0:
64,192,57177,1,0,0:0:0:0:
448,192,57177,1,0,0:0:0:0:
64,192,57391,128,0,57606:0:0:0:0:
320,192,57748,1,0,0:0:0:0:
448,192,57748,128,0,57820:0:0:0:0:
192,192,57748,128,0,58463:0:0:0:0:
320,192,57891,128,0,57963:0:0:0:0:
64,192,58034,128,0,58106:0:0:0:0:
448,192,58177,128,0,58248:0:0:0:0:
320,192,58463,128,0,58891:0:0:0:0:
64,192,58463,1,0,0:0:0:0:
448,192,58606,1,0,0:0:0:0:
192,192,58748,1,0,0:0:0:0:
64,192,58891,128,0,59606:0:0:0:0:
448,192,59177,1,0,0:0:0:0:
320,192,59463,1,0,0:0:0:0:
192,192,59606,128,0,60034:0:0:0:0:
448,192,60034,128,0,60463:0:0:0:0:
320,192,60463,128,0,60891:0:0:0:0:
64,192,60606,1,0,0:0:0:0:
192,192,60891,128,0,61748:0:0:0:0:
448,192,61177,1,0,0:0:0:0:
64,192,61463,1,0,0:0:0:0:
64,192,61748,128,0,62034:0:0:0:0:
320,192,61891,1,0,0:0:0:0:
192,192,62034,128,0,62320:0:0:0:0:
320,192,62320,128,0,63177:0:0:0:0:
448,192,62320,128,0,62391:0:0:0:0:
192,192,62463,128,0,62534:0:0:0:0:
64,192,62606,128,0,62677:0:0:0:0:
448,192,62748,128,0,62820:0:0:0:0:
192,192,63034,1,0,0:0:0:0:
64,192,63177,128,0,63320:0:0:0:0:
448,192,63177,1,0,0:0:0:0:
192,192,63320,128,0,63463:0:0:0:0:
448,192,63320,1,0,0:0:0:0:
320,192,63463,128,0,64320:0:0:0:0:
64,192,63748,1,0,0:0:0:0:
448,192,64034,1,0,0:0:0:0:
64,192,64177,1,0,0:0:0:0:
192,192,64320,128,0,64606:0:0:0:0:
320,192,64606,128,0,65463:0:0:0:0:
64,192,65177,1,0,0:0:0:0:
448,192,65177,1,0,0:0:0:0:
448,192,65463,128,0,65606:0:0:0:0:
320,192,65606,128,0,65748:0:0:0:0:
192,192,65748,128,0,66891:0:0:0:0:
64,192,66034,1,0,0:0:0:0:
64,192,66177,1,0,0:0:0:0:
448,192,66320,1,0,0:0:0:0:
320,192,66320,1,0,0:0:0:0:
64,192,66891,1,0,0:0:0:0:
320,192,66891,128,0,68034:0:0:0:0:
448,192,66891,128,0,66963:0:0:0:0:
192,192,67034,128,0,67106:0:0:0:0:
64,192,67177,128,0,67248:0:0:0:0:
448,192,67320,128,0,67391:0:0:0:0:
64,192,67463,1,0,0:0:0:0:
192,192,67463,1,0,0:0:0:0:
192,192,67606,1,0,0:0:0:0:
64,192,67748,1,0,0:0:0:0:
448,192,67891,1,0,0:0:0:0:
448,192,68034,128,0,68606:0:0:0:0:
64,192,68034,1,0,0:0:0:0:
320,192,68320,1,0,0:0:0:0:
192,192,68606,128,0,69177:0:0:0:0:
64,192,68606,1,0,0:0:0:0:
320,192,68748,1,0,0:0:0:0:
320,192,69177,128,0,70034:0:0:0:0:
448,192,69177,1,0,0:0:0:0:
64,192,69463,1,0,0:0:0:0:
64,192,69606,1,0,0:0:0:0:
192,192,69748,1,0,0:0:0:0:
448,192,69748,1,0,0:0:0:0:
192,192,70034,128,0,70177:0:0:0:0:
64,192,70177,128,0,70320:0:0:0:0:
448,192,70177,1,0,0:0:0:0:
192,192,70320,128,0,71463:0:0:0:0:
320,192,70320,1,0,0:0:0:0:
64,192,70606,1,0,0:0:0:0:
320,192,70891,1,0,0:0:0:0:
448,192,70891,1,0,0:0:0:0:
64,192,71034,1,0,0:0:0:0:
64,192,71463,128,0,71891:0:0:0:0:
448,192,71463,128,0,71534:0:0:0:0:
192,192,71606,128,0,71677:0:0:0:0:
320,192,71748,128,0,71820:0:0:0:0:
192,192,71891,128,0,72320:0:0:0:0:
448,192,71891,128,0,71963:0:0:0:0:
320,192,72034,1,0,0:0:0:0:
320,192,72177,1,0,0:0:0:0:
448,192,72320,128,0,73177:0:0:0:0:
64,192,72320,1,0,0:0:0:0:
320,192,72463,1,0,0:0:0:0:
64,192,72606,1,0,0:0:0:0:
64,192,72891,1,0,0:0:0:0:
192,192,72891,1,0,0:0:0:0:
320,192,73177,128,0,73748:0:0:0:0:
192,192,73177,1,0,0:0:0:0:
64,192,73320,1,0,0:0:0:0:
192,192,73748,128,0,74891:0:0:0:0:
448,192,73748,1,0,0:0:0:0:
320,192,74320,1,0,0:0:0:0:
320,192,74606,1,0,0:0:0:0:
64,192,74891,128,0,76034:0:0:0:0:
448,192,74891,1,0,0:0:0:0:
320,192,76034,1,0,0:0:0:0:
448,192,76034,1,0,0:0:0:0:
192,192,76034,128,0,76320:0:0:0:0:
64,192,76177,1,0,0:0:0:0:
320,192,76320,128,0,76606:0:0:0:0:
64,192,76463,1,0,0:0:0:0:
448,192,76606,128,0,76891:0:0:0:0:
64,192,76748,1,0,0:0:0:0:
64,192,76891,128,0,77034:0:0:0:0:
192,192,77034,128,0,77106:0:0:0:0:
320,192,77034,1,0,0:0:0:0:
448,192,77177,128,0,77606:0:0:0:0:
320,192,77320,1,0,0:0:0:0:
192,192,77606,128,0,77677:0:0:0:0:
64,192,77606,1,0,0:0:0:0:
320,192,77891,128,0,77963:0:0:0:0:
64,192,77891,1,0,0:0:0:0:
448,192,78177,128,0,78463:0:0:0:0:
320,192,78177,1,0,0:0:0:0:
192,192,78463,128,0,78606:0:0:0:0:
64,192,78463,1,0,0:0:0:0:
320,192,78606,128,0,78748:0:0:0:0:
192,192,78748,128,0,78891:0:0:0:0:
448,192,78748,1,0,0:0:0:0:
64,192,78891,128,0,79034:0:0:0:0:
448,192,79034,128,0,79320:0:0:0:0:
320,192,79034,1,0,0:0:0:0:
192,192,79320,128,0,79391:0:0:0:0:
64,192,79320,1,0,0:0:0:0:
320,192,79320,1,0,0:0:0:0:
320,192,79606,128,0,79677:0:0:0:0:
64,192,79606,1,0,0:0:0:0:
192,192,79606,1,0,0:0:0:0:
448,192,79891,128,0,80177:0:0:0:0:
192,192,79891,1,0,0:0:0:0:
320,192,79891,1,0,0:0:0:0:
320,192,80177,128,0,80320:0:0:0:0:
64,192,80177,1,0,0:0:0:0:
192,192,80177,1,0,0:0:0:0:
192,192,80320,128,0,80463:0:0:0:0:
64,192,80320,1,0,0:0:0:0:
448,192,80320,1,0,0:0:0:0:
64,192,80463,128,0,80606:0:0:0:0:
320,192,80463,1,0,0:0:0:0:
448,192,80463,1,0,0:0:0:0:
192,192,80606,1,0,0:0:0:0:
448,192,80606,1,0,0:0:0:0:
320,192,80653,1,0,0:0:0:0:
64,192,80701,1,0,0:0:0:0:
192,192,80748,1,0,0:0:0:0:
448,192,80796,1,0,0:0:0:0:
320,192,80844,1,0,0:0:0:0:
192,192,80891,1,0,0:0:0:0:
64,192,80939,1,0,0:0:0:0:
320,192,80987,1,0,0:0:0:0:
192,192,81034,1,0,0:0:0:0:
448,192,81082,1,0,0:0:0:0:
64,192,81129,1,0,0:0:0:0:
192,192,81177,1,0,0:0:0:0:
320,192,81225,1,0,0:0:0:0:
448,192,81272,1,0,0:0:0:0:
192,192,81320,1,0,0:0:0:0:
320,192,81367,1,0,0:0:0:0:
64,192,81415,1,0,0:0:0:0:
192,192,81463,1,0,0:0:0:0:
448,192,81510,1,0,0:0:0:0:
320,192,81558,1,0,0:0:0:0:
192,192,81606,1,0,0:0:0:0:
64,192,81653,1,0,0:0:0:0:
448,192,81701,1,0,0:0:0:0:
320,192,81748,1,0,0:0:0:0:
320,192,81820,1,0,0:0:0:0:
64,192,81891,1,0,0:0:0:0:
192,192,81939,1,0,0:0:0:0:
448,192,81987,1,0,0:0:0:0:
320,192,82034,1,0,0:0:0:0:
64,192,82082,1,0,0:0:0:0:
448,192,82129,1,0,0:0:0:0:
192,192,82177,1,0,0:0:0:0:
320,192,82225,1,0,0:0:0:0:
448,192,82272,1,0,0:0:0:0:
64,192,82320,1,0,0:0:0:0:
64,192,82391,1,0,0:0:0:0:
448,192,82463,1,0,0:0:0:0:
192,192,82510,1,0,0:0:0:0:
64,192,82558,1,0,0:0:0:0:
320,192,82606,1,0,0:0:0:0:
320,192,82677,1,0,0:0:0:0:
64,192,82748,1,0,0:0:0:0:
192,192,82796,1,0,0:0:0:0:
320,192,82844,1,0,0:0:0:0:
448,192,82891,1,0,0:0:0:0:
64,192,82939,1,0,0:0:0:0:
192,192,82987,1,0,0:0:0:0:
320,192,83034,1,0,0:0:0:0:
448,192,83082,1,0,0:0:0:0:
64,192,83129,1,0,0:0:0:0:
192,192,83177,1,0,0:0:0:0:
320,192,83225,1,0,0:0:0:0:
448,192,83272,1,0,0:0:0:0:
64,192,83320,1,0,0:0:0:0:
320,192,83367,1,0,0:0:0:0:
192,192,83415,1,0,0:0:0:0:
448,192,83463,1,0,0:0:0:0:
64,192,83510,1,0,0:0:0:0:
320,192,83558,1,0,0:0:0:0:
192,192,83606,1,0,0:0:0:0:
448,192,83653,1,0,0:0:0:0:
320,192,83701,1,0,0:0:0:0:
64,192,83748,1,0,0:0:0:0:
192,192,83748,1,0,0:0:0:0:
320,192,83820,1,0,0:0:0:0:
448,192,83820,1,0,0:0:0:0:
64,192,83891,1,0,0:0:0:0:
192,192,83891,1,0,0:0:0:0:
320,192,83963,1,0,0:0:0:0:
448,192,83963,1,0,0:0:0:0:
192,192,84034,1,0,0:0:0:0:
64,192,84034,1,0,0:0:0:0:
448,192,84034,1,0,0:0:0:0:
192,192,84177,1,0,0:0:0:0:
320,192,84248,1,0,0:0:0:0:
448,192,84320,1,0,0:0:0:0:
64,192,84463,1,0,0:0:0:0:
448,192,84606,128,0,84748:0:0:0:0:
320,192,84748,128,0,84820:0:0:0:0:
192,192,84820,128,0,84891:0:0:0:0:
64,192,84891,128,0,85177:0:0:0:0:
448,192,84891,128,0,84963:0:0:0:0:
448,192,85034,128,0,85106:0:0:0:0:
192,192,85177,1,0,0:0:0:0:
320,192,85177,1,0,0:0:0:0:
448,192,85177,1,0,0:0:0:0:
64,192,85248,1,0,0:0:0:0:
320,192,85320,1,0,0:0:0:0:
448,192,85391,1,0,0:0:0:0:
64,192,85463,1,0,0:0:0:0:
192,192,85463,1,0,0:0:0:0:
320,192,85463,1,0,0:0:0:0:
448,192,85534,1,0,0:0:0:0:
64,192,85606,1,0,0:0:0:0:
192,192,85677,1,0,0:0:0:0:
64,192,85748,1,0,0:0:0:0:
320,192,85748,1,0,0:0:0:0:
448,192,85748,1,0,0:0:0:0:
192,192,85820,1,0,0:0:0:0:
64,192,85891,1,0,0:0:0:0:
320,192,85963,1,0,0:0:0:0:
64,192,86034,1,0,0:0:0:0:
192,192,86034,1,0,0:0:0:0:
448,192,86034,1,0,0:0:0:0:
320,192,86106,1,0,0:0:0:0:
64,192,86177,1,0,0:0:0:0:
448,192,86177,1,0,0:0:0:0:
192,192,86248,1,0,0:0:0:0:
64,192,86320,1,0,0:0:0:0:
320,192,86320,1,0,0:0:0:0:
448,192,86320,1,0,0:0:0:0:
192,192,86391,1,0,0:0:0:0:
320,192,86463,1,0,0:0:0:0:
448,192,86463,1,0,0:0:0:0:
64,192,86534,1,0,0:0:0:0:
192,192,86606,1,0,0:0:0:0:
320,192,86606,1,0,0:0:0:0:
448,192,86677,1,0,0:0:0:0:
64,192,86748,1,0,0:0:0:0:
192,192,86748,1,0,0:0:0:0:
320,192,86820,1,0,0:0:0:0:
448,192,86891,1,0,0:0:0:0:
64,192,86891,1,0,0:0:0:0:
192,192,86891,1,0,0:0:0:0:
320,192,86963,1,0,0:0:0:0:
64,192,87034,1,0,0:0:0:0:
448,192,87034,1,0,0:0:0:0:
192,192,87106,1,0,0:0:0:0:
64,192,87177,1,0,0:0:0:0:
320,192,87177,1,0,0:0:0:0:
448,192,87248,1,0,0:0:0:0:
192,192,87320,1,0,0:0:0:0:
320,192,87320,1,0,0:0:0:0:
64,192,87391,1,0,0:0:0:0:
192,192,87463,1,0,0:0:0:0:
320,192,87463,1,0,0:0:0:0:
448,192,87463,1,0,0:0:0:0:
64,192,87534,1,0,0:0:0:0:
320,192,87606,1,0,0:0:0:0:
448,192,87606,1,0,0:0:0:0:
192,192,87677,1,0,0:0:0:0:
64,192,87748,1,0,0:0:0:0:
320,192,87748,1,0,0:0:0:0:
448,192,87820,1,0,0:0:0:0:
192,192,87891,1,0,0:0:0:0:
320,192,87891,1,0,0:0:0:0:
64,192,87963,1,0,0:0:0:0:
192,192,88034,1,0,0:0:0:0:
448,192,88034,1,0,0:0:0:0:
320,192,88034,1,0,0:0:0:0:
64,192,88106,1,0,0:0:0:0:
320,192,88177,1,0,0:0:0:0:
448,192,88177,1,0,0:0:0:0:
192,192,88248,1,0,0:0:0:0:
64,192,88320,1,0,0:0:0:0:
448,192,88320,1,0,0:0:0:0:
320,192,88391,1,0,0:0:0:0:
448,192,88463,1,0,0:0:0:0:
192,192,88463,1,0,0:0:0:0:
64,192,88534,1,0,0:0:0:0:
320,192,88606,1,0,0:0:0:0:
448,192,88606,1,0,0:0:0:0:
192,192,88606,1,0,0:0:0:0:
64,192,88677,1,0,0:0:0:0:
320,192,88748,1,0,0:0:0:0:
448,192,88748,1,0,0:0:0:0:
64,192,88820,1,0,0:0:0:0:
448,192,88891,1,0,0:0:0:0:
192,192,88891,1,0,0:0:0:0:
320,192,88963,1,0,0:0:0:0:
448,192,89034,1,0,0:0:0:0:
64,192,89034,1,0,0:0:0:0:
192,192,89106,1,0,0:0:0:0:
320,192,89177,1,0,0:0:0:0:
448,192,89177,1,0,0:0:0:0:
64,192,89177,1,0,0:0:0:0:
192,192,89248,1,0,0:0:0:0:
448,192,89320,1,0,0:0:0:0:
64,192,89320,1,0,0:0:0:0:
320,192,89391,1,0,0:0:0:0:
64,192,89463,1,0,0:0:0:0:
192,192,89463,1,0,0:0:0:0:
320,192,89534,1,0,0:0:0:0:
64,192,89606,1,0,0:0:0:0:
192,192,89606,1,0,0:0:0:0:
448,192,89677,1,0,0:0:0:0:
64,192,89748,1,0,0:0:0:0:
192,192,89748,1,0,0:0:0:0:
320,192,89748,1,0,0:0:0:0:
448,192,89820,1,0,0:0:0:0:
64,192,89891,1,0,0:0:0:0:
320,192,89963,1,0,0:0:0:0:
64,192,90034,1,0,0:0:0:0:
192,192,90034,1,0,0:0:0:0:
448,192,90034,1,0,0:0:0:0:
320,192,90106,1,0,0:0:0:0:
192,192,90177,1,0,0:0:0:0:
64,192,90248,1,0,0:0:0:0:
192,192,90320,1,0,0:0:0:0:
320,192,90320,1,0,0:0:0:0:
448,192,90320,1,0,0:0:0:0:
64,192,90391,1,0,0:0:0:0:
448,192,90463,1,0,0:0:0:0:
192,192,90534,1,0,0:0:0:0:
64,192,90606,1,0,0:0:0:0:
320,192,90606,1,0,0:0:0:0:
448,192,90606,1,0,0:0:0:0:
192,192,90677,1,0,0:0:0:0:
320,192,90748,1,0,0:0:0:0:
448,192,90748,1,0,0:0:0:0:
192,192,90820,1,0,0:0:0:0:
64,192,90891,1,0,0:0:0:0:
320,192,90891,1,0,0:0:0:0:
448,192,90963,1,0,0:0:0:0:
192,192,91034,1,0,0:0:0:0:
320,192,91034,1,0,0:0:0:0:
64,192,91106,1,0,0:0:0:0:
192,192,91177,1,0,0:0:0:0:
320,192,91177,1,0,0:0:0:0:
448,192,91177,1,0,0:0:0:0:
64,192,91248,1,0,0:0:0:0:
320,192,91320,1,0,0:0:0:0:
448,192,91320,1,0,0:0:0:0:
192,192,91391,1,0,0:0:0:0:
64,192,91463,1,0,0:0:0:0:
320,192,91463,1,0,0:0:0:0:
448,192,91534,1,0,0:0:0:0:
192,192,91606,1,0,0:0:0:0:
320,192,91606,1,0,0:0:0:0:
64,192,91677,1,0,0:0:0:0:
192,192,91748,1,0,0:0:0:0:
320,192,91748,1,0,0:0:0:0:
448,192,91748,1,0,0:0:0:0:
64,192,91820,1,0,0:0:0:0:
320,192,91891,1,0,0:0:0:0:
448,192,91891,1,0,0:0:0:0:
192,192,91963,1,0,0:0:0:0:
64,192,92034,1,0,0:0:0:0:
448,192,92034,1,0,0:0:0:0:
320,192,92106,1,0,0:0:0:0:
64,192,92177,1,0,0:0:0:0:
448,192,92177,1,0,0:0:0:0:
192,192,92248,1,0,0:0:0:0:
64,192,92320,1,0,0:0:0:0:
320,192,92320,1,0,0:0:0:0:
448,192,92320,1,0,0:0:0:0:
192,192,92391,1,0,0:0:0:0:
320,192,92463,1,0,0:0:0:0:
448,192,92463,1,0,0:0:0:0:
64,192,92534,1,0,0:0:0:0:
192,192,92606,1,0,0:0:0:0:
320,192,92606,1,0,0:0:0:0:
448,192,92606,1,0,0:0:0:0:
64,192,92677,1,0,0:0:0:0:
192,192,92748,1,0,0:0:0:0:
320,192,92820,1,0,0:0:0:0:
64,192,92891,1,0,0:0:0:0:
192,192,92891,1,0,0:0:0:0:
320,192,92963,1,0,0:0:0:0:
64,192,93034,1,0,0:0:0:0:
192,192,93034,1,0,0:0:0:0:
448,192,93034,1,0,0:0:0:0:
192,192,93320,1,0,0:0:0:0:
320,192,93320,1,0,0:0:0:0:
64,192,93320,1,0,0:0:0:0:
448,192,93391,1,0,0:0:0:0:
64,192,93463,1,0,0:0:0:0:
192,192,93487,1,0,0:0:0:0:
320,192,93510,1,0,0:0:0:0:
448,192,93534,1,0,0:0:0:0:
64,192,93558,1,0,0:0:0:0:
192,192,93582,1,0,0:0:0:0:
320,192,93606,1,0,0:0:0:0:
448,192,93606,1,0,0:0:0:0:
64,192,93677,1,0,0:0:0:0:
320,192,93748,1,0,0:0:0:0:
192,192,93748,1,0,0:0:0:0:
448,192,93820,1,0,0:0:0:0:
64,192,93891,1,0,0:0:0:0:
320,192,93891,1,0,0:0:0:0:
192,192,93963,1,0,0:0:0:0:
448,192,94034,1,0,0:0:0:0:
320,192,94034,1,0,0:0:0:0:
192,192,94106,1,0,0:0:0:0:
64,192,94177,1,0,0:0:0:0:
448,192,94177,1,0,0:0:0:0:
320,192,94177,1,0,0:0:0:0:
448,192,94248,1,0,0:0:0:0:
320,192,94248,1,0,0:0:0:0:
192,192,94320,1,0,0:0:0:0:
64,192,94320,128,0,94606:0:0:0:0:
320,192,94606,1,0,0:0:0:0:
448,192,94606,1,0,0:0:0:0:
192,192,94606,1,0,0:0:0:0:
64,192,94677,1,0,0:0:0:0:
448,192,94748,1,0,0:0:0:0:
320,192,94820,1,0,0:0:0:0:
64,192,94891,1,0,0:0:0:0:
192,192,94891,1,0,0:0:0:0:
448,192,94891,1,0,0:0:0:0:
320,192,94963,1,0,0:0:0:0:
192,192,95034,1,0,0:0:0:0:
64,192,95106,1,0,0:0:0:0:
320,192,95177,1,0,0:0:0:0:
448,192,95177,1,0,0:0:0:0:
192,192,95177,1,0,0:0:0:0:
64,192,95248,1,0,0:0:0:0:
320,192,95320,1,0,0:0:0:0:
448,192,95320,1,0,0:0:0:0:
192,192,95391,1,0,0:0:0:0:
64,192,95463,1,0,0:0:0:0:
320,192,95463,1,0,0:0:0:0:
448,192,95534,1,0,0:0:0:0:
192,192,95606,1,0,0:0:0:0:
320,192,95606,1,0,0:0:0:0:
64,192,95677,1,0,0:0:0:0:
320,192,95748,1,0,0:0:0:0:
448,192,95748,1,0,0:0:0:0:
192,192,95748,1,0,0:0:0:0:
64,192,95820,1,0,0:0:0:0:
448,192,95891,1,0,0:0:0:0:
192,192,95891,1,0,0:0:0:0:
320,192,95963,1,0,0:0:0:0:
64,192,96034,1,0,0:0:0:0:
192,192,96034,1,0,0:0:0:0:
448,192,96106,1,0,0:0:0:0:
320,192,96177,1,0,0:0:0:0:
192,192,96177,1,0,0:0:0:0:
64,192,96248,1,0,0:0:0:0:
320,192,96320,1,0,0:0:0:0:
192,192,96320,1,0,0:0:0:0:
448,192,96320,1,0,0:0:0:0:
64,192,96391,1,0,0:0:0:0:
448,192,96463,1,0,0:0:0:0:
320,192,96463,1,0,0:0:0:0:
64,192,96534,1,0,0:0:0:0:
448,192,96606,1,0,0:0:0:0:
192,192,96606,1,0,0:0:0:0:
320,192,96677,1,0,0:0:0:0:
448,192,96748,1,0,0:0:0:0:
64,192,96748,1,0,0:0:0:0:
192,192,96820,1,0,0:0:0:0:
320,192,96891,1,0,0:0:0:0:
448,192,96891,1,0,0:0:0:0:
192,192,96963,1,0,0:0:0:0:
448,192,97034,1,0,0:0:0:0:
64,192,97034,1,0,0:0:0:0:
320,192,97034,1,0,0:0:0:0:
192,192,97320,1,0,0:0:0:0:
320,192,97320,1,0,0:0:0:0:
448,192,97320,1,0,0:0:0:0:
320,192,97606,1,0,0:0:0:0:
192,192,97606,128,0,98177:0:0:0:0:
64,192,97606,1,0,0:0:0:0:
448,192,98177,1,0,0:0:0:0:
320,192,98177,128,0,98463:0:0:0:0:
64,192,98177,1,0,0:0:0:0:
448,192,98463,1,0,0:0:0:0:
192,192,98463,1,0,0:0:0:0:
320,192,98534,1,0,0:0:0:0:
64,192,98534,1,0,0:0:0:0:
320,192,98606,1,0,0:0:0:0:
448,192,98606,1,0,0:0:0:0:
64,192,98677,1,0,0:0:0:0:
192,192,98677,1,0,0:0:0:0:
448,192,98748,1,0,0:0:0:0:
64,192,98748,1,0,0:0:0:0:
320,192,98820,1,0,0:0:0:0:
192,192,98820,1,0,0:0:0:0:
320,192,98891,1,0,0:0:0:0:
448,192,98891,1,0,0:0:0:0:
64,192,98891,1,0,0:0:0:0:
192,192,98963,1,0,0:0:0:0:
64,192,99034,1,0,0:0:0:0:
448,192,99034,1,0,0:0:0:0:
320,192,99106,1,0,0:0:0:0:
192,192,99177,1,0,0:0:0:0:
64,192,99177,1,0,0:0:0:0:
448,192,99177,1,0,0:0:0:0:
320,192,99248,1,0,0:0:0:0:
192,192,99320,1,0,0:0:0:0:
64,192,99320,1,0,0:0:0:0:
448,192,99391,1,0,0:0:0:0:
192,192,99463,1,0,0:0:0:0:
64,192,99463,1,0,0:0:0:0:
320,192,99463,1,0,0:0:0:0:
448,192,99534,1,0,0:0:0:0:
64,192,99606,1,0,0:0:0:0:
320,192,99606,1,0,0:0:0:0:
192,192,99677,1,0,0:0:0:0:
448,192,99748,1,0,0:0:0:0:
320,192,99748,1,0,0:0:0:0:
64,192,99748,1,0,0:0:0:0:
192,192,99820,1,0,0:0:0:0:
448,192,99891,1,0,0:0:0:0:
320,192,99891,1,0,0:0:0:0:
64,192,99963,1,0,0:0:0:0:
320,192,100034,1,0,0:0:0:0:
448,192,100034,1,0,0:0:0:0:
192,192,100034,1,0,0:0:0:0:
64,192,100106,1,0,0:0:0:0:
192,192,100177,1,0,0:0:0:0:
320,192,100248,1,0,0:0:0:0:
448,192,100320,1,0,0:0:0:0:
64,192,100320,1,0,0:0:0:0:
192,192,100320,1,0,0:0:0:0:
320,192,100391,1,0,0:0:0:0:
448,192,100463,1,0,0:0:0:0:
64,192,100463,1,0,0:0:0:0:
192,192,100534,1,0,0:0:0:0:
448,192,100606,1,0,0:0:0:0:
320,192,100629,1,0,0:0:0:0:
192,192,100653,1,0,0:0:0:0:
64,192,100677,1,0,0:0:0:0:
448,192,100701,1,0,0:0:0:0:
320,192,100725,1,0,0:0:0:0:
192,192,100748,1,0,0:0:0:0:
64,192,100748,1,0,0:0:0:0:
448,192,100820,1,0,0:0:0:0:
320,192,100891,1,0,0:0:0:0:
192,192,100891,1,0,0:0:0:0:
64,192,100891,1,0,0:0:0:0:
448,192,100963,1,0,0:0:0:0:
320,192,101034,1,0,0:0:0:0:
192,192,101034,1,0,0:0:0:0:
64,192,101034,1,0,0:0:0:0:
448,192,101320,1,0,0:0:0:0:
320,192,101320,1,0,0:0:0:0:
64,192,101320,1,0,0:0:0:0:
448,192,101606,1,0,0:0:0:0:
192,192,101606,1,0,0:0:0:0:
64,192,101606,1,0,0:0:0:0:
448,192,101891,1,0,0:0:0:0:
320,192,101915,1,0,0:0:0:0:
64,192,101939,1,0,0:0:0:0:
192,192,101963,1,0,0:0:0:0:
448,192,101987,1,0,0:0:0:0:
320,192,102010,1,0,0:0:0:0:
64,192,102034,1,0,0:0:0:0:
448,192,102070,1,0,0:0:0:0:
192,192,102106,1,0,0:0:0:0:
64,192,102141,1,0,0:0:0:0:
320,192,102177,1,0,0:0:0:0:
448,192,102177,1,0,0:0:0:0:
64,192,102248,1,0,0:0:0:0:
192,192,102248,1,0,0:0:0:0:
64,192,102463,1,0,0:0:0:0:
192,192,102463,1,0,0:0:0:0:
320,192,102463,1,0,0:0:0:0:
64,192,102748,1,0,0:0:0:0:
448,192,102748,1,0,0:0:0:0:
192,192,102748,1,0,0:0:0:0:
64,192,102891,1,0,0:0:0:0:
320,192,102891,1,0,0:0:0:0:
448,192,102891,1,0,0:0:0:0:
448,192,103177,128,0,103463:0:0:0:0:
64,192,103463,1,0,0:0:0:0:
192,192,103463,1,0,0:0:0:0:
320,192,103463,1,0,0:0:0:0:
448,192,103534,1,0,0:0:0:0:
192,192,103606,1,0,0:0:0:0:
320,192,103606,1,0,0:0:0:0:
64,192,103677,1,0,0:0:0:0:
192,192,103748,1,0,0:0:0:0:
448,192,103748,1,0,0:0:0:0:
320,192,103820,1,0,0:0:0:0:
64,192,103891,1,0,0:0:0:0:
192,192,103891,1,0,0:0:0:0:
448,192,103891,1,0,0:0:0:0:
320,192,103939,1,0,0:0:0:0:
64,192,103987,1,0,0:0:0:0:
192,192,104034,1,0,0:0:0:0:
320,192,104082,1,0,0:0:0:0:
64,192,104129,1,0,0:0:0:0:
192,192,104177,1,0,0:0:0:0:
320,192,104177,1,0,0:0:0:0:
448,192,104177,1,0,0:0:0:0:
64,192,104248,1,0,0:0:0:0:
192,192,104320,1,0,0:0:0:0:
320,192,104320,1,0,0:0:0:0:
448,192,104391,1,0,0:0:0:0:
192,192,104463,1,0,0:0:0:0:
64,192,104463,1,0,0:0:0:0:
320,192,104463,1,0,0:0:0:0:
448,192,104510,1,0,0:0:0:0:
64,192,104558,1,0,0:0:0:0:
192,192,104606,1,0,0:0:0:0:
320,192,104653,1,0,0:0:0:0:
64,192,104701,1,0,0:0:0:0:
448,192,104748,1,0,0:0:0:0:
320,192,104796,1,0,0:0:0:0:
192,192,104844,1,0,0:0:0:0:
64,192,104891,1,0,0:0:0:0:
192,192,104939,1,0,0:0:0:0:
320,192,104987,1,0,0:0:0:0:
448,192,105034,1,0,0:0:0:0:
192,192,105082,1,0,0:0:0:0:
64,192,105129,1,0,0:0:0:0:
320,192,105177,1,0,0:0:0:0:
448,192,105225,1,0,0:0:0:0:
192,192,105272,1,0,0:0:0:0:
320,192,105320,1,0,0:0:0:0:
64,192,105367,1,0,0:0:0:0:
192,192,105415,1,0,0:0:0:0:
320,192,105463,1,0,0:0:0:0:
64,192,105510,1,0,0:0:0:0:
448,192,105558,1,0,0:0:0:0:
320,192,105606,1,0,0:0:0:0:
192,192,105653,1,0,0:0:0:0:
448,192,105701,1,0,0:0:0:0:
192,192,105748,1,0,0:0:0:0:
64,192,105748,1,0,0:0:0:0:
320,192,105748,1,0,0:0:0:0:
448,192,105820,1,0,0:0:0:0:
320,192,105891,1,0,0:0:0:0:
64,192,105891,1,0,0:0:0:0:
192,192,105963,1,0,0:0:0:0:
448,192,106034,1,0,0:0:0:0:
64,192,106034,1,0,0:0:0:0:
320,192,106106,1,0,0:0:0:0:
64,192,106177,1,0,0:0:0:0:
192,192,106177,1,0,0:0:0:0:
448,192,106177,1,0,0:0:0:0:
320,192,106225,1,0,0:0:0:0:
192,192,106272,1,0,0:0:0:0:
64,192,106320,1,0,0:0:0:0:
448,192,106367,1,0,0:0:0:0:
192,192,106415,1,0,0:0:0:0:
64,192,106463,1,0,0:0:0:0:
320,192,106463,1,0,0:0:0:0:
448,192,106463,1,0,0:0:0:0:
192,192,106534,1,0,0:0:0:0:
64,192,106606,1,0,0:0:0:0:
448,192,106606,1,0,0:0:0:0:
320,192,106677,1,0,0:0:0:0:
64,192,106748,1,0,0:0:0:0:
192,192,106748,1,0,0:0:0:0:
448,192,106748,1,0,0:0:0:0:
320,192,106796,1,0,0:0:0:0:
192,192,106844,1,0,0:0:0:0:
64,192,106891,1,0,0:0:0:0:
320,192,106939,1,0,0:0:0:0:
448,192,106987,1,0,0:0:0:0:
192,192,107034,1,0,0:0:0:0:
320,192,107082,1,0,0:0:0:0:
64,192,107129,1,0,0:0:0:0:
192,192,107177,1,0,0:0:0:0:
320,192,107225,1,0,0:0:0:0:
448,192,107272,1,0,0:0:0:0:
320,192,107320,1,0,0:0:0:0:
192,192,107367,1,0,0:0:0:0:
64,192,107415,1,0,0:0:0:0:
320,192,107463,1,0,0:0:0:0:
448,192,107510,1,0,0:0:0:0:
192,192,107558,1,0,0:0:0:0:
320,192,107606,1,0,0:0:0:0:
64,192,107653,1,0,0:0:0:0:
448,192,107701,1,0,0:0:0:0:
320,192,107748,1,0,0:0:0:0:
192,192,107796,1,0,0:0:0:0:
64,192,107844,1,0,0:0:0:0:
320,192,107891,1,0,0:0:0:0:
448,192,107939,1,0,0:0:0:0:
192,192,107987,1,0,0:0:0:0:
64,192,108034,1,0,0:0:0:0:
448,192,108034,1,0,0:0:0:0:
320,192,108034,1,0,0:0:0:0:
192,192,108106,1,0,0:0:0:0:
448,192,108177,1,0,0:0:0:0:
320,192,108177,1,0,0:0:0:0:
192,192,108248,1,0,0:0:0:0:
64,192,108320,1,0,0:0:0:0:
320,192,108320,1,0,0:0:0:0:
448,192,108391,1,0,0:0:0:0:
192,192,108463,1,0,0:0:0:0:
320,192,108463,1,0,0:0:0:0:
64,192,108510,1,0,0:0:0:0:
448,192,108558,1,0,0:0:0:0:
192,192,108606,1,0,0:0:0:0:
64,192,108653,1,0,0:0:0:0:
320,192,108701,1,0,0:0:0:0:
64,192,108748,1,0,0:0:0:0:
192,192,108748,1,0,0:0:0:0:
448,192,108748,1,0,0:0:0:0:
320,192,108820,1,0,0:0:0:0:
64,192,108891,1,0,0:0:0:0:
448,192,108891,1,0,0:0:0:0:
192,192,108963,1,0,0:0:0:0:
64,192,109034,1,0,0:0:0:0:
320,192,109034,1,0,0:0:0:0:
448,192,109034,1,0,0:0:0:0:
320,192,109320,1,0,0:0:0:0:
448,192,109320,1,0,0:0:0:0:
192,192,109320,128,0,109748:0:0:0:0:
64,192,109748,1,0,0:0:0:0:
320,192,109748,1,0,0:0:0:0:
448,192,109748,1,0,0:0:0:0:
192,192,109820,1,0,0:0:0:0:
64,192,109891,1,0,0:0:0:0:
320,192,109891,1,0,0:0:0:0:
448,192,109963,1,0,0:0:0:0:
192,192,110034,1,0,0:0:0:0:
320,192,110034,1,0,0:0:0:0:
64,192,110106,1,0,0:0:0:0:
448,192,110177,1,0,0:0:0:0:
192,192,110177,1,0,0:0:0:0:
320,192,110177,1,0,0:0:0:0:
64,192,110225,1,0,0:0:0:0:
320,192,110272,1,0,0:0:0:0:
448,192,110320,1,0,0:0:0:0:
64,192,110367,1,0,0:0:0:0:
192,192,110415,1,0,0:0:0:0:
320,192,110463,1,0,0:0:0:0:
448,192,110463,1,0,0:0:0:0:
64,192,110510,1,0,0:0:0:0:
192,192,110558,1,0,0:0:0:0:
320,192,110606,1,0,0:0:0:0:
448,192,110606,1,0,0:0:0:0:
64,192,110677,1,0,0:0:0:0:
192,192,110748,1,0,0:0:0:0:
320,192,110748,1,0,0:0:0:0:
448,192,110820,1,0,0:0:0:0:
64,192,110891,1,0,0:0:0:0:
192,192,110891,1,0,0:0:0:0:
320,192,110939,1,0,0:0:0:0:
448,192,110987,1,0,0:0:0:0:
64,192,111034,1,0,0:0:0:0:
192,192,111034,1,0,0:0:0:0:
320,192,111082,1,0,0:0:0:0:
448,192,111129,1,0,0:0:0:0:
192,192,111177,1,0,0:0:0:0:
64,192,111177,1,0,0:0:0:0:
320,192,111248,1,0,0:0:0:0:
192,192,111320,1,0,0:0:0:0:
448,192,111320,1,0,0:0:0:0:
64,192,111391,1,0,0:0:0:0:
320,192,111463,1,0,0:0:0:0:
448,192,111463,1,0,0:0:0:0:
192,192,111510,1,0,0:0:0:0:
64,192,111558,1,0,0:0:0:0:
320,192,111606,1,0,0:0:0:0:
448,192,111606,1,0,0:0:0:0:
192,192,111653,1,0,0:0:0:0:
64,192,111701,1,0,0:0:0:0:
320,192,111748,1,0,0:0:0:0:
448,192,111748,1,0,0:0:0:0:
192,192,111820,1,0,0:0:0:0:
64,192,111891,1,0,0:0:0:0:
448,192,111891,1,0,0:0:0:0:
320,192,111963,1,0,0:0:0:0:
64,192,112034,1,0,0:0:0:0:
192,192,112034,1,0,0:0:0:0:
448,192,112082,1,0,0:0:0:0:
320,192,112129,1,0,0:0:0:0:
64,192,112177,1,0,0:0:0:0:
192,192,112177,1,0,0:0:0:0:
448,192,112225,1,0,0:0:0:0:
320,192,112272,1,0,0:0:0:0:
64,192,112320,1,0,0:0:0:0:
192,192,112320,1,0,0:0:0:0:
448,192,112391,1,0,0:0:0:0:
192,192,112463,1,0,0:0:0:0:
320,192,112463,1,0,0:0:0:0:
64,192,112534,1,0,0:0:0:0:
448,192,112606,1,0,0:0:0:0:
192,192,112653,1,0,0:0:0:0:
64,192,112701,1,0,0:0:0:0:
448,192,112748,1,0,0:0:0:0:
192,192,112796,1,0,0:0:0:0:
320,192,112844,1,0,0:0:0:0:
64,192,112891,1,0,0:0:0:0:
192,192,112939,1,0,0:0:0:0:
448,192,112987,1,0,0:0:0:0:
320,192,113034,1,0,0:0:0:0:
192,192,113082,1,0,0:0:0:0:
64,192,113129,1,0,0:0:0:0:
320,192,113177,1,0,0:0:0:0:
192,192,113225,1,0,0:0:0:0:
448,192,113272,1,0,0:0:0:0:
320,192,113320,1,0,0:0:0:0:
64,192,113367,1,0,0:0:0:0:
448,192,113415,1,0,0:0:0:0:
192,192,113463,1,0,0:0:0:0:
320,192,113510,1,0,0:0:0:0:
64,192,113558,1,0,0:0:0:0:
192,192,113606,1,0,0:0:0:0:
448,192,113653,1,0,0:0:0:0:
64,192,113701,1,0,0:0:0:0:
320,192,113748,1,0,0:0:0:0:
192,192,113820,1,0,0:0:0:0:
448,192,113891,1,0,0:0:0:0:
320,192,113963,1,0,0:0:0:0:
64,192,114034,1,0,0:0:0:0:
448,192,114106,1,0,0:0:0:0:
192,192,114177,1,0,0:0:0:0:
320,192,114248,1,0,0:0:0:0:
64,192,114320,1,0,0:0:0:0:
448,192,114415,1,0,0:0:0:0:
192,192,114510,1,0,0:0:0:0:
320,192,114606,1,0,0:0:0:0:
64,192,114701,1,0,0:0:0:0:
448,192,114796,1,0,0:0:0:0:
192,192,114891,1,0,0:0:0:0:
