osu file format v14

[General]
AudioFilename: goodluck.mp3
AudioLeadIn: 0
PreviewTime: 88949
Countdown: 0
SampleSet: Normal
StackLeniency: 0.2
Mode: 0
LetterboxInBreaks: 0
WidescreenStoryboard: 1

[Editor]
Bookmarks: 45599
DistanceSpacing: 1
BeatDivisor: 4
GridSize: 16
TimelineZoom: 2.599998

[Metadata]
Title:Mist Tek
TitleUnicode:Mist Tek
Artist:you
ArtistUnicode:you
Creator:TheShadowOfDark
Version:Remap
Source:
Tags:
BeatmapID:1620576
BeatmapSetID:770822

[Difficulty]
HPDrainRate:5
CircleSize:4
OverallDifficulty:9
ApproachRate:9.6
SliderMultiplier:2.6
SliderTickRate:1

[Events]
//Background and Video events
0,0,"_BG.jpg",0,0
//Break Periods
//Storyboard Layer 0 (Background)
//Storyboard Layer 1 (Fail)
//Storyboard Layer 2 (Pass)
//Storyboard Layer 3 (Foreground)
//Storyboard Sound Samples

[TimingPoints]
449,300,4,1,0,100,1,0
449,-142.857142857143,4,1,0,20,0,0
1574,-200,4,1,0,10,0,0
2249,-200,4,1,0,20,0,0
4049,-333.333333333333,4,1,0,20,0,0
4949,-125,4,1,0,20,0,0
5174,-142.857142857143,4,1,0,5,0,0
5249,-166.666666666666,4,1,0,30,0,0
6449,-249.999999999999,4,1,0,40,0,0
10049,-111.111111111111,4,1,0,30,0,0
11249,-66.6666666666667,4,1,0,50,0,0
11849,-55.5555555555556,4,1,0,50,0,0
12149,-33.3333333333333,4,1,0,50,0,0
12449,-100,4,1,0,70,0,0
13049,-50,4,1,0,70,0,0
14849,-83.3333333333333,4,1,0,70,0,0
15899,-500,4,1,0,70,0,0
16124,-500,4,1,0,5,0,0
16199,-500,4,1,0,70,0,0
16349,-100,4,1,0,70,0,0
16574,-80,4,1,0,5,0,0
16649,-60.6060606060605,4,1,0,70,0,0
16874,-32.7868852459016,4,1,0,5,0,0
16949,-66.6666666666667,4,1,0,70,0,0
17024,-66.6666666666667,4,1,0,5,0,0
17249,-100,4,1,0,70,0,0
17849,-50,4,1,0,70,0,0
19649,-100,4,1,0,70,0,0
20999,-1000,4,1,0,70,0,0
21749,-33.3333333333333,4,1,0,70,0,0
22049,-80,4,1,0,70,0,0
22649,-50,4,1,0,70,0,0
24449,-100,4,1,0,70,0,0
25499,-500,4,1,0,70,0,0
25724,-500,4,1,0,5,0,0
25799,-500,4,1,0,70,0,0
26249,-66.6666666666667,4,1,0,70,0,0
31049,-100,4,1,0,70,0,0
31349,-83.3333333333333,4,1,0,70,0,0
31649,-100,4,1,0,70,0,0
31799,-666.666666666667,4,1,0,50,0,0
32849,-28.5714285714286,4,1,0,70,0,0
32999,-66.6666666666667,4,1,0,5,0,0
33449,-111.111111111111,4,1,0,70,0,0
34049,-999.99999999999,4,1,0,50,0,0
34274,-999.99999999999,4,1,0,5,0,0
34349,-999.99999999999,4,1,0,50,0,0
34574,-999.99999999999,4,1,0,5,0,0
34649,-999.99999999999,4,1,0,50,0,0
34874,-999.99999999999,4,1,0,5,0,0
34949,-125,4,1,0,30,0,0
35174,-166.666666666667,4,1,0,5,0,0
35249,-62.5,4,1,0,70,0,0
36374,-83.3333333333333,4,1,0,5,0,0
36449,-66.6666666666667,4,1,0,70,0,0
37349,-50,4,1,0,70,0,0
37574,-66.6666666666667,4,1,0,5,0,0
37649,-66.6666666666667,4,1,0,70,0,0
38249,-55.5555555555556,4,1,0,70,0,0
38774,-83.3333333333333,4,1,0,5,0,0
38849,-83.3333333333333,4,1,0,70,0,0
39749,-47.6190476190476,4,1,0,70,0,0
40049,-66.6666666666667,4,1,0,70,0,0
40949,-200,4,1,0,70,0,0
41249,-83.3333333333333,4,1,0,70,0,0
41549,-50,4,1,0,70,0,0
41849,-66.6666666666667,4,1,0,70,0,0
42074,-83.3333333333333,4,1,0,5,0,0
42149,-38.4615384615385,4,1,0,70,0,0
42374,-66.6666666666667,4,1,0,5,0,0
42449,-66.6666666666667,4,1,0,70,0,0
43049,-83.3333333333333,4,1,0,70,0,0
43499,-250,4,1,0,70,0,0
44249,-25,4,1,0,70,0,0
44324,-200,4,1,0,5,0,0
44549,-41.6666666666667,4,1,0,70,0,0
44849,-66.6666666666667,4,1,0,70,0,0
45149,-41.6666666666667,4,1,0,70,0,0
45449,-66.6666666666667,4,1,0,70,0,0
45749,-41.6666666666667,4,1,0,70,0,0
46049,-50,4,1,0,70,0,0
46349,-41.6666666666667,4,1,0,70,0,0
46949,-200,4,1,0,50,0,0
47249,-83.3333333333333,4,1,0,70,0,0
47549,-41.6666666666667,4,1,0,70,0,0
47849,-66.6666666666667,4,1,0,70,0,0
48149,-41.6666666666667,4,1,0,70,0,0
49349,-200,4,1,0,50,0,0
49949,-41.6666666666667,4,1,0,70,0,0
50249,-66.6666666666667,4,1,0,70,0,0
50549,-200,4,1,0,50,0,0
50849,-83.3333333333333,4,1,0,70,0,0
51149,-41.6666666666667,4,1,0,70,0,0
51599,-66.6666666666667,4,1,0,70,0,0
51749,-200,4,1,0,50,0,0
52049,-83.3333333333333,4,1,0,70,0,0
52349,-200,4,1,0,50,0,0
52649,-200,4,1,0,70,0,0
52949,-200,4,1,0,50,0,0
53249,-90.9090909090909,4,1,0,40,0,0
54074,-142.857142857143,4,1,0,5,0,0
54149,-500,4,1,0,70,0,0
54374,-111.111111111111,4,1,0,5,0,0
54449,-200,4,1,0,30,0,0
58049,-333.333333333333,4,1,0,30,0,0
58649,-250,4,1,0,30,0,0
58874,-133.333333333333,4,1,0,5,0,0
58949,-25,4,1,0,70,0,0
59024,-79.9999999999999,4,1,0,5,0,0
59249,-100,4,1,0,70,0,0
59849,-83.3333333333333,4,1,0,70,0,0
64649,-66.6666666666667,4,1,0,70,0,0
64686,-66.6666666666667,4,1,0,5,0,0
64761,-66.6666666666667,4,1,0,70,0,0
64836,-66.6666666666667,4,1,0,5,0,0
64911,-66.6666666666667,4,1,0,70,0,0
64986,-66.6666666666667,4,1,0,5,0,0
65061,-66.6666666666667,4,1,0,70,0,0
65136,-66.6666666666667,4,1,0,5,0,0
65211,-66.6666666666667,4,1,0,70,0,0
65849,-33.3333333333333,4,1,0,70,0,0
65886,-83.3333333333333,4,1,0,5,0,0
66111,-83.3333333333333,4,1,0,5,0,0
66149,-33.3333333333333,4,1,0,70,0,0
66186,-33.3333333333333,4,1,0,5,0,0
66411,-83.3333333333333,4,1,0,5,0,0
66449,-83.3333333333333,4,1,0,70,0,0
67124,-66.6666666666667,4,1,0,70,0,0
67649,-1000,4,1,0,70,0,0
68474,-166.666666666667,4,1,0,5,0,0
68549,-50,4,1,0,70,0,0
68774,-66.6666666666667,4,1,0,5,0,0
68849,-666.666666666667,4,1,0,30,0,0
72899,-333.333333333333,4,1,0,35,0,0
73649,-200,4,1,0,40,0,0
74249,-200,4,1,0,45,0,0
75149,-200,4,1,0,50,0,0
75449,-200,4,1,0,55,0,0
76049,-200,4,1,0,60,0,0
77249,-800,4,1,0,40,0,0
78374,-200,4,1,0,5,0,0
78449,-76.9230769230769,4,1,0,70,0,0
79649,-66.6666666666667,4,1,0,60,0,0
79686,-200,4,1,0,5,0,0
79949,-66.6666666666667,4,1,0,60,0,0
79986,-200,4,1,0,5,0,0
80249,-66.6666666666667,4,1,0,60,0,0
80286,-200,4,1,0,5,0,0
80399,-66.6666666666667,4,1,0,60,0,0
80436,-200,4,1,0,5,0,0
80549,-66.6666666666667,4,1,0,60,0,0
80586,-200,4,1,0,5,0,0
80849,-83.3333333333333,4,1,0,50,0,0
82049,-66.6666666666667,4,1,0,40,0,0
82874,-142.857142857143,4,1,0,5,0,0
82949,-33.3333333333333,4,1,0,40,0,0
83249,-100,4,1,0,70,0,0
83849,-66.6666666666667,4,1,0,70,0,0
84449,-50,4,1,0,70,0,0
85049,-40,4,1,0,70,0,0
85349,-25,4,1,0,70,0,0
85424,-50,4,1,0,5,0,0
85649,-100,4,1,0,70,0,0
85949,-66.6666666666667,4,1,0,70,0,0
86249,-50,4,1,0,70,0,0
86549,-40,4,1,0,70,0,0
86849,-100,4,1,0,60,0,0
87974,-200,4,1,0,5,0,0
88049,-90.909090909091,4,1,0,50,0,0
88874,-142.857142857143,4,1,0,5,0,0
88949,-25,4,1,0,80,0,0
89024,-66.6666666666667,4,1,0,5,0,0
89249,-50,4,1,0,80,0,1
91649,-66.6666666666667,4,1,0,80,0,1
93149,-166.666666666667,4,1,0,80,0,1
93374,-71.4285714285714,4,1,0,5,0,1
93449,-55.5555555555556,4,1,0,80,0,1
93674,-125,4,1,0,5,0,1
93749,-55.5555555555556,4,1,0,80,0,1
93824,-55.5555555555556,4,1,0,5,0,1
94049,-55.5555555555556,4,1,0,80,0,1
97799,-1000,4,1,0,80,0,1
98549,-33.3333333333333,4,1,0,80,0,1
98849,-55.5555555555556,4,1,0,80,0,1
101249,-76.9230769230769,4,1,0,80,0,1
103049,-55.5555555555556,4,1,0,80,0,1
109649,-25,4,1,0,60,0,0

[Colours]
Combo1 : 73,73,73
Combo2 : 192,192,192
Combo3 : 224,224,224
Combo4 : 141,141,141
Combo5 : 255,255,255
Combo6 : 98,98,98

[HitObjects]
256,192,449,12,0,1649,0:0:0:0:
76,176,2249,6,0,L|84:256,1,65
69,111,2549,2,0,L|76:176,1,65
69,111,2849,2,0,L|83:254,1,130
81,240,3449,1,0,0:0:0:0:
76,176,3599,1,0,0:0:0:0:
69,111,3749,2,0,L|76:176,1,65
249,268,4049,6,0,L|246:313,1,38.9999988098145
132,299,4349,2,0,L|135:345,1,38.9999988098145
256,176,4649,1,0,0:0:0:0:
139,227,4799,1,0,0:0:0:0:
246,306,4949,2,0,B|297:304|297:304|325:317|325:317|347:302|347:302|411:301,1,156
454,184,5249,6,0,B|437:154|437:154|352:155|352:155|311:212,1,155.999995239258
394,301,5699,1,0,0:0:0:0:
454,184,5849,2,0,P|406:146|324:207,1,155.999995239258
394,301,6449,6,0,L|391:327,1,26
387,236,6599,2,0,L|391:262,1,26
397,173,6749,2,0,L|394:199,1,26
389,108,6899,2,0,L|390:136,1,26
398,48,7049,2,0,L|394:73,1,26
414,308,7349,6,0,L|410:335,1,26
383,38,7499,2,0,L|379:66,1,26
405,241,7799,6,0,L|408:269,1,25.999999206543
364,53,7949,2,0,L|368:28,1,25.999999206543
353,17,8249,6,0,L|349:45,1,25.999999206543
397,173,8399,2,0,L|393:201,1,25.999999206543
434,315,8549,2,0,L|430:343,1,25.999999206543
435,352,8849,6,0,L|438:326,1,25.999999206543
347,14,9149,2,0,L|343:42,1,25.999999206543
160,175,9449,6,0,L|208:178,1,26
496,240,9599,2,0,L|458:237,1,26
496,240,9899,2,0,L|458:237,1,26
347,14,10049,5,0,0:0:0:0:
304,34,10124,1,0,0:0:0:0:
270,66,10199,1,0,0:0:0:0:
246,99,10274,1,0,0:0:0:0:
232,137,10349,1,0,0:0:0:0:
225,171,10424,1,0,0:0:0:0:
223,206,10499,1,0,0:0:0:0:
224,235,10574,1,0,0:0:0:0:
229,263,10649,1,0,0:0:0:0:
236,285,10724,1,0,0:0:0:0:
245,306,10799,1,0,0:0:0:0:
252,321,10874,1,0,0:0:0:0:
261,335,10949,1,0,0:0:0:0:
267,344,11024,1,0,0:0:0:0:
275,351,11099,1,0,0:0:0:0:
282,359,11174,1,0,0:0:0:0:
286,362,11249,6,0,B|382:346|382:346|283:363,1,195.00000743866
339,247,11549,2,0,B|435:231|435:231|336:248,1,195.00000743866
157,258,11849,6,0,B|92:272|48:233|48:233|93:272|158:259,1,233.999992858887
158,258,12149,6,0,B|93:272|49:233|49:233|54:175|110:128|181:128|210:141|250:173|270:237,1,390.00001487732
187,370,12449,6,0,P|148:373|103:361,1,65
50,231,12599,2,0,P|91:165|128:153,1,65
216,50,12749,1,0,0:0:0:0:
282,320,12899,1,0,0:0:0:0:
405,250,13049,6,0,B|359:241|321:248|321:248|279:228|279:228|237:251|237:251|204:244|158:258,1,260
216,50,13349,1,0,0:0:0:0:
406,249,13499,2,0,B|364:271|364:271|197:279|197:279|158:258,1,260
216,50,13799,1,0,0:0:0:0:
442,186,13949,6,0,P|428:320|341:280,1,260
403,70,14249,2,0,P|403:134|442:186,1,130
196,373,14399,2,0,P|195:309|157:257,1,130
442,186,14549,1,0,0:0:0:0:
196,373,14699,1,0,0:0:0:0:
215,51,14849,6,0,B|186:128|257:128|216:200,1,155.999995239258
403,70,15149,1,0,0:0:0:0:
216,200,15299,2,0,B|257:128|186:128|216:50,1,155.999995239258
300,233,15599,2,0,B|247:285|247:285|127:269,1,155.999995239258
403,70,15899,6,0,L|444:62,1,39
475,55,16199,1,0,0:0:0:0:
322,318,16349,6,0,P|244:293|300:233,1,195
458,196,16649,6,0,B|528:232|528:232|430:273|430:273|428:283|428:283|430:273|430:273|281:334,1,321.750003068447
384,211,16949,6,0,P|460:122|486:131,1,97.50000371933
322,318,17249,6,0,P|299:345|239:347,1,65
322,62,17399,2,0,P|345:35|405:33,1,65
419,128,17549,1,0,0:0:0:0:
180,359,17699,1,0,0:0:0:0:
403,384,17849,6,0,P|398:233|310:211,1,260
180,359,18149,1,0,0:0:0:0:
403,384,18299,2,0,B|436:300|436:300|406:234|406:234|279:200,1,260
180,359,18599,1,0,0:0:0:0:
292,99,18749,6,0,B|367:47|468:97|468:97|377:142,1,260
144,168,19049,2,0,P|151:30|154:27,1,130
397,262,19199,2,0,P|390:400|387:403,1,130
180,359,19349,1,0,0:0:0:0:
294,99,19499,1,0,0:0:0:0:
402,383,19649,6,0,P|409:245|412:242,1,130
138,46,19949,2,0,P|131:184|128:187,1,130
16,294,20249,1,0,0:0:0:0:
219,29,20399,1,0,0:0:0:0:
19,120,20549,1,0,0:0:0:0:
381,101,20699,1,0,0:0:0:0:
219,29,20849,1,0,0:0:0:0:
279,233,20999,6,0,L|292:220,1,13
131,86,21299,2,0,L|121:95,1,13
103,271,21599,2,0,L|112:265,1,6.5
179,274,21749,6,0,B|173:324|154:333|106:399|16:351|4:307|7:263|5:185|109:158|165:224|165:224|193:212|193:212|211:221|211:221|241:222|241:222|263:213|263:213|288:227|388:200,1,585.00002231598
475,126,22049,6,0,P|485:92|459:7,1,81.25
268,306,22199,2,0,P|302:316|363:301,1,81.25
502,249,22349,1,0,0:0:0:0:
321,61,22499,1,0,0:0:0:0:
268,306,22649,6,0,B|320:329|384:311|432:261|429:219|429:219|409:250|309:248,1,260
321,61,22949,1,0,0:0:0:0:
433,171,23099,2,0,P|390:287|268:306,1,260
481,46,23399,1,0,0:0:0:0:
283,219,23549,2,0,P|277:121|335:198,1,260
161,365,23849,6,0,B|132:335|132:335|132:213,1,130
265,49,23999,2,0,B|294:79|294:79|294:201,1,130
132,87,24149,1,0,0:0:0:0:
432,241,24299,1,0,0:0:0:0:
161,365,24449,6,0,B|132:335|132:335|132:213,1,130
432,241,24749,1,0,0:0:0:0:
132,246,24899,2,0,B|132:335|132:335|161:365,1,130
127,151,25199,2,0,P|68:174|41:231,1,130
356,224,25499,6,0,L|403:234,1,39
432,241,25799,1,0,0:0:0:0:
166,66,25949,1,0,0:0:0:0:
166,66,26249,6,0,L|186:291,1,195.00000743866
100,246,26474,2,0,L|82:51,1,195.00000743866
0,42,26699,2,0,L|12:161,1,97.50000371933
27,333,26849,5,0,0:0:0:0:
166,66,26999,1,0,0:0:0:0:
18,236,27149,1,0,0:0:0:0:
250,81,27299,1,0,0:0:0:0:
9,139,27449,1,0,0:0:0:0:
334,96,27599,1,0,0:0:0:0:
0,42,27749,1,0,0:0:0:0:
334,96,27899,1,0,0:0:0:0:
334,96,27974,1,0,0:0:0:0:
334,96,28049,5,0,0:0:0:0:
0,42,28199,1,0,0:0:0:0:
250,81,28349,1,0,0:0:0:0:
9,139,28499,1,0,0:0:0:0:
166,66,28649,1,0,0:0:0:0:
18,236,28799,1,0,0:0:0:0:
82,51,28949,2,0,L|94:170,1,97.50000371933
27,333,29099,2,0,P|145:357|184:328,1,97.50000371933
285,364,29249,6,0,L|512:348,1,195.00000743866
505,191,29474,2,0,L|310:204,1,195.00000743866
256,288,29699,2,0,L|406:276,1,97.50000371933
476,115,29849,6,0,L|249:131,1,195.00000743866
255,287,30074,2,0,L|449:273,1,195.00000743866
505,191,30299,2,0,L|355:203,1,97.50000371933
256,96,30449,5,0,0:0:0:0:
256,288,30599,1,0,0:0:0:0:
320,80,30749,5,0,0:0:0:0:
192,304,30899,1,0,0:0:0:0:
384,64,31049,6,0,L|392:136,1,65
128,320,31199,2,0,L|120:248,1,65
448,48,31349,6,0,L|458:142,1,77.999997619629
64,336,31499,2,0,L|54:242,1,77.999997619629
256,192,31649,5,0,0:0:0:0:
279,48,31799,2,0,L|237:48,3,38.9999988098145
256,192,32849,6,0,B|256:141|256:141|226:142|208:157|192:173|192:205|192:237|208:253|224:269|256:269|288:269|304:253|320:237|320:205|320:173|304:157|288:141|256:141|256:141|256:192,1,455.000004339218
384,288,33449,6,0,P|410:225|369:92,2,175.499994644165
214,335,34049,6,0,L|192:325,1,19.5
204,241,34349,2,0,L|182:231,1,19.5
194,147,34649,2,0,L|172:137,1,19.5
282,187,34949,6,0,B|326:177|346:145|346:145|325:178|278:187,1,156
194,147,35249,6,0,L|80:136,1,104
106,50,35399,2,0,L|-8:39,1,104
162,242,35549,2,0,P|247:216|193:146,1,208
48,268,35774,1,0,0:0:0:0:
64,300,35849,2,0,P|123:350|175:353,1,104
312,280,35999,2,0,P|253:230|201:227,1,104
32,178,36149,2,0,P|154:108|34:95,1,312
64,300,36449,6,0,P|171:285|240:200,1,195.00000743866
304,131,36674,1,0,0:0:0:0:
376,57,36749,2,0,P|380:147|301:126,1,195.00000743866
470,21,36974,1,0,0:0:0:0:
485,66,37049,2,0,P|494:115|446:188,1,97.50000371933
305,372,37199,2,0,P|296:323|344:250,1,97.50000371933
478,158,37349,6,0,B|458:222|391:282|288:269|251:215|251:215|301:190|377:217,1,390
492,312,37649,6,0,P|418:345|366:339,1,97.50000371933
251,215,37799,2,0,P|209:205|135:227,1,97.50000371933
110,384,37949,2,0,P|209:324|214:286,1,97.50000371933
61,78,38099,2,0,B|37:128|87:125|42:200,1,97.50000371933
195,348,38249,5,0,0:0:0:0:
206,104,38399,1,0,0:0:0:0:
31,283,38549,6,0,B|118:289|118:289|146:322|146:322|239:325|239:325|279:299|279:299|393:298,1,350.99998928833
270,64,38849,6,0,P|232:77|200:114,1,77.999997619629
358,298,38999,2,0,P|396:285|428:248,1,77.999997619629
126,66,39149,6,0,P|129:148|154:172,1,77.999997619629
502,297,39299,2,0,P|499:215|474:191,1,77.999997619629
272,150,39449,5,0,0:0:0:0:
278,190,39524,1,0,0:0:0:0:
368,250,39599,5,0,0:0:0:0:
358,298,39674,1,0,0:0:0:0:
255,312,39749,6,0,B|245:254|272:204|386:187|386:187|373:213|368:250,1,272.999991668701
188,384,40049,6,0,P|160:276|170:259,1,97.50000371933
278,190,40199,2,0,P|369:140|416:164,1,97.50000371933
358,298,40349,2,0,P|267:348|220:324,1,97.50000371933
448,104,40499,2,0,P|476:212|466:229,1,97.50000371933
449,342,40649,5,0,0:0:0:0:
368,43,40799,1,0,0:0:0:0:
482,190,40949,6,0,P|432:200|441:168,1,97.5
500,288,41249,6,0,P|409:283|390:258,1,77.999997619629
278,190,41399,2,0,P|240:183|203:195,1,77.999997619629
53,304,41549,6,0,B|39:354|96:355|96:355|117:309|88:263|88:263|46:203|76:147|79:140,1,260
188,47,41774,1,0,0:0:0:0:
242,126,41849,6,0,P|136:156|203:50,1,292.50001115799
437,33,42149,6,0,B|395:165|472:159|526:255|516:302|449:386|357:358|307:294|316:250|329:214|353:193|396:183,1,506.999976791383
422,143,42449,5,0,0:0:0:0:
271,323,42599,1,0,0:0:0:0:
447,137,42749,5,0,0:0:0:0:
212,313,42899,1,0,0:0:0:0:
472,131,43049,5,0,0:0:0:0:
158,285,43199,1,0,0:0:0:0:
497,124,43349,5,0,0:0:0:0:
111,247,43499,2,0,P|81:260|3:248,2,104
137,197,44249,6,0,P|58:263|117:191,1,260
169,65,44549,6,0,B|269:35|269:35|393:45|393:45|281:99,1,311.999990478516
164,182,44774,1,0,0:0:0:0:
136,197,44849,6,0,P|77:218|18:192,1,97.50000371933
81,91,44999,2,0,P|96:8|123:-8,1,97.50000371933
318,81,45149,6,0,B|356:172|303:278|303:278|313:217|251:158,1,311.999990478516
206,99,45374,1,0,0:0:0:0:
175,83,45449,6,0,P|127:77|81:91,1,97.50000371933
98,262,45599,2,0,P|145:268|192:254,1,97.50000371933
419,157,45749,6,0,B|307:163|307:163|270:180|270:180|231:164|231:164|67:175,1,311.999990478516
347,242,46049,2,0,P|454:259|419:157,1,260
249,319,46274,1,0,0:0:0:0:
369,356,46349,2,0,P|488:280|419:157,1,311.999990478516
175,83,46649,5,0,0:0:0:0:
369,356,46799,1,0,0:0:0:0:
419,157,46949,2,0,L|410:92,1,65
95,156,47249,5,0,0:0:0:0:
441,245,47399,1,0,0:0:0:0:
103,298,47549,6,0,B|0:160|102:87|102:87|86:122|101:188,1,311.999990478516
40,384,47774,1,0,0:0:0:0:
22,365,47849,6,0,B|6:341|6:341|0:272,1,97.50000371933
181,8,47999,2,0,B|197:32|197:32|202:100,1,97.50000371933
141,360,48149,6,0,P|114:257|256:297,1,311.999990478516
353,308,48449,5,0,0:0:0:0:
22,365,48599,1,0,0:0:0:0:
116,74,48749,2,0,B|182:158|182:158|141:360,1,311.999990478516
333,159,49049,6,0,B|255:120|182:157|182:157|254:121|335:161,1,311.999990478516
472,293,49349,6,0,L|482:357,1,65
181,157,49649,1,0,0:0:0:0:
472,293,49799,1,0,0:0:0:0:
141,245,49949,6,0,B|128:197|86:163|86:163|126:127|123:75|123:75|186:94|245:77|245:77|259:194,1,311.999990478516
376,72,50174,1,0,0:0:0:0:
416,68,50249,6,0,L|531:49,1,97.50000371933
237,230,50399,2,0,L|141:245,1,97.50000371933
462,229,50549,6,0,L|472:293,1,65
398,384,50849,5,0,0:0:0:0:
503,141,50999,1,0,0:0:0:0:
202,37,51149,6,0,B|201:122|141:243|141:243|178:191|247:137,1,311.999990478516
312,66,51374,1,0,0:0:0:0:
340,42,51449,1,0,0:0:0:0:
373,17,51524,1,0,0:0:0:0:
404,2,51599,2,0,P|466:-6|524:25,1,97.50000371933
452,165,51749,6,0,L|462:229,1,65
335,359,52049,1,0,0:0:0:0:
204,172,52199,1,0,0:0:0:0:
442,101,52349,6,0,L|452:165,1,65
335,359,52649,1,0,0:0:0:0:
184,101,52799,1,0,0:0:0:0:
432,37,52949,6,0,L|442:101,1,65
123,134,53249,6,0,B|95:64|151:-2|218:6|270:41|281:97|254:151|217:163|203:172|203:172|179:201|170:229|144:277|194:323|209:349|209:349|252:347|324:338|352:274|352:274|321:255|255:259,1,786.500024002076
75,313,54149,6,0,L|26:320,1,39
175,343,54449,5,0,0:0:0:0:
279,340,54599,1,0,0:0:0:0:
177,324,54749,1,0,0:0:0:0:
281,321,54899,1,0,0:0:0:0:
179,305,55049,1,0,0:0:0:0:
181,286,55349,1,0,0:0:0:0:
183,267,55649,1,0,0:0:0:0:
185,248,55949,1,0,0:0:0:0:
187,229,56249,1,0,0:0:0:0:
291,226,56399,1,0,0:0:0:0:
189,210,56549,1,0,0:0:0:0:
191,191,56849,1,0,0:0:0:0:
193,172,57149,1,0,0:0:0:0:
195,153,57449,1,0,0:0:0:0:
299,150,57599,1,0,0:0:0:0:
403,147,57749,5,0,0:0:0:0:
401,166,58049,2,0,L|394:258,1,77.999997619629
406,80,58499,1,0,0:0:0:0:
395,243,58649,2,0,L|400:164,1,78
406,80,58949,6,0,P|484:167|395:243,1,260
233,50,59249,5,0,0:0:0:0:
395,243,59399,1,0,0:0:0:0:
130,192,59549,1,0,0:0:0:0:
395,243,59699,1,0,0:0:0:0:
185,316,59849,6,0,P|128:267|130:192,1,155.999995239258
298,70,60149,2,0,B|371:26|394:86|464:33,1,155.999995239258
352,139,60374,1,0,0:0:0:0:
352,139,60449,1,0,0:0:0:0:
185,316,60599,1,0,0:0:0:0:
112,72,60749,1,0,0:0:0:0:
319,242,60899,1,0,0:0:0:0:
25,239,61049,6,0,B|35:302|102:324|102:324|107:284,1,155.999995239258
261,69,61349,2,0,B|147:52|147:52|112:72,1,155.999995239258
203,134,61574,2,0,L|296:146,1,77.999997619629
106,292,61799,1,0,0:0:0:0:
112,72,61949,1,0,0:0:0:0:
276,345,62099,1,0,0:0:0:0:
430,147,62249,6,0,B|361:153|361:153|343:139|343:139|280:143,1,155.999995239258
416,384,62549,2,0,P|495:353|508:289,1,155.999995239258
426,302,62774,1,0,0:0:0:0:
426,302,62849,1,0,0:0:0:0:
256,112,62999,5,0,0:0:0:0:
86,302,63149,1,0,0:0:0:0:
256,92,63299,5,0,0:0:0:0:
396,288,63449,1,0,0:0:0:0:
256,72,63599,5,0,0:0:0:0:
116,288,63749,1,0,0:0:0:0:
256,52,63899,5,0,0:0:0:0:
366,274,64049,1,0,0:0:0:0:
256,32,64199,5,0,0:0:0:0:
146,274,64349,1,0,0:0:0:0:
256,12,64499,5,0,0:0:0:0:
221,330,64649,6,0,P|176:311|146:274,1,97.50000371933
290,53,64799,2,0,P|335:72|366:110,1,97.50000371933
76,308,64949,2,0,P|64:260|120:200,1,97.50000371933
436,76,65099,2,0,P|448:124|392:184,1,97.50000371933
84,218,65249,5,0,0:0:0:0:
427,165,65399,1,0,0:0:0:0:
221,330,65549,1,0,0:0:0:0:
290,53,65699,1,0,0:0:0:0:
400,320,65849,6,0,B|448:304|448:304|484:244,7,97.50000371933
456,172,66149,2,0,P|404:192|380:236,7,97.50000371933
472,263,66449,5,0,0:0:0:0:
264,72,66599,1,0,0:0:0:0:
307,287,66749,1,0,0:0:0:0:
342,13,66899,1,0,0:0:0:0:
400,320,67049,1,0,0:0:0:0:
400,320,67124,1,0,0:0:0:0:
435,46,67274,1,0,0:0:0:0:
435,46,67349,1,0,0:0:0:0:
307,287,67499,1,0,0:0:0:0:
215,154,67649,6,0,P|184:138|149:137,1,71.5
149,137,68549,6,0,P|215:262|101:178,1,390
216,45,68849,6,0,L|296:41,1,77.999997619629
337,137,70049,2,0,L|259:141,1,77.999997619629
425,87,71249,2,0,P|440:130|434:168,2,77.999997619629
186,85,72899,5,0,0:0:0:0:
259,142,73049,2,0,L|337:137,1,77.999997619629
186,85,73649,5,0,0:0:0:0:
174,177,73799,1,0,0:0:0:0:
333,199,73949,1,0,0:0:0:0:
345,107,74099,1,0,0:0:0:0:
259,142,74249,6,0,L|242:273,1,130
418,163,74849,2,0,L|434:34,1,130
401,291,75449,5,0,0:0:0:0:
434,34,75599,1,0,0:0:0:0:
259,142,75749,1,0,0:0:0:0:
242,270,76049,6,0,L|113:253,1,130
434,34,76649,1,0,0:0:0:0:
259,142,76799,1,0,0:0:0:0:
401,291,76949,1,0,0:0:0:0:
273,20,77249,6,0,L|259:141,1,121.875
249,243,78449,6,0,P|352:211|366:117,1,168.999992263794
368,29,78674,1,0,0:0:0:0:
344,13,78749,2,0,L|162:29,1,168.999992263794
67,140,78974,1,0,0:0:0:0:
90,155,79049,2,0,L|259:141,1,168.999992263794
415,81,79274,1,0,0:0:0:0:
447,64,79349,2,0,B|463:159|463:159|453:236,1,168.999992263794
374,330,79649,6,0,L|365:282,7,48.750001859665
279,345,79949,2,0,L|270:297,7,48.750001859665
168,338,80249,6,0,L|123:355,3,48.750001859665
128,261,80399,2,0,L|83:278,3,48.750001859665
88,184,80549,2,0,L|43:201,7,48.750001859665
197,143,80849,6,0,P|311:99|422:164,1,233.999992858887
406,144,81149,2,0,P|292:188|181:123,1,233.999992858887
406,144,81449,6,0,P|449:194|459:221,1,77.999997619629
196,142,81599,2,0,P|153:92|143:65,1,77.999997619629
278,345,81749,2,0,L|94:356,1,155.999995239258
239,77,82049,6,0,P|199:219|148:81,1,390.00001487732
370,14,82499,1,0,0:0:0:0:
196,142,82649,6,0,B|29:115|29:115|154:79,1,292.50001115799
239,77,82949,6,0,P|199:219|148:81,1,390.00001487732
196,142,83249,6,0,P|179:165|172:206,1,65
316,242,83399,2,0,P|333:219|340:178,1,65
256,192,83549,1,0,0:0:0:0:
156,92,83849,6,0,P|116:156|115:222,1,97.50000371933
356,291,83999,2,0,P|396:227|399:164,1,97.50000371933
256,192,84149,1,0,0:0:0:0:
115,46,84449,6,0,P|68:106|51:183,1,130
397,338,84599,2,0,P|444:278|461:201,1,130
256,192,84749,1,0,0:0:0:0:
72,1,85049,6,0,P|21:60|-8:145,1,162.5
440,383,85199,2,0,P|491:324|520:239,1,162.5
255,191,85349,2,0,P|192:260|278:223,1,260
196,142,85649,6,0,P|179:165|172:206,1,65
316,242,85799,2,0,P|333:219|340:178,1,65
156,92,85949,6,0,P|116:156|115:222,1,97.50000371933
356,291,86099,2,0,P|396:227|399:164,1,97.50000371933
115,46,86249,6,0,P|68:106|51:183,1,130
397,338,86399,2,0,P|444:278|461:201,1,130
72,1,86549,6,0,P|21:60|-8:145,1,162.5
440,383,86699,2,0,P|491:324|520:239,1,162.5
255,191,86849,6,0,B|220:163|166:202|162:233|179:276|202:289|226:288|247:285|262:278|280:267|279:226|279:226|265:127|277:99|297:67|337:71|384:86|384:86|422:142|418:184|388:218|388:218|358:184|356:148|384:86|384:86|501:37|505:139|508:196|492:237,1,975
470,280,88049,6,0,B|427:340|405:366|390:371|375:363|358:349|370:339|376:333|381:316|384:295|376:284|376:275|357:265|340:264|320:273|344:314|347:342|321:372|277:378|266:378|234:388|176:378|137:360|96:343|108:313|100:292|81:236|75:195|86:150|136:105|181:111|216:96|265:101|320:132,1,786.500024002076
278,223,88949,6,0,P|192:260|255:191,1,260
131,349,89249,6,0,P|89:187|119:145,1,130
346,93,89399,2,0,P|388:255|358:297,1,130
282,353,89549,1,0,0:0:0:0:
263,36,89699,1,0,0:0:0:0:
477,265,89849,6,0,B|415:267|415:267|403:276|403:276|389:269|389:269|265:273|265:273|255:268|255:268|247:273|247:273|164:275,1,260
346,93,90149,1,0,0:0:0:0:
282,353,90299,2,0,P|144:339|156:205,1,260
263,36,90599,1,0,0:0:0:0:
449,344,90749,6,0,B|547:391|607:311|570:221|511:201|435:196|387:244|365:328|247:323|204:249,1,520
66,143,91199,1,0,0:0:0:0:
263,36,91349,5,0,0:0:0:0:
282,353,91499,1,0,0:0:0:0:
151,111,91649,6,0,P|82:49|-9:87,1,195.00000743866
66,143,91949,1,0,0:0:0:0:
282,353,92099,2,0,B|383:331|383:331|476:356,1,195.00000743866
340,112,92399,2,0,B|239:134|239:134|146:109,1,195.00000743866
418,10,92699,1,0,0:0:0:0:
418,10,92999,1,0,0:0:0:0:
272,249,93149,6,0,P|254:303|282:353,1,116.999996429443
328,297,93449,6,0,B|405:223|405:223|352:158|250:157|179:199,1,350.99998928833
282,353,93749,6,0,P|254:303|272:249,1,116.999996429443
417,22,94049,6,0,P|444:71|426:125,1,116.999996429443
190,300,94199,2,0,P|162:250|180:196,1,116.999996429443
426,125,94349,1,0,0:0:0:0:
139,42,94499,1,0,0:0:0:0:
282,353,94649,6,0,B|276:292|276:292|298:244|298:244|271:204|271:204|261:34,1,233.999992858887
323,0,94949,1,0,0:0:0:0:
190,300,95099,2,0,B|71:331|14:290|14:290|98:217|91:206,1,233.999992858887
266,132,95399,1,0,0:0:0:0:
446,345,95549,2,0,P|382:240|471:250,1,233.999992858887
474,17,95849,6,0,L|485:138,1,116.999996429443
445,343,95999,2,0,L|435:227,1,116.999996429443
266,132,96149,1,0,0:0:0:0:
484,133,96299,1,0,0:0:0:0:
206,190,96449,6,0,B|159:136|157:136|157:136|204:82|204:82|211:-23,1,233.999992858887
306,194,96749,2,0,B|353:248|355:248|355:248|308:302|308:302|301:407,1,233.999992858887
118,252,97049,1,0,0:0:0:0:
395,27,97199,1,0,0:0:0:0:
437,365,97349,1,0,0:0:0:0:
306,194,97499,1,0,0:0:0:0:
118,252,97649,1,0,0:0:0:0:
306,194,97799,6,0,L|306:212,1,13
118,252,98099,2,0,L|118:234,1,13
199,70,98399,2,0,L|199:79,1,6.5
278,69,98549,6,0,B|272:19|253:10|205:-56|115:-8|103:36|106:80|104:158|208:185|264:119|264:119|292:131|292:131|310:122|310:122|340:121|340:121|362:130|362:130|387:116|487:143,1,585.00002231598
501,259,98849,6,0,P|503:316|479:369,1,116.999996429443
256,179,98999,2,0,P|253:121|277:68,1,116.999996429443
466,47,99149,1,0,0:0:0:0:
286,314,99299,1,0,0:0:0:0:
75,2,99449,2,0,B|-63:-12|-36:171|22:204|140:184|186:52|231:12|334:84|352:109,1,467.999985717774
510,178,99899,1,0,0:0:0:0:
286,314,100049,5,0,0:0:0:0:
466,47,100199,1,0,0:0:0:0:
508,313,100349,2,0,B|429:295|429:295|357:329|357:329|265:309,1,233.999992858887
202,111,100649,1,0,0:0:0:0:
434,220,100799,2,0,P|504:85|386:43,2,233.999992858887
109,88,101249,6,0,P|215:14|276:47,1,168.999992263794
202,111,101549,1,0,0:0:0:0:
72,326,101699,2,0,P|32:267|104:257,1,168.999992263794
262,251,101999,2,0,P|170:275|90:247,1,168.999992263794
109,88,102299,2,0,P|215:14|276:47,1,168.999992263794
434,220,102599,1,0,0:0:0:0:
202,111,102749,2,0,B|135:172|135:172|26:167,1,168.999992263794
241,21,103049,6,0,L|490:63,1,233.999992858887
392,238,103274,2,0,L|143:196,1,233.999992858887
201,110,103499,2,0,L|380:139,1,116.999996429443
392,238,103649,5,0,0:0:0:0:
241,21,103799,1,0,0:0:0:0:
121,288,103949,1,0,0:0:0:0:
355,179,104099,1,0,0:0:0:0:
201,110,104249,1,0,0:0:0:0:
178,367,104399,1,0,0:0:0:0:
355,179,104549,1,0,0:0:0:0:
64,209,104699,1,0,0:0:0:0:
64,209,104774,1,0,0:0:0:0:
64,209,104849,5,0,0:0:0:0:
355,179,104999,1,0,0:0:0:0:
178,367,105149,1,0,0:0:0:0:
201,110,105299,1,0,0:0:0:0:
355,179,105449,1,0,0:0:0:0:
121,288,105599,1,0,0:0:0:0:
241,21,105749,2,0,L|420:50,1,116.999996429443
392,238,105899,2,0,L|276:219,1,116.999996429443
201,110,106049,6,0,L|443:148,1,233.999992858887
352,324,106274,2,0,L|120:287,1,233.999992858887
85,91,106499,2,0,L|264:120,1,116.999996429443
507,255,106649,2,0,L|275:218,1,233.999992858887
472,57,106874,2,0,L|241:21,1,233.999992858887
275,218,107099,2,0,L|159:199,1,116.999996429443
200,109,107249,6,0,L|442:147,1,233.999992858887
466,342,107474,2,0,L|234:305,1,233.999992858887
355,38,107699,2,0,L|240:20,1,116.999996429443
43,181,107849,2,0,L|274:217,1,233.999992858887
466,342,108074,2,0,L|234:305,1,233.999992858887
84,90,108299,2,0,L|199:108,1,116.999996429443
274,217,108449,6,0,L|505:253,1,233.999992858887
470,56,108674,2,0,L|238:19,1,233.999992858887
4,268,108899,2,0,L|120:287,1,116.999996429443
431,145,109049,2,0,L|200:109,1,233.999992858887
466,342,109274,2,0,L|234:305,1,233.999992858887
84,90,109499,2,0,L|199:108,1,116.999996429443
27,324,109649,6,0,B|27:324|27:324|27:324|27:324|27:324|27:324|27:324|27:324|27:324|27:324|27:324|27:324|27:324|27:324|27:324|27:324|27:292|27:324|27:324|27:292|27:292|27:324|27:324|27:292|27:292|27:324|27:324|27:292|27:292|27:324|27:324|27:292|27:292|27:324|27:324|27:292|27:292|27:324|27:324|27:292|27:292|27:324|27:324|27:292|27:292|27:324|27:324|27:292|27:292|27:324|27:324|27:292|27:292|27:324|27:324|27:292|27:292|27:324|27:324|27:292|27:292|27:324|27:324|27:292|27:292|27:324|27:324|27:292|27:292|27:324|27:324|27:292|27:292|27:324|27:324|27:292|27:292|27:324|27:324|27:292|27:292|27:324|27:324|27:292|27:292|27:324|27:324|27:292|27:292|27:324|27:324|27:292|27:292|27:324|27:324|27:292|27:292|27:324|27:324|27:292|27:292|27:324|27:324|27:292|27:292|27:324|27:324|27:292|27:292|27:324|27:324|27:292|27:292|27:324|27:324|27:292|27:292|27:324|27:324|27:292|27:292|27:324|27:324|27:292|27:292|27:324|27:324|27:292|27:292|27:324|27:324|27:292|27:292|27:292|27:292|27:292|27:292|27:292|27:292|27:292|27:292|27:292|27:292|27:292|27:292|27:292|27:292|27:292|27:292|27:292|27:292|27:292|27:292|27:292|27:292|27:292|27:292|27:292|27:292|27:292|27:292|27:292|27:292|27:292|27:292|27:292|27:292|27:292|27:292|27:292|27:292|27:292|27:292|27:292|27:292|27:292|27:292|27:292|27:292|27:292|27:292|27:292|27:292|27:292|27:292|27:324|27:324|27:292|27:292|27:324|27:324|27:292|27:292|27:324|27:324|27:292|27:292|27:324|27:324|27:292|27:292|27:324|27:324|27:292|27:292|27:324|27:324|27:292|27:292|27:324|27:324|27:292|27:292|27:324|27:324|27:292|27:292|27:324|27:324|27:292|27:292|27:324|27:324|27:292|27:292|27:324|27:324|27:292|27:292|27:324|27:324|27:292|27:292|27:324|27:324|27:292|27:292|27:324|27:324|27:292|27:292|27:324|27:324|27:292|27:292|27:324|27:324|27:292|27:292|27:324|27:324|27:292|27:292|27:324|27:324|27:292|27:292|27:324|27:324|27:292|27:292|27:324|27:324|27:292|27:292|27:324|27:324|27:292|27:292|27:324|27:324|27:292|27:292|27:324|27:324|27:292|27:292|27:324|27:324|27:292|27:292|27:324|27:324|27:292|27:292|27:324|27:324|27:292|27:292|27:324|27:324|27:292|27:292|27:324|27:324|27:292|27:292|29:239|-2:208|-2:208|98:252|144:265|161:194|231:250|245:249|304:229|304:229|235:241|228:347,1,4160
