osu file format v14

[General]
AudioFilename: goodluck.mp3
AudioLeadIn: 0
PreviewTime: 88950
Countdown: 0
SampleSet: Normal
StackLeniency: 0.4
Mode: 0
LetterboxInBreaks: 0
EpilepsyWarning: 1
WidescreenStoryboard: 1

[Editor]
Bookmarks: 449,2249,11249,12449,22049,31724,32849,35249,44849,54449,58949,59249,68849,78449,89249,103649,109649
DistanceSpacing: 1.3
BeatDivisor: 4
GridSize: 4
TimelineZoom: 3.200004

[Metadata]
Title:Mist Tek
TitleUnicode:Mist Tek
Artist:you
ArtistUnicode:you
Creator:Megapcmx
Version:Xususi
Source:SOUND VOLTEX II -infinite infection-
Tags:touhou project game ultimate tracks svii
BeatmapID:1579032
BeatmapSetID:749694

[Difficulty]
HPDrainRate:6
CircleSize:4
OverallDifficulty:8
ApproachRate:9.6
SliderMultiplier:1.9
SliderTickRate:1

[Events]
//Background and Video events
0,0,"bg.jpg",0,0
//Break Periods
2,2449,10740
2,54649,58049
//Storyboard Layer 0 (Background)
//Storyboard Layer 1 (Fail)
//Storyboard Layer 2 (Pass)
//Storyboard Layer 3 (Foreground)
//Storyboard Sound Samples

[TimingPoints]
449,300,4,2,1,90,1,0
449,-100,4,2,1,90,0,0
524,-100,4,1,1,80,0,0
599,-100,4,1,1,75,0,0
674,-100,4,1,1,70,0,0
749,-100,4,1,1,65,0,0
824,-100,4,1,1,60,0,0
899,-100,4,1,1,55,0,0
974,-100,4,1,1,50,0,0
1049,-100,4,1,1,45,0,0
1124,-100,4,1,1,40,0,0
1199,-100,4,1,1,35,0,0
1274,-100,4,1,1,30,0,0
1349,-100,4,1,1,25,0,0
1424,-100,4,1,1,20,0,0
1499,-100,4,1,1,15,0,0
1574,-100,4,1,1,10,0,0
1649,-100,4,1,1,5,0,0
11249,-111.111111111111,4,2,1,90,0,0
11849,-71.4285714285714,4,2,1,90,0,0
12449,-100,4,1,1,80,0,1
14249,-83.3333333333333,4,1,1,90,0,1
14849,-100,4,1,1,80,0,1
16199,-71.4285714285714,4,1,1,90,0,1
17249,-100,4,1,1,80,0,1
19049,-83.3333333333333,4,1,1,90,0,1
19649,-100,4,1,1,80,0,1
20849,-66.6666666666667,4,1,1,90,0,1
22049,-100,4,1,1,80,0,1
25799,-71.4285714285714,4,1,1,90,0,1
26849,-100,4,1,1,80,0,1
29249,-71.4285714285714,4,1,1,75,0,1
30449,-100,4,1,1,85,0,1
31649,-100,4,1,1,90,0,1
31724,-100,4,1,1,80,0,0
31799,-100,4,1,1,75,0,0
31874,-100,4,1,1,70,0,0
31949,-100,4,1,1,65,0,0
32024,-100,4,1,1,60,0,0
32099,-100,4,1,1,55,0,0
32174,-100,4,1,1,50,0,0
32249,-100,4,1,1,45,0,0
32324,-100,4,1,1,40,0,0
32399,-100,4,1,1,35,0,0
32474,-100,4,1,1,30,0,0
32549,-100,4,1,1,25,0,0
32624,-100,4,1,1,20,0,0
32699,-100,4,1,1,15,0,0
32849,-83.3333333333333,4,1,1,60,0,0
34049,-100,4,1,1,80,0,0
34949,-71.4285714285714,4,1,1,90,0,0
35249,-83.3333333333333,4,2,2,80,0,0
35399,-83.3333333333333,4,2,1,70,0,0
37349,-71.4285714285714,4,2,1,80,0,0
37649,-83.3333333333333,4,2,1,70,0,0
40049,-83.3333333333333,4,2,1,70,0,0
42149,-71.4285714285714,4,2,1,80,0,0
42449,-83.3333333333333,4,2,1,70,0,0
43499,-71.4285714285714,4,2,2,80,0,0
44249,-71.4285714285714,4,2,3,69,0,0
44549,-62.5,4,2,1,80,0,0
44849,-83.3333333333333,4,2,2,70,0,0
44999,-83.3333333333333,4,2,1,70,0,0
45749,-71.4285714285714,4,2,1,80,0,0
46049,-83.3333333333333,4,2,1,70,0,0
46949,-71.4285714285714,4,2,1,80,0,0
47249,-83.3333333333333,4,2,1,70,0,0
48149,-71.4285714285714,4,2,1,80,0,0
48449,-83.3333333333333,4,2,1,70,0,0
49349,-71.4285714285714,4,2,1,80,0,0
49649,-83.3333333333333,4,2,1,70,0,0
50549,-71.4285714285714,4,2,1,80,0,0
50849,-83.3333333333333,4,2,1,70,0,0
51749,-71.4285714285714,4,2,1,80,0,0
52349,-62.5,4,2,1,85,0,0
52949,-55.5555555555556,4,2,1,90,0,0
53249,-83.3333333333333,4,2,1,95,0,0
53324,-83.3333333333333,4,2,1,90,0,0
53399,-100,4,1,1,80,0,0
53474,-100,4,1,1,75,0,0
53549,-100,4,1,1,70,0,0
53624,-100,4,1,1,65,0,0
53699,-100,4,1,1,60,0,0
53774,-100,4,1,1,55,0,0
53849,-100,4,1,1,50,0,0
53924,-100,4,1,1,45,0,0
53999,-100,4,1,1,40,0,0
54074,-100,4,1,1,35,0,0
54149,-100,4,1,1,30,0,0
54224,-100,4,1,1,25,0,0
54299,-100,4,1,1,20,0,0
54449,-100,4,2,2,80,0,0
58949,-71.4285714285714,4,2,3,69,0,0
59249,-83.3333333333333,4,2,1,70,0,0
59849,-71.4285714285714,4,2,1,80,0,0
60149,-83.3333333333333,4,2,1,70,0,0
61049,-71.4285714285714,4,2,1,80,0,0
61349,-83.3333333333333,4,2,1,70,0,0
62249,-71.4285714285714,4,2,1,80,0,0
62549,-83.3333333333333,4,2,1,70,0,0
64049,-71.4285714285714,4,2,1,80,0,0
66449,-71.4285714285714,4,2,2,80,0,0
66599,-71.4285714285714,4,2,1,80,0,0
67049,-71.4285714285714,4,2,2,80,0,0
67649,-71.4285714285714,4,2,1,80,0,0
67724,-83.3333333333333,4,2,1,90,0,0
67799,-100,4,1,1,80,0,0
67874,-100,4,1,1,75,0,0
67949,-100,4,1,1,70,0,0
68024,-100,4,1,1,65,0,0
68099,-100,4,1,1,60,0,0
68174,-100,4,1,1,55,0,0
68249,-100,4,1,1,50,0,0
68324,-100,4,1,1,45,0,0
68399,-100,4,1,1,40,0,0
68474,-100,4,1,1,35,0,0
68549,-100,4,1,1,30,0,0
68849,-131.578947368421,4,2,2,80,0,0
71249,-111.111111111111,4,2,1,70,0,0
73649,-100,4,2,1,70,0,0
76049,-100,4,2,1,70,0,0
78449,-100,4,2,1,80,0,0
82949,-100,4,2,2,75,0,0
83249,-83.3333333333333,4,2,2,80,0,0
86849,-200,4,2,1,90,0,0
88049,-200,4,1,2,80,0,0
88124,-200,4,2,1,80,0,0
88199,-200,4,2,1,75,0,0
88274,-200,4,2,1,70,0,0
88349,-200,4,2,1,65,0,0
88424,-200,4,2,1,60,0,0
88499,-200,4,2,1,55,0,0
88574,-200,4,2,1,50,0,0
88649,-200,4,2,1,45,0,0
88724,-200,4,2,1,40,0,0
88799,-200,4,2,1,35,0,0
88949,-50,4,2,1,70,0,0
89249,-71.4285714285714,4,1,2,80,0,1
89399,-71.4285714285714,4,1,1,80,0,1
91049,-62.5,4,1,1,90,0,1
91649,-71.4285714285714,4,1,1,80,0,1
92999,-55.5555555555556,4,1,1,90,0,1
94049,-71.4285714285714,4,1,2,80,0,1
94199,-71.4285714285714,4,1,1,80,0,1
95849,-62.5,4,1,1,90,0,1
96449,-71.4285714285714,4,1,1,80,0,1
97649,-55.5555555555556,4,1,1,90,0,1
98849,-71.4285714285714,4,1,2,80,0,1
98999,-71.4285714285714,4,1,1,80,0,1
100649,-62.5,4,1,1,90,0,1
101249,-71.4285714285714,4,1,1,80,0,1
101699,-62.5,4,1,1,90,0,1
102599,-55.5555555555556,4,1,1,90,0,1
103649,-50,4,1,1,90,0,1
103799,-50,4,1,1,90,0,1
109649,-100,4,1,2,90,0,0
109724,-100,4,2,1,90,0,0
109799,-100,4,1,1,80,0,0
109874,-100,4,1,1,75,0,0
109949,-100,4,1,1,70,0,0
110024,-100,4,1,1,65,0,0
110099,-100,4,1,1,60,0,0
110174,-100,4,1,1,55,0,0
110249,-100,4,1,1,50,0,0
110324,-100,4,1,1,45,0,0
110399,-100,4,1,1,40,0,0
110474,-100,4,1,1,35,0,0
110549,-100,4,1,1,30,0,0
110624,-100,4,1,1,25,0,0
110699,-100,4,1,1,20,0,0
110849,-100,4,1,1,80,0,0

[Colours]
Combo1 : 255,255,0
Combo2 : 255,128,192
Combo3 : 128,0,128
Combo4 : 128,0,255
SliderBorder : 255,255,255
SliderTrackOverride : 0,0,0

[HitObjects]
256,192,449,12,0,2249,0:0:0:0:
64,65,11249,6,0,L|88:157,1,85.4999973907472,4|0,1:0|0:0,0:0:0:0:
186,127,11549,2,0,L|161:219,1,85.4999973907472,4|0,1:0|0:0,0:0:0:0:
308,189,11849,6,0,P|321:113|299:50,1,132.999995941162,2|0,1:0|0:0,0:0:0:0:
163,209,12149,2,0,P|150:285|172:348,1,132.999995941162,2|0,1:0|0:0,0:0:0:0:
399,305,12449,21,4,0:2:0:0:
308,189,12599,1,2,0:0:0:0:
277,269,12749,1,8,0:0:0:0:
436,170,12899,1,0,0:0:0:0:
356,69,13049,22,0,P|305:57|253:79,1,95,0|2,0:0|0:0,0:0:0:0:
219,81,13274,1,0,0:0:0:0:
174,70,13349,1,8,0:0:0:0:
141,37,13424,1,0,0:0:0:0:
95,49,13499,38,0,B|78:92|78:92|94:149,1,95
115,230,13799,2,0,L|127:275,1,47.5,2|0,0:0|0:0,0:0:0:0:
206,205,13949,2,0,P|252:204|293:227,1,95,8|0,0:0|0:0,0:0:0:0:
360,293,14249,22,0,L|360:365,1,56.9999982604981
270,319,14399,2,0,P|235:327|198:311,1,56.9999982604981,2|0,0:0|0:0,0:0:0:0:
384,202,14549,2,0,P|417:212|442:244,1,56.9999982604981,8|0,0:0|0:0,0:0:0:0:
455,323,14699,1,0,0:0:0:0:
293,227,14849,6,0,B|279:180|279:180|296:137,1,95,4|2,0:0|0:0,0:0:0:0:
397,94,15149,1,8,0:0:0:0:
202,204,15299,2,0,P|156:192|123:159,1,95,0|0,0:0|0:0,0:0:0:0:
176,24,15599,6,0,L|188:69,1,47.5,2|0,0:0|0:0,0:0:0:0:
200,114,15749,1,8,0:0:0:0:
52,72,15899,1,0,0:0:0:0:
52,268,16199,6,0,P|99:292|127:285,1,66.4999979705811,4|0,0:0|0:0,0:0:0:0:
149,254,16349,2,0,B|210:270|210:270|190:347,1,132.999995941162,4|0,0:0|0:0,0:0:0:0:
280,329,16649,38,0,B|348:331|348:331|332:269,1,132.999995941162,4|2,0:0|0:0,0:0:0:0:
256,201,16949,2,0,B|305:165|305:165|375:184,1,132.999995941162,4|2,0:0|0:0,0:0:0:0:
461,211,17249,21,4,0:2:0:0:
430,353,17399,1,2,0:0:0:0:
510,326,17549,1,8,0:0:0:0:
332,269,17699,1,0,0:0:0:0:
203,326,17849,6,0,P|156:318|120:288,1,95,0|2,0:0|0:0,0:0:0:0:
96,247,18074,1,0,0:0:0:0:
96,200,18149,1,8,0:0:0:0:
111,155,18224,1,0,0:0:0:0:
147,125,18299,6,0,B|175:88|175:88|175:29,1,95,0|0,0:0|0:0,0:0:0:0:
44,88,18599,2,0,L|28:145,1,47.5,2|0,0:0|0:0,0:0:0:0:
192,226,18749,2,0,P|233:247|280:244,1,95,8|0,0:0|0:0,0:0:0:0:
334,143,19049,22,0,L|376:185,1,56.9999982604981
406,270,19199,2,0,P|371:278|334:262,1,56.9999982604981,2|0,0:0|0:0,0:0:0:0:
433,111,19349,2,0,P|457:137|462:177,1,56.9999982604981,8|0,0:0|0:0,0:0:0:0:
351,272,19499,1,0,0:0:0:0:
277,85,19649,6,0,B|248:121|248:121|247:170,1,95,4|2,0:0|0:0,0:0:0:0:
209,310,19949,2,0,P|162:313|120:292,1,95,8|0,0:0|0:0,0:0:0:0:
309,248,20249,6,0,L|349:271,1,47.5,0|0,0:0|0:0,0:0:0:0:
389,294,20399,1,2,0:0:0:0:
209,310,20549,1,8,0:0:0:0:
396,191,20699,1,0,0:0:0:0:
264,156,20849,6,0,B|219:143|181:175|181:175|232:204,1,142.500005435944,4|0,0:0|0:0,0:0:0:0:
353,339,21149,2,0,B|397:351|435:319|435:319|385:291,1,142.500005435944,4|0,0:0|0:0,0:0:0:0:
159,339,21449,2,0,B|114:351|76:319|76:319|123:293,1,142.500005435944,4|0,0:0|0:0,0:0:0:0:
275,273,21749,22,0,P|257:195|233:271,1,213.750008153916,2|0,0:0|0:0,0:0:0:0:
256,313,22049,5,4,0:2:0:0:
387,292,22199,1,2,0:0:0:0:
367,163,22349,1,8,0:0:0:0:
238,183,22499,1,0,0:0:0:0:
387,292,22649,6,0,P|437:276|471:231,1,95,0|2,0:0|0:0,0:0:0:0:
480,201,22874,1,0,0:0:0:0:
471,155,22949,1,8,0:0:0:0:
447,114,23024,1,0,0:0:0:0:
406,91,23099,6,0,B|357:91|357:91|320:63,1,95
303,173,23399,2,0,L|340:200,1,47.5,2|0,0:0|0:0,0:0:0:0:
217,104,23549,2,0,P|178:76|131:73,1,95,8|0,0:0|0:0,0:0:0:0:
200,212,23849,1,0,0:0:0:0:
303,173,23999,1,2,0:0:0:0:
113,143,24149,2,0,P|85:181|82:228,1,95,8|0,0:0|0:0,0:0:0:0:
153,321,24449,6,0,P|199:312|243:328,1,95,4|2,0:0|0:0,0:0:0:0:
327,371,24749,2,0,L|372:325,1,47.5,8|0,0:0|0:0,0:0:0:0:
394,304,24899,1,0,0:0:0:0:
322,233,25049,5,0,0:0:0:0:
433,159,25199,1,2,0:0:0:0:
353,76,25349,1,8,0:0:0:0:
394,304,25499,1,0,0:0:0:0:
269,155,25649,1,0,0:0:0:0:
239,242,25799,6,0,P|209:228|191:200,1,66.4999979705811,6|0,0:0|0:0,0:0:0:0:
194,115,25949,2,0,B|127:129|127:129|102:193,1,132.999995941162,4|0,0:0|0:0,0:0:0:0:
344,195,26249,6,0,P|349:129|294:73,1,132.999995941162,4|0,0:0|0:0,0:0:0:0:
167,287,26474,2,0,P|221:324|297:304,1,132.999995941162,4|0,0:0|0:0,0:0:0:0:
192,31,26699,2,0,P|157:32|131:63,1,66.4999979705811,4|0,0:0|0:0,0:0:0:0:
119,121,26849,5,4,0:2:0:0:
308,79,26999,1,2,0:0:0:0:
161,181,27149,1,8,0:0:0:0:
265,18,27299,1,0,0:0:0:0:
234,194,27449,5,0,0:0:0:0:
192,5,27599,1,2,0:0:0:0:
295,151,27749,1,8,0:0:0:0:
131,48,27899,1,0,0:0:0:0:
131,48,27974,1,0,0:0:0:0:
131,48,28049,5,4,0:0:0:0:
308,79,28199,1,2,0:0:0:0:
161,181,28349,1,8,0:0:0:0:
338,212,28499,1,0,0:0:0:0:
191,314,28649,21,0,0:0:0:0:
368,345,28799,1,2,0:0:0:0:
469,253,28949,1,12,0:0:0:0:
475,206,29024,1,4,0:0:0:0:
465,160,29099,1,4,0:0:0:0:
439,120,29174,1,4,0:0:0:0:
398,90,29249,6,0,B|347:74|326:105|326:105|367:155,1,132.999995941162,4|0,0:0|0:0,0:0:0:0:
400,229,29474,2,0,B|355:241|355:241|316:231|316:231|281:200,1,132.999995941162,4|0,0:0|0:0,0:0:0:0:
268,125,29699,2,0,P|295:106|328:105,1,66.4999979705811,4|0,0:0|0:0,0:0:0:0:
209,173,29849,6,0,B|187:144|194:109|194:109|202:74|178:48,1,132.999995941162,2|0,0:0|0:0,0:0:0:0:
111,96,30074,2,0,B|82:117|72:151|72:151|93:180|87:212,1,132.999995941162,2|0,0:0|0:0,0:0:0:0:
58,294,30299,2,0,P|89:304|120:295,1,66.4999979705811,2|0,0:0|0:0,0:0:0:0:
222,249,30449,5,4,0:0:0:0:
87,211,30599,1,2,0:0:0:0:
205,332,30749,1,8,0:0:0:0:
239,166,30899,1,2,0:0:0:0:
286,306,31049,21,2,0:0:0:0:
326,281,31124,1,0,0:0:0:0:
357,246,31199,1,0,0:0:0:0:
375,202,31274,1,2,0:0:0:0:
379,155,31349,21,8,0:0:0:0:
367,109,31424,1,0,0:0:0:0:
342,69,31499,1,2,0:0:0:0:
305,40,31574,1,0,0:0:0:0:
261,23,31649,1,4,0:2:0:0:
256,192,31724,12,0,32699,0:0:0:0:
152,257,32849,6,0,B|136:297|136:297|176:321|192:369,1,113.999996520996,4|0,0:0|0:0,0:0:0:0:
360,129,33149,1,8,0:0:0:0:
368,85,33224,1,0,0:0:0:0:
352,41,33299,1,0,0:0:0:0:
131,48,33449,6,0,P|131:108|187:108,1,113.999996520996,4|0,0:0|0:0,0:0:0:0:
267,122,33674,2,0,P|278:173|230:193,1,113.999996520996,4|0,0:0|0:0,0:0:0:0:
133,201,33899,2,0,P|123:227|126:255,1,56.9999982604981,4|0,0:0|0:0,0:0:0:0:
237,288,34049,5,2,0:0:0:0:
245,295,34349,1,2,0:0:0:0:
254,302,34649,1,2,0:0:0:0:
263,309,34949,6,0,L|316:349,1,66.4999979705811
424,197,35249,6,0,L|408:254,1,56.9999982604981,6|0,0:0|0:0,0:0:0:0:
355,97,35399,2,0,L|404:68,1,56.9999982604981,0|0,0:0|0:0,0:0:0:0:
306,214,35549,2,0,L|256:185,1,56.9999982604981,8|0,0:0|0:0,0:0:0:0:
231,56,35699,2,0,L|181:84,1,56.9999982604981,0|0,0:0|0:0,0:0:0:0:
156,98,35849,5,0,0:0:0:0:
131,112,35924,1,0,0:0:0:0:
106,126,35999,1,0,0:0:0:0:
74,235,36149,6,0,P|136:234|188:200,1,113.999996520996,8|0,0:0|0:0,0:0:0:0:
280,112,36449,2,0,L|328:160,1,56.9999982604981,0|0,0:0|0:0,0:0:0:0:
424,197,36599,2,0,L|424:140,1,56.9999982604981,0|0,0:0|0:0,0:0:0:0:
296,257,36749,2,0,P|323:262|350:254,1,56.9999982604981,8|0,0:0|0:0,0:0:0:0:
361,55,36899,21,0,0:0:0:0:
361,55,36974,1,0,0:0:0:0:
361,55,37049,2,0,L|418:55,1,56.9999982604981,0|0,0:0|0:0,0:0:0:0:
320,152,37199,2,0,L|263:152,1,56.9999982604981,0|0,0:0|0:0,0:0:0:0:
350,253,37349,38,8,P|410:257|424:197,1,132.999995941162
247,228,37649,6,0,L|247:292,1,56.9999982604981,4|0,0:0|0:0,0:0:0:0:
170,154,37799,2,0,L|124:108,1,56.9999982604981,0|0,0:0|0:0,0:0:0:0:
144,257,37949,2,0,L|79:257,1,56.9999982604981,8|0,0:0|0:0,0:0:0:0:
262,100,38099,2,0,L|262:36,1,56.9999982604981,0|0,0:0|0:0,0:0:0:0:
174,40,38249,5,0,0:0:0:0:
366,80,38399,1,0,0:0:0:0:
283,204,38549,2,0,P|338:231|400:224,1,113.999996520996,8|0,0:0|0:0,0:0:0:0:
491,164,38849,6,0,L|491:224,1,56.9999982604981
389,284,38999,2,0,L|389:227,1,56.9999982604981,0|0,0:0|0:0,0:0:0:0:
287,164,39149,2,0,L|287:224,1,56.9999982604981,8|0,0:0|0:0,0:0:0:0:
287,278,39299,1,0,0:0:0:0:
185,170,39449,5,0,0:0:0:0:
175,175,39524,1,0,0:0:0:0:
165,181,39599,1,0,0:0:0:0:
155,187,39674,1,0,0:0:0:0:
145,192,39749,1,8,0:0:0:0:
287,278,39899,1,8,0:0:0:0:
142,358,40049,5,4,0:0:0:0:
29,240,40199,1,0,0:0:0:0:
145,191,40349,2,0,P|173:195|196:211,1,56.9999982604981,8|0,0:0|0:0,0:0:0:0:
116,116,40499,2,0,P|91:128|74:150,1,56.9999982604981,0|0,0:0|0:0,0:0:0:0:
268,169,40649,6,0,P|279:195|277:223,1,56.9999982604981
341,128,40799,2,0,P|338:99|349:73,1,56.9999982604981,0|0,0:0|0:0,0:0:0:0:
414,170,40949,2,0,P|430:223|418:278,1,113.999996520996,8|0,0:0|0:0,0:0:0:0:
233,274,41249,6,0,P|205:269|182:252,1,56.9999982604981
374,245,41399,2,0,P|399:256|417:278,1,56.9999982604981,0|0,0:0|0:0,0:0:0:0:
256,205,41549,2,0,P|245:178|249:150,1,56.9999982604981,8|0,0:0|0:0,0:0:0:0:
351,314,41699,2,0,P|354:342|343:368,1,56.9999982604981,0|0,0:0|0:0,0:0:0:0:
210,343,41849,21,0,0:0:0:0:
397,176,41999,1,0,0:0:0:0:
182,252,42149,38,0,P|136:212|169:160,1,132.999995941162,8|0,0:0|0:0,0:0:0:0:
289,214,42449,5,4,0:0:0:0:
276,83,42599,1,0,0:0:0:0:
168,160,42749,2,0,P|165:188|176:214,1,56.9999982604981,8|0,0:0|0:0,0:0:0:0:
397,139,42899,1,0,0:0:0:0:
276,83,43049,6,0,P|221:70|166:86,1,113.999996520996,0|0,0:0|0:0,0:0:0:0:
81,212,43349,2,0,P|81:240|95:264,1,56.9999982604981,8|0,0:0|0:0,0:0:0:0:
178,309,43499,6,0,P|165:368|104:365,1,132.999995941162,4|0,0:0|0:0,0:0:0:0:
334,308,43799,2,0,P|346:368|407:365,1,132.999995941162,4|0,0:0|0:0,0:0:0:0:
255,173,44099,22,0,L|255:241,1,66.4999979705811,4|0,0:0|0:0,0:0:0:0:
255,306,44249,1,6,0:0:0:0:
166,86,44549,38,0,P|91:123|123:200,1,152
130,213,44774,1,0,0:0:0:0:
160,228,44849,6,0,P|188:227|212:213,1,56.9999982604981,6|0,0:0|0:0,0:0:0:0:
299,172,44999,2,0,P|323:158|352:158,1,56.9999982604981,0|0,0:0|0:0,0:0:0:0:
430,211,45149,2,0,P|454:225|468:249,1,56.9999982604981,8|0,0:0|0:0,0:0:0:0:
470,339,45299,21,0,0:0:0:0:
421,366,45374,1,0,0:0:0:0:
367,353,45449,1,0,0:0:0:0:
336,307,45524,1,0,0:0:0:0:
344,252,45599,1,0,0:0:0:0:
352,158,45749,6,0,P|325:103|266:121,1,132.999995941162,8|0,0:0|0:0,0:0:0:0:
258,214,46049,6,0,P|203:229|148:216,1,113.999996520996,0|0,0:0|0:0,0:0:0:0:
113,187,46274,1,0,0:0:0:0:
92,146,46349,2,0,P|99:81|151:50,1,113.999996520996,8|0,0:0|0:0,0:0:0:0:
180,57,46574,1,0,0:0:0:0:
212,88,46649,22,0,P|236:101|264:101,1,56.9999982604981
340,48,46799,2,0,P|354:72|355:100,1,56.9999982604981,0|0,0:0|0:0,0:0:0:0:
355,206,46949,6,0,P|396:250|447:216,1,132.999995941162,8|0,0:0|0:0,0:0:0:0:
268,225,47249,6,0,L|206:241,1,56.9999982604981,4|0,0:0|0:0,0:0:0:0:
193,167,47399,2,0,L|137:152,1,56.9999982604981,0|0,0:0|0:0,0:0:0:0:
106,241,47549,2,0,L|77:290,1,56.9999982604981,8|0,0:0|0:0,0:0:0:0:
181,330,47699,2,0,L|236:344,1,56.9999982604981,0|0,0:0|0:0,0:0:0:0:
356,313,47849,6,0,P|354:284|340:260,1,56.9999982604981,0|0,0:0|0:0,0:0:0:0:
268,225,47999,2,0,P|269:196|283:172,1,56.9999982604981,0|0,0:0|0:0,0:0:0:0:
405,134,48149,6,0,P|391:74|330:78,1,132.999995941162,8|0,0:0|0:0,0:0:0:0:
224,83,48449,22,0,P|166:83|117:56,1,113.999996520996
59,145,48749,2,0,P|116:144|165:171,1,113.999996520996,8|0,0:0|0:0,0:0:0:0:
211,276,49049,1,0,0:0:0:0:
90,244,49199,1,0,0:0:0:0:
320,339,49349,38,0,P|380:325|376:264,1,132.999995941162,8|0,0:0|0:0,0:0:0:0:
282,172,49649,6,0,B|358:172|358:172|330:202,1,113.999996520996,4|0,0:0|0:0,0:0:0:0:
211,276,49949,21,8,0:0:0:0:
168,240,50024,1,0,0:0:0:0:
160,185,50099,2,0,P|161:156|175:132,1,56.9999982604981,0|0,0:0|0:0,0:0:0:0:
243,40,50249,2,0,P|257:64|258:92,1,56.9999982604981,0|0,0:0|0:0,0:0:0:0:
92,92,50399,2,0,P|93:63|107:39,1,56.9999982604981,0|0,0:0|0:0,0:0:0:0:
341,132,50549,6,0,P|374:183|329:224,1,132.999995941162,8|0,0:0|0:0,0:0:0:0:
160,187,50849,6,0,L|175:132,1,56.9999982604981,4|0,0:0|0:0,0:0:0:0:
326,76,50999,2,0,L|340:131,1,56.9999982604981,0|0,0:0|0:0,0:0:0:0:
235,214,51149,2,0,L|249:158,1,56.9999982604981,8|0,0:0|0:0,0:0:0:0:
400,48,51299,2,0,L|415:104,1,56.9999982604981,0|0,0:0|0:0,0:0:0:0:
457,231,51449,5,0,0:0:0:0:
340,131,51599,1,0,0:0:0:0:
307,313,51749,22,0,P|250:343|190:320,1,132.999995941162,8|0,0:0|0:0,0:0:0:0:
128,193,52049,1,4,0:0:0:0:
271,65,52199,1,0,0:0:0:0:
307,313,52349,22,0,P|242:347|174:321,1,152,8|0,0:0|0:0,0:0:0:0:
116,192,52649,1,4,0:0:0:0:
274,47,52799,1,0,0:0:0:0:
315,330,52949,22,0,P|241:369|164:339,1,170.999994781494,8|0,0:0|0:0,0:0:0:0:
104,191,53249,21,4,0:0:0:0:
256,192,53324,12,0,54299,0:0:0:0:
256,193,54449,21,6,0:0:0:0:
256,174,58949,38,0,L|256:214,1,33.2499989852906,2|0,0:0|0:0,0:0:0:0:
85,321,59249,6,0,P|72:294|73:252,1,56.9999982604981,4|0,0:0|0:0,0:0:0:0:
206,276,59399,2,0,P|203:304|191:330,1,56.9999982604981,2|0,0:0|0:0,0:0:0:0:
139,187,59549,2,0,P|142:159|155:134,1,56.9999982604981,8|0,0:0|0:0,0:0:0:0:
345,222,59699,2,0,P|335:250|304:279,1,56.9999982604981
256,174,59849,38,0,P|297:133|384:132,1,132.999995941162,0|2,0:0|0:0,0:0:0:0:
404,136,60074,1,0,0:0:0:0:
432,160,60149,1,8,0:0:0:0:
493,220,60299,5,0,0:0:0:0:
493,262,60374,1,0,0:0:0:0:
476,302,60449,2,0,P|459:326|421:346,1,56.9999982604981,0|0,0:0|0:0,0:0:0:0:
345,222,60599,2,0,P|373:224|398:236,1,56.9999982604981,2|0,0:0|0:0,0:0:0:0:
264,310,60749,2,0,P|251:283|252:240,1,56.9999982604981,8|0,0:0|0:0,0:0:0:0:
309,107,60899,2,0,P|338:109|374:131,1,56.9999982604981,0|0,0:0|0:0,0:0:0:0:
328,323,61049,38,0,P|271:338|196:295,1,132.999995941162,0|2,0:0|0:0,0:0:0:0:
186,279,61274,1,0,0:0:0:0:
176,252,61349,1,8,0:0:0:0:
158,121,61499,5,0,0:0:0:0:
117,130,61574,1,0,0:0:0:0:
83,158,61649,2,0,P|63:180|54:222,1,56.9999982604981,0|0,0:0|0:0,0:0:0:0:
55,356,61799,2,0,P|83:346|112:315,1,56.9999982604981,2|0,0:0|0:0,0:0:0:0:
227,172,61949,2,0,P|198:181|169:212,1,56.9999982604981,8|0,0:0|0:0,0:0:0:0:
206,307,62099,2,0,P|235:313|275:300,1,56.9999982604981,0|0,0:0|0:0,0:0:0:0:
341,215,62249,38,0,P|356:158|313:83,1,132.999995941162,0|2,0:0|0:0,0:0:0:0:
297,73,62474,1,0,0:0:0:0:
264,60,62549,1,8,0:0:0:0:
227,172,62699,5,0,0:0:0:0:
186,184,62774,1,0,0:0:0:0:
143,177,62849,2,0,P|114:167|85:136,1,56.9999982604981,0|0,0:0|0:0,0:0:0:0:
179,63,62999,1,2,0:0:0:0:
66,239,63149,1,8,0:0:0:0:
275,249,63299,1,0,0:0:0:0:
94,150,63449,37,0,0:0:0:0:
241,51,63599,1,2,0:0:0:0:
170,272,63749,1,8,0:0:0:0:
397,222,63899,1,10,0:0:0:0:
321,100,64049,6,0,P|264:166|263:236,1,132.999995941162,4|0,0:0|0:0,0:0:0:0:
323,305,64349,2,0,B|365:306|397:270|397:270|397:222,1,132.999995941162,8|0,0:0|0:0,0:0:0:0:
397,127,64649,21,2,0:0:0:0:
258,208,64799,1,0,0:0:0:0:
397,127,64949,1,2,0:0:0:0:
258,208,65099,1,2,0:0:0:0:
277,73,65249,22,0,B|245:57|213:73|213:73|173:89|141:73,1,132.999995941162,4|0,0:0|0:0,0:0:0:0:
64,33,65549,2,0,P|16:81|80:121,1,132.999995941162,8|0,0:0|0:0,0:0:0:0:
132,165,65849,2,0,B|169:198|179:248|164:349|96:296|96:296|84:210|179:248|192:333|305:305,1,465.499985794068,2|0,0:0|0:0,0:0:0:0:
340,290,66449,5,4,0:0:0:0:
258,208,66599,1,0,0:0:0:0:
389,146,66749,1,2,0:0:0:0:
257,91,66899,1,0,0:0:0:0:
132,165,67049,37,4,0:0:0:0:
132,165,67124,1,0,0:0:0:0:
176,290,67274,1,4,0:0:0:0:
340,290,67499,1,0,0:0:0:0:
389,146,67649,1,4,0:0:0:0:
256,192,67724,12,0,68549,0:0:0:0:
161,63,68849,38,0,B|271:136|345:58|345:58|307:185|405:231|405:231|270:235|257:342|257:342|211:216|105:238|105:238|211:154|150:56,1,1010.79998766113,6|0,0:0|0:0,0:0:0:0:
62,126,71249,6,0,P|12:266|85:347,1,256.499992172241,2|0,0:0|0:0,0:0:0:0:
186,290,71849,2,0,B|238:277|305:287|344:321|344:321|257:342,1,256.499992172241,2|0,0:0|0:0,0:0:0:0:
256,193,72449,2,0,B|248:160|280:118|317:104|317:104|375:81|378:1|378:1|427:65|376:130|307:88|347:189|347:236|395:276|482:254,1,598.49998173523,2|0,0:0|0:0,0:0:0:0:
446,163,73649,5,0,0:0:0:0:
403,111,73799,1,0,0:0:0:0:
337,98,73949,1,0,0:0:0:0:
279,130,74099,1,0,0:0:0:0:
256,193,74249,1,8,0:0:0:0:
354,198,74549,5,0,0:0:0:0:
158,198,74849,1,0,0:0:0:0:
256,297,75149,1,0,0:0:0:0:
256,101,75449,21,2,0:0:0:0:
256,297,75599,1,0,0:0:0:0:
256,101,75749,1,0,0:0:0:0:
63,261,76049,6,0,P|46:209|55:156,1,95,0|0,0:0|0:0,0:0:0:0:
158,198,76349,2,0,P|175:250|166:303,1,95,0|0,0:0|0:0,0:0:0:0:
63,261,76649,5,8,0:0:0:0:
129,89,76799,1,0,0:0:0:0:
170,289,76949,1,0,0:0:0:0:
170,289,77249,6,0,B|199:333|248:349|311:349|360:289|359:237|327:189|359:141|359:141|295:173|231:141|231:141|263:189|248:233,1,570,0|0,0:0|0:0,0:0:0:0:
370,351,78449,5,4,0:0:0:0:
248,233,79649,1,0,0:0:0:0:
142,351,80849,1,4,0:0:0:0:
339,243,82049,1,0,0:0:0:0:
248,233,82949,6,0,P|204:204|206:161,1,95,4|0,0:0|0:0,0:0:0:0:
344,57,83249,6,0,L|396:169,1,113.999996520996,0|0,0:0|0:0,0:0:0:0:
440,263,83549,1,4,0:0:0:0:
344,342,83849,22,0,L|220:331,1,113.999996520996
117,322,84149,1,4,0:0:0:0:
98,200,84449,6,0,L|169:98,1,113.999996520996,0|0,0:0|0:0,0:0:0:0:
228,13,84749,1,4,0:0:0:0:
344,57,85049,6,0,L|396:169,1,113.999996520996,0|0,0:0|0:0,0:0:0:0:
440,263,85349,1,4,0:0:0:0:
256,193,85649,6,0,L|255:135,3,56.9999982604981,0|0|4|0,0:0|0:0|0:0|0:0,0:0:0:0:
256,193,85949,2,0,L|256:250,3,56.9999982604981,0|0|4|0,0:0|0:0|0:0|0:0,0:0:0:0:
256,193,86249,2,0,L|198:192,3,56.9999982604981,0|0|4|0,0:0|0:0|0:0|0:0,0:0:0:0:
256,193,86549,2,0,L|313:192,3,56.9999982604981,0|0|4|0,0:0|0:0|0:0|0:0,0:0:0:0:
256,193,86849,6,0,L|256:345,2,142.5
256,193,88049,5,4,2:1:0:0:
256,192,88124,12,0,88799,0:0:0:0:
320,105,88949,22,0,B|377:72|424:89|424:89|439:143|408:189,1,190,4|0,0:0|0:0,0:0:0:0:
315,314,89249,22,0,P|287:332|254:334,1,66.4999979705811,6|0,0:2|0:0,0:0:0:0:
359,189,89399,2,0,P|386:170|419:168,1,66.4999979705811,2|0,0:0|0:0,0:0:0:0:
264,265,89549,2,0,P|231:249|211:218,1,66.4999979705811,8|0,0:0|0:0,0:0:0:0:
409,237,89699,2,0,P|442:253|462:284,1,66.4999979705811,0|0,0:0|0:0,0:0:0:0:
283,189,89849,6,0,P|313:128|386:115,1,132.999995941162,0|2,0:0|0:0,0:0:0:0:
405,82,90074,1,0,0:0:0:0:
404,37,90149,1,8,0:0:0:0:
369,9,90224,1,0,0:0:0:0:
325,19,90299,22,0,B|308:36|285:30|285:30|246:19|198:46,1,132.999995941162
101,167,90599,2,0,P|133:165|160:146,1,66.4999979705811,2|0,0:0|0:0,0:0:0:0:
262,129,90749,2,0,P|283:193|241:254,1,132.999995941162,8|0,0:0|0:0,0:0:0:0:
204,315,91049,38,0,B|179:347|179:347|109:352,1,76
357,329,91199,2,0,B|397:332|397:332|436:390,1,76,2|0,0:0|0:0,0:0:0:0:
282,188,91349,2,0,B|256:156|256:156|269:87,1,76,8|0,0:0|0:0,0:0:0:0:
352,45,91499,2,0,B|377:76|377:76|364:145,1,76,0|0,0:0|0:0,0:0:0:0:
408,207,91649,6,0,P|347:182|282:188,1,132.999995941162,4|2,0:0|0:0,0:0:0:0:
185,219,91949,1,8,0:0:0:0:
117,322,92099,2,0,P|98:295|96:262,2,66.4999979705811
241,330,92399,6,0,P|270:344|303:341,1,66.4999979705811,2|0,0:0|0:0,0:0:0:0:
355,305,92549,1,8,0:0:0:0:
176,361,92699,1,0,0:0:0:0:
315,112,92999,22,0,B|331:152|331:152|315:208,1,85.4999973907472,4|0,0:0|0:0,0:0:0:0:
196,273,93149,2,0,B|180:233|180:233|196:177,1,85.4999973907472,4|0,0:0|0:0,0:0:0:0:
424,105,93449,6,0,L|378:270,1,170.999994781494,4|2,0:0|0:0,0:0:0:0:
87,280,93749,2,0,L|131:115,1,170.999994781494,4|2,0:0|0:0,0:0:0:0:
238,46,94049,6,0,P|271:44|300:59,1,66.4999979705811,6|0,0:2|0:0,0:0:0:0:
381,205,94199,2,0,P|347:206|318:191,1,66.4999979705811,2|0,0:0|0:0,0:0:0:0:
223,146,94349,2,0,P|195:164|180:193,1,66.4999979705811,8|0,0:0|0:0,0:0:0:0:
223,329,94499,2,0,P|252:314|271:287,1,66.4999979705811,0|0,0:0|0:0,0:0:0:0:
318,192,94649,6,0,P|366:143|434:168,1,132.999995941162,0|2,0:0|0:0,0:0:0:0:
443,196,94874,1,0,0:0:0:0:
432,240,94949,1,8,0:0:0:0:
401,264,95024,1,0,0:0:0:0:
355,261,95099,2,0,P|291:265|262:322,1,132.999995941162,0|0,0:0|0:0,0:0:0:0:
150,328,95399,22,0,L|167:263,1,66.4999979705811,2|0,0:0|0:0,0:0:0:0:
273,93,95549,2,0,L|239:222,1,132.999995941162,8|0,0:0|0:0,0:0:0:0:
131,115,95849,38,0,B|114:77|114:77|145:13,1,76
204,49,95999,2,0,B|228:16|228:16|298:11,1,76,2|0,0:0|0:0,0:0:0:0:
354,96,96149,2,0,L|334:170,1,76,8|0,0:0|0:0,0:0:0:0:
308,265,96299,1,0,0:0:0:0:
178,169,96449,6,0,B|137:195|98:177|98:177|114:233,1,132.999995941162,4|2,0:0|0:0,0:0:0:0:
334,169,96749,2,0,B|375:195|414:177|414:177|398:233,1,132.999995941162,8|0,0:0|0:0,0:0:0:0:
256,304,97049,5,0,0:0:0:0:
256,82,97199,1,2,0:0:0:0:
192,283,97349,1,8,0:0:0:0:
319,102,97499,1,8,0:0:0:0:
332,302,97649,21,4,0:0:0:0:
179,83,97799,1,2,0:0:0:0:
406,247,97949,1,4,0:0:0:0:
105,138,98099,1,2,0:0:0:0:
425,147,98249,1,4,0:0:0:0:
86,238,98399,1,2,0:0:0:0:
391,50,98549,6,0,P|316:53|324:149,1,170.999994781494,10|0,0:0|0:0,0:0:0:0:
372,248,98849,6,0,L|406:306,1,66.4999979705811,6|0,0:2|0:0,0:0:0:0:
245,188,98999,2,0,L|211:245,1,66.4999979705811,2|0,0:0|0:0,0:0:0:0:
303,283,99149,2,0,L|336:340,1,66.4999979705811,8|0,0:0|0:0,0:0:0:0:
176,154,99299,2,0,L|142:211,1,66.4999979705811,0|0,0:0|0:0,0:0:0:0:
72,325,99449,6,0,P|122:368|176:339,1,132.999995941162,0|2,0:0|0:0,0:0:0:0:
203,291,99674,1,0,0:0:0:0:
257,273,99749,1,8,0:0:0:0:
310,294,99824,1,0,0:0:0:0:
337,340,99899,22,0,P|393:366|439:324,1,132.999995941162
401,197,100199,2,0,L|363:262,1,66.4999979705811,2|0,0:0|0:0,0:0:0:0:
306,193,100349,2,0,L|372:77,1,132.999995941162,8|0,0:0|0:0,0:0:0:0:
447,50,100649,38,0,B|462:87|462:87|431:150,1,76
298,34,100799,2,0,B|318:5|318:5|359:0,1,76,2|0,0:0|0:0,0:0:0:0:
401,197,100949,2,0,P|374:260|276:284,1,152,8|0,0:0|0:0,0:0:0:0:
306,193,101249,6,0,P|254:176|221:235,1,132.999995941162,4|2,0:0|0:0,0:0:0:0:
299,288,101549,1,8,0:0:0:0:
305,173,101699,22,0,P|245:153|206:221,1,152
394,292,101999,2,0,P|453:311|492:243,1,152,2|8,0:0|0:0,0:0:0:0:
436,42,102299,2,0,P|387:93|428:151,1,152,0|0,0:0|0:0,0:0:0:0:
305,80,102599,6,0,L|217:72,1,85.4999973907472,6|0,0:0|0:0,0:0:0:0:
134,187,102749,2,0,L|309:171,1,170.999994781494,4|0,0:0|0:0,0:0:0:0:
457,272,103049,6,0,B|385:312|385:312|305:272,1,170.999994781494,4|0,0:0|0:0,0:0:0:0:
55,272,103274,2,0,B|127:312|127:312|207:272,1,170.999994781494,4|0,0:0|0:0,0:0:0:0:
457,272,103499,2,0,B|381:314,1,85.4999973907472,4|0,0:0|0:0,0:0:0:0:
308,360,103649,37,6,0:2:0:0:
381,222,103799,1,2,0:0:0:0:
250,294,103949,1,8,0:0:0:0:
438,287,104099,1,2,0:0:0:0:
290,205,104249,21,0,0:0:0:0:
398,376,104399,1,2,0:0:0:0:
350,135,104549,1,8,0:0:0:0:
250,294,104699,1,2,0:0:0:0:
201,251,104774,1,0,0:0:0:0:
202,187,104849,21,4,0:0:0:0:
231,33,104999,1,2,0:0:0:0:
127,141,105149,1,8,0:0:0:0:
305,78,105299,1,2,0:0:0:0:
130,36,105449,21,0,0:0:0:0:
302,183,105599,1,2,0:0:0:0:
189,315,105749,21,6,0:0:0:0:
119,309,105824,1,6,0:0:0:0:
73,257,105899,1,6,0:0:0:0:
77,188,105974,1,6,0:0:0:0:
128,140,106049,22,0,P|218:152|253:236,1,190,4|0,0:0|0:0,0:0:0:0:
161,228,106274,2,0,P|196:311|286:323,1,190,4|0,0:0|0:0,0:0:0:0:
345,242,106499,2,0,L|345:138,1,95,4|0,0:0|0:0,0:0:0:0:
253,132,106649,22,0,P|308:60|398:71,1,190,2|0,0:0|0:0,0:0:0:0:
437,257,106874,2,0,P|381:328|291:317,1,190,2|0,0:0|0:0,0:0:0:0:
253,235,107099,2,0,L|162:287,1,95,2|0,0:0|0:0,0:0:0:0:
203,369,107249,22,0,P|113:357|78:273,1,190,4|0,0:0|0:0,0:0:0:0:
127,139,107474,2,0,P|216:150|252:234,1,190,4|0,0:0|0:0,0:0:0:0:
290,316,107699,2,0,L|384:316,1,95,4|0,0:0|0:0,0:0:0:0:
470,146,107849,22,0,P|380:158|345:242,1,190,2|0,0:0|0:0,0:0:0:0:
290,316,108074,2,0,P|199:327|144:255,1,190,2|0,0:0|0:0,0:0:0:0:
127,139,108299,2,0,L|209:186,1,95,2|0,0:0|0:0,0:0:0:0:
309,323,108449,22,0,P|399:311|434:227,1,190,4|0,0:0|0:0,0:0:0:0:
203,61,108674,2,0,P|113:73|78:157,1,190,4|0,0:0|0:0,0:0:0:0:
208,200,108899,2,0,L|302:183,1,95,4|0,0:0|0:0,0:0:0:0:
291,13,109049,22,0,P|375:49|387:139,1,190,6|0,0:0|0:0,0:0:0:0:
220,370,109274,2,0,P|136:334|125:245,1,190,6|0,0:0|0:0,0:0:0:0:
209,183,109499,2,0,L|303:200,1,95,6|0,0:0|0:0,0:0:0:0:
434,227,109649,1,4,0:0:0:0:
256,192,109724,12,0,110699,0:0:0:0:
256,192,110849,21,10,0:0:0:0:
