osu file format v14

[General]
AudioFilename: audio.mp3
AudioLeadIn: 0
PreviewTime: 35289
Countdown: 0
SampleSet: Soft
StackLeniency: 0.8
Mode: 0
LetterboxInBreaks: 0
WidescreenStoryboard: 1

[Editor]
Bookmarks: 12527,23690,36248,47410,58573,69736,82294,93456,107410,118572,129735,140898,154851,163223,174385
DistanceSpacing: 1
BeatDivisor: 4
GridSize: 32
TimelineZoom: 1.7

[Metadata]
Title:Meteor (feat. TEA)
TitleUnicode:Meteor (feat. TEA)
Artist:you
ArtistUnicode:you
Creator:Hinsvar
Version:Normal
Source:
Tags:ALLMYFRIENDS Vol. 1 PRISMA Japanese Electronic Dance Music EDM future bass all my friends
BeatmapID:4124461
BeatmapSetID:1984574

[Difficulty]
HPDrainRate:3
CircleSize:3
OverallDifficulty:4.5
ApproachRate:5.5
SliderMultiplier:1.12
SliderTickRate:1

[Events]
//Background and Video events
0,0,"BG.jpg",0,0
//Break Periods
2,58773,68611
//Storyboard Layer 0 (Background)
//Storyboard Layer 1 (Fail)
//Storyboard Layer 2 (Pass)
//Storyboard Layer 3 (Foreground)
//Storyboard Layer 4 (Overlay)
//Storyboard Sound Samples

[TimingPoints]
1365,348.837209302326,4,2,1,60,1,0
21946,-100,4,2,1,70,0,0
22992,-125,4,2,11,70,0,0
23690,-111.111111111111,4,2,1,60,0,0
29271,-125,4,2,21,50,0,0
31365,-100,4,2,1,60,0,0
32062,-90.9090909090909,4,2,1,70,0,0
32585,-90.9090909090909,4,2,1,60,0,0
33109,-111.111111111111,4,2,1,70,0,0
34853,-100,4,2,2,60,0,0
35899,-100,4,2,11,60,0,0
36248,348.837209302326,4,2,1,80,1,1
36248,-90.9090909090909,4,2,1,80,0,1
46189,-90.9090909090909,4,2,1,70,0,0
47061,-90.9090909090909,4,2,11,70,0,0
47410,-90.9090909090909,4,2,1,80,0,1
52992,-100,4,2,1,70,0,0
55782,-90.9090909090909,4,2,1,80,0,1
57178,-90.9090909090909,4,2,1,80,0,0
58573,-90.9090909090909,4,2,1,60,0,0
69736,-100,4,2,1,60,0,0
75317,-125,4,2,21,50,0,0
80899,-100,4,2,2,60,0,0
81945,-100,4,2,11,60,0,0
82294,348.837209302326,4,2,1,60,1,0
82294,-111.111111111111,4,2,1,60,0,0
99038,-100,4,2,1,70,0,0
106712,-125,4,2,11,60,0,0
107410,348.837209302326,4,2,1,70,1,0
107410,-90.9090909090909,4,2,1,70,0,0
108805,-111.111111111111,4,2,3,60,0,0
110200,-90.9090909090909,4,2,1,70,0,0
110723,-90.9090909090909,4,2,1,60,0,0
111247,-90.9090909090909,4,2,1,70,0,0
111770,-111.111111111111,4,2,1,60,0,0
112293,-90.9090909090909,4,2,1,70,0,0
112816,-90.9090909090909,4,2,1,60,0,0
112991,-90.9090909090909,4,2,1,70,0,0
114386,-111.111111111111,4,2,3,60,0,0
115782,-90.9090909090909,4,2,1,70,0,0
116305,-90.9090909090909,4,2,1,60,0,0
116828,-100,4,2,1,70,0,0
118049,-100,4,2,1,60,0,0
118223,-100,4,2,3,50,0,0
118398,-100,4,2,1,60,0,0
118572,-111.111111111111,4,2,4,60,0,0
124154,-100,4,2,5,70,0,0
126944,-100,4,2,1,70,0,0
128514,-100,4,2,2,60,0,0
129386,-100,4,2,11,60,0,0
129735,-90.9090909090909,4,2,1,80,0,1
140200,-90.9090909090909,4,2,1,80,0,0
140898,-90.9090909090909,4,2,1,80,0,1
145956,-90.9090909090909,4,2,4,80,0,1
146130,-90.9090909090909,4,2,4,80,0,0
146479,-90.9090909090909,4,2,4,80,0,1
147526,-100,4,2,4,70,0,0
149270,-90.9090909090909,4,2,4,80,0,1
150316,-100,4,2,5,70,0,0
152061,-100,4,2,2,60,0,0
154503,-100,4,2,11,60,0,0
154851,348.837209302326,4,2,1,80,1,9
155199,-90.9090909090909,4,2,1,80,0,9
162002,-90.9090909090909,4,2,2,70,0,8
162874,-90.9090909090909,4,2,11,70,0,8
163223,-90.9090909090909,4,2,1,80,0,9
168804,-100,4,2,1,70,0,8
171595,-90.9090909090909,4,2,1,80,0,9
172990,-90.9090909090909,4,2,1,80,0,8
174385,348.837209302326,4,2,1,60,1,8

[Colours]
Combo1 : 219,186,98
Combo2 : 249,138,245
Combo3 : 185,134,115
Combo4 : 141,122,190

[HitObjects]
312,26,12527,5,4,3:2:0:0:
408,83,12876,2,0,P|406:142|385:212,1,112,2|8,3:2|0:0,0:0:0:0:
352,300,13574,1,0,3:0:0:0:
352,300,13748,2,0,P|269:302|171:332,1,168,2|0,0:0|3:0,0:0:0:0:
140,355,14446,1,2,0:0:0:0:
140,355,14620,2,0,L|123:288,1,56,8|2,0:0|0:0,0:0:0:0:
73,280,14969,2,0,L|90:213,1,56,0|2,3:0|0:0,0:0:0:0:
100,171,15318,5,2,3:2:0:0:
53,68,15667,1,0,3:0:0:0:
53,68,15841,2,0,P|104:30|184:93,1,168,2|2,0:0|3:2,0:0:0:0:
206,131,16539,2,0,P|239:156|293:114,1,112,2|0,0:0|1:0,0:0:0:0:
386,61,17237,2,0,L|451:41,2,56,2|8|2,0:0|0:0|0:0,0:0:0:0:
403,114,17760,2,0,L|463:145,1,56,0|0,3:0|0:0,0:0:0:0:
502,165,18109,5,2,3:2:0:0:
482,275,18458,1,0,3:0:0:0:
482,275,18632,2,0,P|371:264|243:371,1,280,2|0,0:0|3:0,0:0:0:0:
67,316,20027,2,0,P|52:286|34:263,2,56,2|8|2,0:0|0:0|0:0,0:0:0:0:
123,315,20551,2,0,P|133:283|137:254,1,56,0|2,3:0|0:0,0:0:0:0:
142,204,20899,6,0,L|254:183,1,112,2|0,3:2|3:0,0:0:0:0:
311,178,21423,1,2,0:0:0:0:
311,178,21597,1,8,0:0:0:0:
327,67,21946,2,0,P|224:23|106:52,1,224,6|2,3:2|0:0,0:0:0:0:
47,132,22992,1,8,0:0:0:0:
70,352,23690,5,4,3:2:0:0:
290,329,24388,1,10,0:0:0:0:
290,329,24562,1,2,0:0:0:0:
396,360,24911,2,0,P|464:318|464:243,1,151.199995385742,2|2,3:2|0:0,0:0:0:0:
401,164,25783,2,0,P|355:191|355:241,1,100.799996923828,8|2,0:0|0:0,0:0:0:0:
290,329,26481,6,0,P|220:328|120:343,1,151.199995385742,2|2,3:2|0:0,0:0:0:0:
85,348,27178,1,8,0:0:0:0:
11,245,27527,2,0,P|120:183|263:70,1,302.399990771485,2|8,3:2|0:0,0:0:0:0:
363,35,28923,2,0,P|381:45|404:64,1,50.3999984619141,2|0,0:0|3:0,0:0:0:0:
396,118,29271,6,0,P|414:152|472:180,1,89.6,2|0,3:2|0:0,0:0:0:0:
438,231,29795,2,0,P|399:230|345:265,1,89.6,2|0,0:0|0:0,0:0:0:0:
319,210,30318,2,0,P|339:176|335:112,1,89.6,2|0,0:0|0:0,0:0:0:0:
174,67,31190,1,0,0:0:0:0:
174,67,31365,2,0,P|181:40|197:17,2,56,0|0|0,1:0|3:0|3:0,0:0:0:0:
152,188,32062,6,0,P|95:191|25:217,1,123.200003759766,6|0,3:2|0:0,0:0:0:0:
12,270,32585,1,2,3:2:0:0:
88,373,32934,1,0,3:0:0:0:
88,373,33109,2,0,P|270:363|494:280,1,403.199987695313,6|0,3:2|0:0,0:0:0:0:
495,179,34853,6,0,L|504:116,1,56,4|0,3:2|3:0,0:0:0:0:
469,78,35202,2,0,L|406:69,1,56,0|2,1:0|0:0,0:0:0:0:
368,104,35551,2,0,L|350:230,1,112,0|8,3:0|0:0,0:0:0:0:
241,269,36248,6,0,P|186:271|122:243,1,123.200003759766,6|0,3:2|3:0,0:0:0:0:
68,217,36771,1,2,0:0:0:0:
118,23,37294,1,0,3:0:0:0:
118,23,37468,2,0,P|146:21|178:36,1,61.6000018798829,2|0,0:0|3:0,0:0:0:0:
232,62,37817,2,0,P|234:90|219:122,1,61.6000018798829,2|0,0:0|3:0,0:0:0:0:
193,176,38166,1,2,0:0:0:0:
193,176,38341,1,0,3:0:0:0:
81,227,38689,6,0,P|77:283|107:347,1,123.200003759766,2|2,3:2|3:2,0:0:0:0:
227,373,39387,1,2,3:2:0:0:
227,373,39561,2,0,P|397:328|446:259,1,246.400007519531,2|0,0:0|0:0,0:0:0:0:
457,219,40434,1,2,3:2:0:0:
306,83,40957,2,0,L|324:23,2,61.6000018798829,2|0|2,0:0|3:0|0:0,0:0:0:0:
250,109,41480,2,0,L|190:91,1,61.6000018798829,0|2,3:0|0:0,0:0:0:0:
146,47,41829,6,0,P|102:30|35:91,1,123.200003759766,2|0,3:2|3:0,0:0:0:0:
20,125,42352,2,0,P|30:190|150:228,1,184.800005639649,2|0,0:0|3:0,0:0:0:0:
189,216,43050,2,0,P|220:201|249:198,1,61.6000018798829,2|0,0:0|3:0,0:0:0:0:
372,180,43573,1,2,3:2:0:0:
372,180,43748,2,0,P|414:261|408:359,1,184.800005639649,2|0,0:0|3:0,0:0:0:0:
351,371,44445,5,2,0:0:0:0:
351,371,44620,2,0,P|290:368|235:332,1,123.200003759766,2|0,3:2|3:0,0:0:0:0:
204,284,45143,1,2,0:0:0:0:
86,298,45492,1,2,0:0:0:0:
86,298,45667,2,0,P|88:237|124:182,1,123.200003759766,6|0,3:2|3:0,0:0:0:0:
224,118,46364,2,0,L|219:57,1,61.6000018798829,0|2,1:0|0:0,0:0:0:0:
170,17,46713,2,0,L|48:27,1,123.200003759766,0|8,3:0|0:0,0:0:0:0:
12,145,47410,6,0,P|37:208|99:216,1,123.200003759766,6|0,3:2|3:0,0:0:0:0:
147,212,47934,1,2,0:0:0:0:
302,80,48457,1,0,3:0:0:0:
302,80,48631,2,0,P|322:53|354:44,1,61.6000018798829,2|0,0:0|3:0,0:0:0:0:
406,65,48980,2,0,P|418:96|411:128,1,61.6000018798829,2|0,0:0|3:0,0:0:0:0:
366,162,49329,1,2,0:0:0:0:
366,162,49503,1,0,3:0:0:0:
265,232,49852,6,0,P|272:296|295:354,1,123.200003759766,2|2,3:2|3:2,0:0:0:0:
416,359,50550,1,0,3:0:0:0:
416,359,50724,1,2,0:0:0:0:
389,238,51073,2,0,P|385:206|374:177,1,61.6000018798829,2|0,0:0|3:0,0:0:0:0:
357,119,51422,2,0,P|293:126|235:149,1,123.200003759766,2|2,0:0|0:0,0:0:0:0:
115,131,52120,2,0,L|52:93,2,61.6000018798829,2|0|2,0:0|3:0|0:0,0:0:0:0:
145,184,52643,2,0,L|143:257,1,61.6000018798829,0|2,3:0|0:0,0:0:0:0:
143,301,52992,5,6,3:2:0:0:
249,350,53341,1,0,3:0:0:0:
249,350,53515,2,0,P|344:361|406:314,1,168,2|0,0:0|3:0,0:0:0:0:
425,271,54213,2,0,P|432:207|401:166,1,112,2|2,0:0|0:0,0:0:0:0:
377,61,54910,2,0,L|429:35,2,56,2|0|2,0:0|3:0|0:0,0:0:0:0:
325,83,55434,2,0,L|276:50,1,56,0|2,3:0|0:0,0:0:0:0:
221,69,55782,6,0,P|167:100|119:158,1,123.200003759766,6|0,3:2|3:0,0:0:0:0:
87,189,56306,1,2,0:0:0:0:
87,189,56480,2,0,P|102:216|131:240,1,61.6000018798829,2|2,3:2|3:2,0:0:0:0:
169,274,56829,2,0,P|196:259|220:230,1,61.6000018798829,2|2,3:2|3:2,0:0:0:0:
256,192,57178,1,2,3:2:0:0:
256,192,58573,5,2,3:2:0:0:
147,220,69736,6,0,P|93:204|15:195,2,112,2|0|0,3:2|3:0|3:0,0:0:0:0:
227,142,70782,2,0,L|221:78,1,56,0|2,3:0|0:0,0:0:0:0:
245,35,71131,2,0,L|309:29,1,56,0|2,3:0|0:0,0:0:0:0:
352,53,71480,1,0,3:0:0:0:
447,110,71829,2,0,P|438:165|423:219,1,112,8|2,0:0|3:2,0:0:0:0:
364,314,72527,6,0,L|251:331,1,112,2|0,3:2|3:0,0:0:0:0:
201,342,73050,1,2,0:0:0:0:
201,342,73224,1,8,0:0:0:0:
127,257,73573,2,0,L|71:248,1,56,0|2,3:0|0:0,0:0:0:0:
35,205,73922,2,0,L|43:149,2,56,0|2|0,3:0|0:0|3:0,0:0:0:0:
140,160,74620,1,8,0:0:0:0:
236,103,74968,2,0,L|227:47,1,56,2|2,3:2|0:0,0:0:0:0:
283,49,75317,6,0,P|321:45|372:3,1,89.6,2|0,0:0|0:0,0:0:0:0:
417,31,75841,2,0,P|400:65|411:131,1,89.6,2|0,0:0|0:0,0:0:0:0:
365,156,76364,2,0,P|343:124|280:101,1,89.6,2|0,0:0|0:0,0:0:0:0:
122,93,77235,1,2,0:0:0:0:
122,93,77410,2,0,P|81:111|55:146,1,89.6,2|0,0:0|0:0,0:0:0:0:
50,259,78108,6,0,L|150:269,1,89.6,2|0,0:0|0:0,0:0:0:0:
195,272,78631,1,2,0:0:0:0:
285,347,78980,1,0,0:0:0:0:
285,347,79154,2,0,P|369:354|515:151,1,358.4,2|0,0:0|0:0,0:0:0:0:
453,62,80899,6,0,L|393:74,1,56,6|0,3:2|3:0,0:0:0:0:
358,113,81248,2,0,L|370:173,1,56,0|2,1:0|0:0,0:0:0:0:
327,207,81596,2,0,L|217:228,1,112,0|8,3:0|0:0,0:0:0:0:
134,303,82294,5,6,3:2:0:0:
59,220,82642,1,0,0:0:0:0:
59,220,82817,1,2,0:0:0:0:
156,68,83340,1,2,0:0:0:0:
156,68,83514,2,0,P|115:37|66:27,2,100.799996923828,2|2|2,0:0|0:0|0:0,0:0:0:0:
295,184,84735,2,0,P|318:173|335:155,2,50.3999984619141,2|0|2,0:0|1:0|0:0,0:0:0:0:
194,226,85433,1,2,0:0:0:0:
194,226,85607,2,0,P|208:313|359:351,1,251.999992309571,2|2,0:0|0:0,0:0:0:0:
446,201,87003,2,0,L|497:180,2,50.3999984619141,2|2|2,0:0|0:0|0:0,0:0:0:0:
392,186,87526,2,0,L|348:152,1,50.3999984619141,2|2,0:0|0:0,0:0:0:0:
302,130,87875,6,0,P|285:92|300:31,1,100.799996923828,2|0,0:0|0:0,0:0:0:0:
350,21,88398,1,2,0:0:0:0:
479,155,88921,1,2,0:0:0:0:
479,155,89096,2,0,P|504:212|482:303,1,151.199995385742,2|0,0:0|0:0,0:0:0:0:
456,342,89794,2,0,P|399:367|307:345,1,151.199995385742,2|0,0:0|0:0,0:0:0:0:
212,307,90666,6,0,L|196:196,1,100.799996923828,2|0,0:0|0:0,0:0:0:0:
188,152,91189,1,2,0:0:0:0:
81,165,91538,1,0,0:0:0:0:
81,165,91712,2,0,L|66:264,1,100.799996923828,2|0,0:0|0:0,0:0:0:0:
224,366,92585,1,2,0:0:0:0:
224,366,92759,2,0,L|323:351,1,100.799996923828,2|2,0:0|0:0,0:0:0:0:
416,290,93456,5,6,0:0:0:0:
316,239,93805,1,0,0:0:0:0:
316,239,93980,1,2,0:0:0:0:
352,64,94503,1,2,0:0:0:0:
352,64,94677,2,0,P|393:38|453:36,2,100.799996923828,2|2|2,0:0|0:0|0:0,0:0:0:0:
170,75,95898,2,0,L|103:68,1,50.3999984619141,2|0,0:0|3:0,0:0:0:0:
64,66,96247,6,0,L|51:186,1,100.799996923828,2|0,0:0|0:0,0:0:0:0:
67,219,96770,1,2,0:0:0:0:
177,208,97119,1,2,0:0:0:0:
287,198,97468,2,0,L|274:318,1,100.799996923828,2|0,0:0|0:0,0:0:0:0:
170,335,98166,2,0,P|149:351|128:381,2,50.3999984619141,2|2|2,0:0|0:0|0:0,0:0:0:0:
173,279,98689,2,0,P|152:262|131:232,1,50.3999984619141,2|2,0:0|0:0,0:0:0:0:
113,192,99038,6,0,L|102:68,1,112,6|0,3:2|0:0,0:0:0:0:
102,28,99561,1,2,0:0:0:0:
102,28,99735,1,2,1:2:0:0:
212,48,100084,2,0,L|274:42,2,56,2|2|0,0:0|0:0|1:0,0:0:0:0:
220,160,100782,1,0,1:0:0:0:
220,160,100956,2,0,L|276:186,2,56,2|0|2,0:0|1:0|0:0,0:0:0:0:
162,162,101480,2,0,L|111:197,1,56,0|2,1:0|0:0,0:0:0:0:
88,242,101828,6,0,L|110:369,1,112,0|0,1:0|1:0,0:0:0:0:
167,348,102352,1,2,0:0:0:0:
167,348,102526,2,0,L|230:337,1,56,2|2,1:2|1:2,0:0:0:0:
258,295,102875,2,0,L|321:306,1,56,2|2,1:2|1:2,0:0:0:0:
367,316,103224,1,2,1:2:0:0:
367,316,106712,1,8,0:0:0:0:
409,73,107410,6,0,P|350:68|273:99,1,123.200003759766,6|0,3:2|0:0,0:0:0:0:
54,160,108456,1,6,3:2:0:0:
9,261,108805,6,0,P|56:262|119:243,1,100.799996923828,0|0,1:0|3:0,0:0:0:0:
167,255,109328,1,0,1:0:0:0:
167,255,109503,2,0,P|168:208|149:145,1,100.799996923828,0|6,3:0|3:2,0:0:0:0:
209,46,110200,6,0,P|256:84|311:67,1,123.200003759766,6|0,3:2|0:0,0:0:0:0:
486,241,111247,2,0,P|429:262|416:318,1,123.200003759766,6|0,3:2|0:0,0:0:0:0:
178,383,112293,2,0,P|187:323|145:284,1,123.200003759766,6|0,3:2|0:0,0:0:0:0:
43,212,112991,6,0,P|29:156|32:75,1,123.200003759766,6|0,3:2|0:0,0:0:0:0:
268,31,114037,1,6,3:2:0:0:
352,86,114386,6,0,L|464:100,1,100.799996923828,0|0,1:0|3:0,0:0:0:0:
485,143,114910,1,0,1:0:0:0:
485,143,115084,2,0,L|471:255,1,100.799996923828,0|0,1:0|3:0,0:0:0:0:
428,276,115608,1,0,1:0:0:0:
428,276,115782,6,0,P|368:276|323:326,1,123.200003759766,6|0,3:2|0:0,0:0:0:0:
108,372,116828,2,0,P|95:184|14:48,1,336,6|8,3:2|0:0,0:0:0:0:
123,8,118223,1,0,1:0:0:0:
231,30,118572,6,0,P|235:92|262:137,1,100.799996923828,4|0,3:2|0:0,0:0:0:0:
351,175,119270,2,0,P|397:171|431:151,2,75.5999976928712,2|2|2,1:2|0:0|0:0,0:0:0:0:
258,235,120142,2,0,P|237:277|237:316,1,75.5999976928712,2|2,0:0|0:0,0:0:0:0:
301,368,120665,2,0,P|321:325|321:286,2,75.5999976928712,2|2|2,1:2|0:0|0:0,0:0:0:0:
190,377,121537,6,0,L|93:364,1,75.5999976928712,2|2,0:0|0:0,0:0:0:0:
74,285,122061,2,0,L|0:295,2,75.5999976928712,2|2|2,1:2|0:0|0:0,0:0:0:0:
99,177,122933,2,0,P|125:153|173:136,1,75.5999976928712,2|2,0:0|0:0,0:0:0:0:
234,194,123456,2,0,P|207:217|159:234,2,75.5999976928712,2|2|0,1:2|0:0|3:0,0:0:0:0:
256,142,124154,6,0,L|265:22,1,112,4|0,3:2|1:0,0:0:0:0:
375,16,124851,2,0,L|495:25,1,112,0|0,1:0|1:0,0:0:0:0:
501,135,125549,1,0,1:0:0:0:
492,246,125898,1,0,1:0:0:0:
492,246,126072,2,0,P|490:277|502:309,2,56,2|0|2,0:0|1:0|0:0,0:0:0:0:
437,231,126596,2,0,P|410:238|382:236,1,56,0|2,1:0|0:0,0:0:0:0:
327,223,126944,6,0,L|279:339,1,112,4|0,3:2|3:0,0:0:0:0:
231,346,127468,1,2,0:0:0:0:
231,346,127642,2,0,L|173:322,1,56,2|2,3:2|3:2,0:0:0:0:
160,272,127991,1,2,3:2:0:0:
168,160,128340,6,0,L|104:168,1,56,2|0,3:2|3:0,0:0:0:0:
91,116,128689,2,0,L|115:57,1,56,0|2,1:0|0:0,0:0:0:0:
164,42,129037,2,0,L|241:143,1,112,0|8,3:0|0:0,0:0:0:0:
312,232,129735,5,6,3:2:0:0:
312,232,129910,1,2,0:0:0:0:
423,175,130258,1,2,0:0:0:0:
423,175,130433,2,0,P|409:131|408:85,2,92.4000028198243,0|2|2,3:0|0:0|0:0,0:0:0:0:
511,261,131305,2,0,L|418:373,1,123.200003759766,2|0,0:0|0:0,0:0:0:0:
386,313,131828,2,0,L|326:241,2,92.4000028198243,0|2|2,3:0|0:0|0:0,0:0:0:0:
269,354,132700,5,2,0:0:0:0:
152,334,133049,1,2,0:0:0:0:
152,334,133223,2,0,P|108:348|63:342,2,92.4000028198243,0|2|2,3:0|0:0|0:0,0:0:0:0:
185,215,134096,2,0,L|209:95,1,123.200003759766,2|0,0:0|0:0,0:0:0:0:
180,39,134619,2,0,L|90:20,2,92.4000028198243,0|2|2,3:0|0:0|0:0,0:0:0:0:
94,138,135491,5,2,0:0:0:0:
27,242,135840,1,2,0:0:0:0:
27,242,136014,2,0,P|34:289|83:323,2,92.4000028198243,0|2|2,3:0|0:0|0:0,0:0:0:0:
150,240,136886,2,0,L|294:227,1,123.200003759766,2|0,0:0|0:0,0:0:0:0:
318,270,137410,2,0,L|410:278,2,92.4000028198243,0|2|2,3:0|0:0|0:0,0:0:0:0:
385,166,138282,5,2,0:0:0:0:
319,68,138630,1,2,0:0:0:0:
319,68,138805,2,0,P|276:95|276:147,2,92.4000028198243,0|2|2,3:0|0:0|0:0,0:0:0:0:
202,26,139677,2,0,L|72:49,1,123.200003759766,2|0,0:0|0:0,0:0:0:0:
33,88,140200,2,0,L|44:153,1,61.6000018798829,0|2,3:0|0:0,0:0:0:0:
53,209,140549,1,0,3:0:0:0:
147,297,140898,5,6,3:2:0:0:
147,297,141072,1,2,0:0:0:0:
273,311,141421,1,2,0:0:0:0:
273,311,141596,2,0,P|284:260|312:224,2,92.4000028198243,0|2|2,3:0|0:0|0:0,0:0:0:0:
201,210,142468,2,0,L|172:72,1,123.200003759766,2|0,0:0|0:0,0:0:0:0:
235,73,142991,2,0,L|325:53,2,92.4000028198243,0|2|2,3:0|0:0|0:0,0:0:0:0:
308,171,143863,5,2,0:0:0:0:
412,247,144212,1,2,0:0:0:0:
412,247,144386,2,0,P|431:287|415:337,2,92.4000028198243,0|2|2,3:0|0:0|0:0,0:0:0:0:
304,307,145258,2,0,L|165:337,1,123.200003759766,2|0,0:0|0:0,0:0:0:0:
59,313,145956,2,0,L|52:374,2,61.6000018798829,0|0|0,1:0|1:0|1:0,0:0:0:0:
32,263,146479,5,6,3:2:0:0:
32,263,146654,2,0,P|11:246|13:213,1,61.6000018798829,0|0,1:0|1:0,0:0:0:0:
51,166,147003,1,6,3:2:0:0:
51,166,147178,2,0,P|75:156|103:174,1,61.6000018798829,0|0,1:0|1:0,0:0:0:0:
125,230,147526,1,4,3:2:0:0:
125,230,148572,2,0,L|255:220,1,112,0|0,1:0|3:0,0:0:0:0:
358,263,149270,5,6,3:2:0:0:
358,263,149445,2,0,P|337:279|339:313,1,61.6000018798829,0|0,1:0|1:0,0:0:0:0:
377,360,149794,1,6,3:2:0:0:
377,360,149969,2,0,P|401:369|429:351,1,61.6000018798829,0|0,1:0|1:0,0:0:0:0:
451,296,150317,1,6,3:2:0:0:
483,114,150840,6,0,L|476:49,1,56,0|0,3:0|1:0,0:0:0:0:
434,31,151189,1,0,3:0:0:0:
434,31,151363,2,0,L|304:45,2,112,0|0|0,3:0|1:0|3:0,0:0:0:0:
258,363,154503,6,0,L|246:251,1,112,8|0,0:0|3:0,0:0:0:0:
351,185,155199,5,6,3:2:0:0:
351,185,155374,2,0,P|446:192|446:324,1,246.400007519531,2|0,0:0|0:0,0:0:0:0:
399,354,156246,1,2,3:2:0:0:
198,318,156769,2,0,P|190:343|186:383,2,61.6000018798829,2|0|2,0:0|3:0|0:0,0:0:0:0:
174,260,157292,2,0,P|152:237|128:219,1,61.6000018798829,0|2,3:0|0:0,0:0:0:0:
119,158,157641,6,0,P|182:152|227:106,1,123.200003759766,0|0,3:0|3:0,0:0:0:0:
232,51,158164,2,0,P|144:10|52:37,1,184.800005639649,2|0,0:0|3:0,0:0:0:0:
18,74,158862,1,2,0:0:0:0:
36,280,159385,1,2,3:2:0:0:
36,280,159560,2,0,P|124:321|216:294,1,184.800005639649,2|0,0:0|3:0,0:0:0:0:
229,246,160257,5,2,0:0:0:0:
229,246,160432,2,0,L|220:114,1,123.200003759766,0|0,3:0|3:0,0:0:0:0:
215,61,160955,1,2,0:0:0:0:
338,22,161304,1,2,0:0:0:0:
338,22,161479,2,0,L|347:154,1,123.200003759766,6|0,3:2|3:0,0:0:0:0:
425,239,162176,2,0,P|458:244|492:261,1,61.6000018798829,0|2,1:0|0:0,0:0:0:0:
501,314,162525,2,0,P|438:338|362:342,1,123.200003759766,0|8,3:0|0:0,0:0:0:0:
281,273,163223,6,0,P|256:210|252:134,1,123.200003759766,6|0,3:2|3:0,0:0:0:0:
248,93,163746,1,2,0:0:0:0:
58,36,164269,1,0,3:0:0:0:
58,36,164444,2,0,P|54:66|42:94,1,61.6000018798829,2|0,0:0|3:0,0:0:0:0:
60,153,164792,2,0,P|90:156|118:168,1,61.6000018798829,2|0,0:0|3:0,0:0:0:0:
177,151,165141,1,2,0:0:0:0:
177,151,165316,1,0,3:0:0:0:
243,254,165664,6,0,P|208:297|146:280,1,123.200003759766,2|2,3:2|3:2,0:0:0:0:
21,250,166362,1,0,3:0:0:0:
21,250,166537,1,2,0:0:0:0:
53,122,166885,2,0,P|56:89|50:55,1,61.6000018798829,0|0,0:0|3:0,0:0:0:0:
102,24,167234,2,0,P|168:30|236:19,1,123.200003759766,2|2,0:0|0:0,0:0:0:0:
332,82,167932,2,0,L|366:23,2,61.6000018798829,2|0|2,0:0|3:0|0:0,0:0:0:0:
332,143,168455,2,0,L|366:201,1,61.6000018798829,0|2,3:0|0:0,0:0:0:0:
392,243,168804,5,6,3:2:0:0:
336,342,169153,1,0,3:0:0:0:
336,342,169327,2,0,P|257:332|157:364,1,168,2|0,0:0|3:0,0:0:0:0:
121,376,170025,2,0,P|68:382|1:361,1,112,2|2,0:0|0:0,0:0:0:0:
34,256,170723,2,0,L|24:196,2,56,2|0|2,0:0|3:0|0:0,0:0:0:0:
84,280,171246,2,0,L|144:270,1,56,0|2,3:0|0:0,0:0:0:0:
202,263,171595,6,0,P|236:311|302:325,1,123.200003759766,6|0,3:2|3:0,0:0:0:0:
352,301,172118,1,2,0:0:0:0:
352,301,172292,2,0,P|376:284|383:252,1,61.6000018798829,2|2,3:2|3:2,0:0:0:0:
359,198,172641,2,0,P|342:174|309:168,1,61.6000018798829,2|2,3:2|3:2,0:0:0:0:
256,192,172990,1,2,3:2:0:0:
256,192,174385,5,2,0:0:0:0:
