osu file format v14

[General]
AudioFilename: audio.mp3
AudioLeadIn: 0
PreviewTime: 35289
Countdown: 0
SampleSet: Soft
StackLeniency: 0.8
Mode: 0
LetterboxInBreaks: 0
WidescreenStoryboard: 0

[Editor]
Bookmarks: 12527,23690,36248,47410,58573,69736,82294,93456,107410,118572,129735,140898,154851,163223,174385
DistanceSpacing: 1.1
BeatDivisor: 4
GridSize: 32
TimelineZoom: 1.8

[Metadata]
Title:Meteor (feat. TEA)
TitleUnicode:Meteor (feat. TEA)
Artist:you
ArtistUnicode:you
Creator:Hinsvar
Version:Expert
Source:
Tags:ALLMYFRIENDS Vol. 1 PRISMA Japanese Electronic Dance Music EDM future bass all my friends
BeatmapID:4121915
BeatmapSetID:1984574

[Difficulty]
HPDrainRate:6
CircleSize:4.3
OverallDifficulty:8.5
ApproachRate:9.2
SliderMultiplier:1.76
SliderTickRate:1

[Events]
//Background and Video events
0,0,"BG.jpg",0,0
//Break Periods
2,58773,67757
//Storyboard Layer 0 (Background)
//Storyboard Layer 1 (Fail)
//Storyboard Layer 2 (Pass)
//Storyboard Layer 3 (Foreground)
//Storyboard Layer 4 (Overlay)
//Storyboard Sound Samples

[TimingPoints]
1365,348.837209302326,4,2,1,60,1,0
12527,-125,4,2,1,60,0,0
21946,-125,4,2,1,70,0,0
22992,-250,4,2,11,70,0,0
23690,-166.666666666667,4,2,1,60,0,0
29271,-250.000000000001,4,2,21,50,0,0
31365,-125,4,2,1,60,0,0
32062,-71.4285714285714,4,2,1,70,0,0
32585,-100,4,2,1,60,0,0
33109,-166.666666666667,4,2,1,70,0,0
34853,-125,4,2,2,60,0,0
35899,-125,4,2,11,60,0,0
36248,348.837209302326,4,2,1,80,1,1
36248,-83.3333333333333,4,2,1,80,0,1
46189,-83.3333333333333,4,2,1,70,0,0
47061,-83.3333333333333,4,2,11,70,0,0
47410,-83.3333333333333,4,2,1,80,0,1
52992,-83.3333333333333,4,2,1,70,0,0
55782,-83.3333333333333,4,2,1,80,0,1
57178,-83.3333333333333,4,2,1,80,0,0
58573,-83.3333333333333,4,2,1,60,0,0
69736,-125,4,2,1,60,0,0
75317,-250,4,2,21,50,0,0
80899,-125,4,2,2,60,0,0
81945,-125,4,2,11,60,0,0
82294,348.837209302326,4,2,1,60,1,0
82294,-166.666666666667,4,2,1,60,0,0
99038,-125,4,2,1,70,0,0
101828,-100,4,2,1,70,0,0
106712,-250,4,2,11,60,0,0
107410,348.837209302326,4,2,1,70,1,0
107410,-83.3333333333333,4,2,1,70,0,0
108805,-166.666666666667,4,2,3,60,0,0
110200,-83.3333333333333,4,2,1,70,0,0
110723,-83.3333333333333,4,2,1,60,0,0
111247,-83.3333333333333,4,2,1,70,0,0
111770,-166.666666666667,4,2,1,60,0,0
112293,-83.3333333333333,4,2,1,70,0,0
112816,-83.3333333333333,4,2,1,60,0,0
112991,-83.3333333333333,4,2,1,70,0,0
114386,-166.666666666667,4,2,3,60,0,0
115782,-83.3333333333334,4,2,1,70,0,0
116305,-83.3333333333334,4,2,1,60,0,0
116828,-125,4,2,1,70,0,0
118049,-125,4,2,1,60,0,0
118223,-125,4,2,3,50,0,0
118398,-125,4,2,1,60,0,0
118572,-166.666666666667,4,2,4,60,0,0
124154,-100,4,2,5,70,0,0
126944,-100,4,2,1,70,0,0
128514,-125,4,2,2,60,0,0
129386,-125,4,2,11,60,0,0
129735,-83.3333333333333,4,2,1,80,0,1
140200,-83.3333333333333,4,2,1,80,0,0
140898,-83.3333333333333,4,2,1,80,0,1
145956,-83.3333333333333,4,2,4,80,0,1
146130,-83.3333333333333,4,2,4,80,0,0
146479,-83.3333333333333,4,2,4,80,0,1
147526,-125,4,2,4,70,0,0
149270,-83.3333333333333,4,2,4,80,0,1
150316,-125,4,2,5,70,0,0
152061,-125,4,2,2,60,0,0
154503,-125,4,2,11,60,0,0
154851,348.837209302326,4,2,1,80,1,9
155199,-83.3333333333333,4,2,1,80,0,9
162002,-83.3333333333333,4,2,2,70,0,8
162874,-83.3333333333333,4,2,11,70,0,8
163223,-83.3333333333333,4,2,1,80,0,9
168804,-83.3333333333333,4,2,1,70,0,8
171595,-83.3333333333333,4,2,1,80,0,9
172990,-83.3333333333333,4,2,1,80,0,8
174385,348.837209302326,4,2,1,60,1,8

[Colours]
Combo1 : 219,186,98
Combo2 : 249,138,245
Combo3 : 185,134,115
Combo4 : 141,122,190

[HitObjects]
229,185,12527,6,0,P|230:236|245:307,1,105.6,4|0,3:2|0:0,0:0:0:0:
273,352,12876,2,0,P|271:284|251:189,1,140.8,2|8,3:2|0:0,0:0:0:0:
230,57,13399,1,0,1:0:0:0:
138,184,13574,1,0,3:0:0:0:
353,147,13748,2,0,B|404:163|415:229|381:253|393:312|436:322,1,211.2,2|0,0:0|3:0,0:0:0:0:
244,365,14446,5,2,0:0:0:0:
244,365,14533,1,2,0:0:0:0:
244,365,14620,1,8,0:0:0:0:
309,277,14795,1,2,0:0:0:0:
256,194,14970,1,0,3:0:0:0:
161,217,15144,1,2,0:0:0:0:
155,316,15318,6,0,P|88:314|33:260,1,140.8,2|0,3:2|3:0,0:0:0:0:
132,116,15841,1,2,0:0:0:0:
132,116,15928,1,2,0:0:0:0:
132,116,16016,2,0,P|165:117|193:144,1,70.4,8|0,0:0|0:0,0:0:0:0:
236,276,16365,5,2,3:2:0:0:
246,275,16452,1,2,0:0:0:0:
256,274,16539,1,2,0:0:0:0:
266,273,16626,1,2,0:0:0:0:
276,272,16713,2,0,L|284:195,2,70.4,2|0|0,3:2|1:0|3:0,0:0:0:0:
364,347,17237,2,0,L|429:319,1,70.4,2|8,0:0|0:0,0:0:0:0:
480,136,17585,2,0,L|452:116,1,35.2,2|0,0:0|0:0,0:0:0:0:
450,204,17760,2,0,L|394:163,1,70.4,0|0,3:0|0:0,0:0:0:0:
235,68,18109,6,0,P|170:80|105:119,1,140.8,2|0,3:2|3:0,0:0:0:0:
13,278,18632,2,0,B|62:329|159:312|171:206|265:179|336:230,1,352,2|0,0:0|3:0,0:0:0:0:
401,293,19678,1,0,1:0:0:0:
306,321,19853,1,0,3:0:0:0:
193,201,20027,5,2,0:0:0:0:
193,201,20115,1,2,0:0:0:0:
193,201,20202,1,8,0:0:0:0:
171,297,20376,1,2,0:0:0:0:
75,275,20551,1,0,3:0:0:0:
97,179,20725,1,2,0:0:0:0:
54,43,20899,6,0,P|91:46|144:27,2,70.4,2|0|0,3:2|0:0|3:0,0:0:0:0:
248,132,21423,2,0,P|282:116|317:73,1,70.4,2|8,0:0|0:0,0:0:0:0:
458,25,21771,5,2,0:0:0:0:
458,25,21859,1,2,0:0:0:0:
458,25,21946,2,0,B|483:49|469:85|450:91|440:121|467:162,1,140.8,6|2,3:2|0:0,0:0:0:0:
368,241,22469,1,2,0:0:0:0:
282,160,22644,1,2,0:0:0:0:
282,160,22731,1,2,0:0:0:0:
282,160,22818,1,2,0:0:0:0:
378,76,22992,6,0,P|446:66|503:63,1,123.2,8|0,0:0|0:0,0:0:0:0:
494,75,23690,1,4,3:2:0:0:
42,44,24388,5,10,0:0:0:0:
42,44,24562,2,0,P|67:44|110:57,1,52.7999983886719,2|0,0:0|0:0,0:0:0:0:
201,93,24911,2,0,P|143:136|54:129,1,158.399995166016,2|2,3:2|0:0,0:0:0:0:
29,218,25609,1,0,3:0:0:0:
29,218,25783,2,0,P|73:237|98:290,1,105.599996777344,8|2,0:0|0:0,0:0:0:0:
167,341,26306,1,0,3:0:0:0:
261,271,26481,6,0,B|278:233|267:198|252:197|229:155|253:109,1,158.399995166016,2|2,3:2|0:0,0:0:0:0:
251,30,27178,1,8,0:0:0:0:
483,71,27527,2,0,B|522:143|476:227|446:229|424:299|458:375,1,316.799990332032,2|8,3:2|0:0,0:0:0:0:
457,374,28748,1,2,0:0:0:0:
457,374,28923,1,2,0:0:0:0:
352,311,29097,1,0,3:0:0:0:
459,251,29271,6,0,P|469:219|470:179,1,70.4,2|0,3:2|0:0,0:0:0:0:
411,126,29795,2,0,P|378:132|343:151,1,70.4,2|0,0:0|0:0,0:0:0:0:
327,231,30318,2,0,P|348:255|382:276,1,70.4,2|0,0:0|0:0,0:0:0:0:
380,275,31365,5,0,1:0:0:0:
397,244,31452,1,0,1:0:0:0:
405,209,31539,1,0,3:0:0:0:
403,177,31626,1,0,3:0:0:0:
394,150,31713,1,0,3:0:0:0:
380,129,31801,1,0,3:0:0:0:
364,115,31888,1,0,3:0:0:0:
348,107,31975,1,0,3:0:0:0:
333,104,32062,6,0,B|275:132|227:101|231:51|186:19|112:45,1,246.399992480469,6|0,3:2|0:0,0:0:0:0:
130,233,32585,6,0,B|105:224|100:202|116:189|112:167|84:153,1,88,2|0,3:2|0:0,0:0:0:0:
93,159,32934,1,0,3:0:0:0:
28,352,33109,6,0,B|108:418|223:375|199:258|299:205|399:260,1,422.399987109375,6|0,3:2|0:0,0:0:0:0:
492,21,34853,5,4,3:2:0:0:
348,89,35027,1,0,3:0:0:0:
348,89,35115,1,0,3:0:0:0:
348,89,35202,1,0,1:0:0:0:
224,40,35376,1,2,0:0:0:0:
126,83,35551,5,0,3:0:0:0:
115,85,35638,1,0,3:0:0:0:
104,87,35725,1,0,3:0:0:0:
93,89,35812,1,0,3:0:0:0:
82,91,35899,2,0,B|45:53|45:53|104:56,1,105.6,8|0,0:0|0:0,0:0:0:0:
205,126,36248,6,0,B|223:169|203:227|170:238|147:286|177:345,1,211.199993554688,6|0,3:2|3:0,0:0:0:0:
326,361,36771,1,2,0:0:0:0:
326,361,36858,1,2,0:0:0:0:
326,361,36945,2,0,P|311:306|283:254,1,105.599996777344,2|0,3:2|0:0,0:0:0:0:
88,219,37294,2,0,P|60:226|34:240,1,52.7999983886719,0|0,3:0|0:0,0:0:0:0:
6,304,37468,5,2,0:0:0:0:
83,376,37643,1,0,3:0:0:0:
205,290,37817,5,2,0:0:0:0:
158,138,37992,1,0,3:0:0:0:
429,69,38166,6,0,P|437:91|435:124,1,52.7999983886719,2|0,0:0|0:0,0:0:0:0:
382,275,38341,2,0,P|366:231|370:165,1,105.599996777344,0|0,3:0|0:0,0:0:0:0:
504,17,38689,1,2,3:2:0:0:
313,45,38864,5,2,0:0:0:0:
313,45,38951,1,2,0:0:0:0:
313,45,39038,2,0,P|258:40|202:26,1,105.599996777344,2|0,3:2|0:0,0:0:0:0:
31,214,39387,1,2,3:2:0:0:
173,158,39561,6,0,B|307:129|363:245|319:274|381:386|505:347,1,422.399987109375,2|0,0:0|0:0,0:0:0:0:
509,355,40346,1,2,0:0:0:0:
509,355,40434,2,0,P|507:298|522:248,2,105.599996777344,2|0|0,3:2|0:0|3:0,0:0:0:0:
280,370,40957,5,2,0:0:0:0:
317,133,41131,1,0,3:0:0:0:
148,302,41306,1,2,0:0:0:0:
384,265,41480,1,0,3:0:0:0:
171,156,41654,5,2,0:0:0:0:
171,156,41742,1,2,0:0:0:0:
171,156,41829,2,0,P|93:146|29:21,1,211.199993554688,2|0,3:2|3:0,0:0:0:0:
336,23,42352,1,2,0:0:0:0:
336,23,42440,1,2,0:0:0:0:
336,23,42527,2,0,P|414:33|478:158,1,211.199993554688,2|0,3:2|3:0,0:0:0:0:
446,292,43050,1,2,0:0:0:0:
274,226,43224,2,0,P|273:174|282:122,1,105.599996777344,0|0,3:0|0:0,0:0:0:0:
340,378,43573,5,2,3:2:0:0:
200,307,43748,2,0,P|74:370|24:239,1,316.799990332032,2|0,0:0|3:0,0:0:0:0:
68,28,44445,5,2,0:0:0:0:
68,28,44532,1,2,0:0:0:0:
68,28,44620,2,0,L|186:7,1,105.599996777344,2|0,3:2|0:0,0:0:0:0:
370,53,44968,1,0,3:0:0:0:
437,134,45143,2,0,L|319:155,1,105.599996777344,2|0,0:0|3:0,0:0:0:0:
143,117,45491,1,2,0:0:0:0:
143,117,45579,1,2,0:0:0:0:
143,117,45666,2,0,B|116:167|141:225|168:213|199:266|168:329,1,211.199993554688,6|0,3:2|3:0,0:0:0:0:
387,364,46189,5,0,3:0:0:0:
387,364,46277,1,0,3:0:0:0:
387,364,46364,1,0,1:0:0:0:
497,282,46538,1,2,0:0:0:0:
371,228,46713,1,0,3:0:0:0:
367,212,46800,1,0,3:0:0:0:
363,196,46887,1,0,3:0:0:0:
360,180,46974,1,0,3:0:0:0:
357,164,47061,2,0,B|478:176|478:176|438:192,1,158.399995166016,8|0,0:0|0:0,0:0:0:0:
277,189,47410,6,0,P|207:146|254:27,1,211.199993554688,6|0,3:2|3:0,0:0:0:0:
443,16,47934,1,2,0:0:0:0:
443,16,48021,1,2,0:0:0:0:
443,16,48108,2,0,P|461:61|423:92,1,105.599996777344,2|0,3:2|0:0,0:0:0:0:
228,113,48457,2,0,L|176:101,1,52.7999983886719,0|0,3:0|0:0,0:0:0:0:
135,39,48631,5,2,0:0:0:0:
32,56,48806,1,0,3:0:0:0:
338,179,48980,5,2,0:0:0:0:
173,206,49155,1,0,3:0:0:0:
480,328,49329,6,0,L|427:338,1,52.7999983886719,2|0,0:0|0:0,0:0:0:0:
253,365,49503,2,0,L|182:283,1,105.599996777344,0|0,3:0|0:0,0:0:0:0:
36,186,49852,1,2,3:2:0:0:
259,19,50027,5,2,0:0:0:0:
259,19,50115,1,2,0:0:0:0:
259,19,50201,2,0,P|340:75|463:60,1,211.199993554688,2|0,3:2|3:0,0:0:0:0:
235,151,50724,2,0,P|154:95|31:110,1,211.199993554688,2|2,0:0|0:0,0:0:0:0:
45,102,51160,1,2,0:0:0:0:
45,102,51248,1,0,3:0:0:0:
13,319,51422,6,0,P|63:304|116:303,1,105.599996777344,2|0,0:0|3:0,0:0:0:0:
336,226,51771,2,0,P|284:239|231:240,1,105.599996777344,2|0,0:0|3:0,0:0:0:0:
61,50,52120,5,2,0:0:0:0:
233,241,52294,1,0,3:0:0:0:
187,25,52468,1,2,0:0:0:0:
23,172,52643,1,0,3:0:0:0:
271,118,52817,1,2,0:0:0:0:
107,266,52992,1,6,3:2:0:0:
107,266,53341,5,0,3:0:0:0:
48,205,53515,1,2,0:0:0:0:
178,221,53689,5,0,3:0:0:0:
142,142,53863,1,2,0:0:0:0:
260,202,54038,5,0,3:0:0:0:
253,116,54212,1,2,0:0:0:0:
343,213,54387,5,0,3:0:0:0:
367,130,54561,1,2,0:0:0:0:
419,252,54736,5,0,3:0:0:0:
468,181,54910,5,2,0:0:0:0:
447,340,55085,1,0,3:0:0:0:
289,363,55259,1,2,0:0:0:0:
216,221,55434,1,0,3:0:0:0:
328,109,55608,1,2,0:0:0:0:
504,258,55782,5,6,3:2:0:0:
488,259,55870,1,2,0:0:0:0:
472,260,55957,1,2,0:0:0:0:
456,261,56044,1,2,0:0:0:0:
440,262,56131,1,0,3:0:0:0:
424,263,56218,1,2,0:0:0:0:
408,264,56306,1,2,0:0:0:0:
392,266,56393,1,2,0:0:0:0:
339,272,56480,5,2,3:2:0:0:
290,292,56567,1,2,3:2:0:0:
241,272,56655,1,2,3:2:0:0:
221,223,56742,1,2,3:2:0:0:
241,174,56829,1,2,3:2:0:0:
290,154,56916,1,2,3:2:0:0:
339,174,57004,1,2,3:2:0:0:
359,223,57091,1,2,3:2:0:0:
339,272,57178,1,2,3:2:0:0:
256,192,58573,5,2,3:2:0:0:
256,192,68341,12,0,69561,0:0:0:0:
365,97,69736,6,0,P|428:89|485:35,2,140.8,2|0|0,3:2|3:0|3:0,0:0:0:0:
126,18,70782,2,0,P|91:23|66:47,1,70.4,0|2,3:0|0:0,0:0:0:0:
19,134,71131,2,0,P|40:161|74:170,1,70.4,0|2,3:0|0:0,0:0:0:0:
173,169,71480,2,0,P|185:136|177:103,1,70.4,0|2,3:0|0:0,0:0:0:0:
310,82,71829,2,0,P|284:146|301:213,1,140.8,8|2,0:0|3:2,0:0:0:0:
511,377,72527,6,0,L|498:295,1,70.4,2|0,3:2|0:0,0:0:0:0:
486,210,72875,1,0,3:0:0:0:
486,210,73050,1,2,0:0:0:0:
472,112,73224,1,8,0:0:0:0:
225,17,73573,2,0,L|238:99,1,70.4,0|2,3:0|0:0,0:0:0:0:
306,156,73922,1,0,3:0:0:0:
261,243,74096,1,2,0:0:0:0:
191,173,74270,1,0,3:0:0:0:
19,373,74620,2,0,L|6:291,1,70.4,8|0,0:0|0:0,0:0:0:0:
102,271,74968,1,2,3:2:0:0:
118,368,75142,1,2,0:0:0:0:
195,306,75317,6,0,P|228:308|266:324,1,70.4,2|0,0:0|0:0,0:0:0:0:
322,266,75841,2,0,P|307:236|302:195,1,70.4,2|0,0:0|0:0,0:0:0:0:
224,177,76364,2,0,P|205:204|172:229,1,70.4,2|0,0:0|0:0,0:0:0:0:
180,231,77236,1,2,0:0:0:0:
180,231,77410,2,0,P|208:210|228:181,1,70.4,2|0,0:0|0:0,0:0:0:0:
420,47,78108,6,0,P|453:57|479:91,1,70.4,2|0,0:0|0:0,0:0:0:0:
433,148,78631,2,0,P|400:138|374:104,1,70.4,2|0,0:0|0:0,0:0:0:0:
339,43,79154,2,0,B|282:6|186:49|198:86|109:129|42:79,1,316.8,2|0,0:0|0:0,0:0:0:0:
214,157,80899,5,6,3:2:0:0:
315,296,81073,1,0,3:0:0:0:
315,296,81160,1,0,3:0:0:0:
315,296,81248,1,0,1:0:0:0:
212,383,81422,1,2,0:0:0:0:
119,332,81596,1,0,3:0:0:0:
108,334,81684,1,0,3:0:0:0:
97,336,81771,1,0,3:0:0:0:
86,338,81858,1,0,3:0:0:0:
75,340,81945,2,0,B|48:371|48:371|37:298,1,105.6,8|0,0:0|0:0,0:0:0:0:
90,252,82294,6,0,P|141:249|179:206,1,105.599996777344,6|0,3:2|0:0,0:0:0:0:
156,124,82817,2,0,P|130:125|111:146,1,52.7999983886719,2|0,0:0|0:0,0:0:0:0:
112,144,83340,1,2,0:0:0:0:
257,237,83514,2,0,L|324:230,1,52.7999983886719,2|0,0:0|0:0,0:0:0:0:
355,106,83863,2,0,L|362:173,1,52.7999983886719,2|0,0:0|0:0,0:0:0:0:
485,203,84212,2,0,L|418:210,1,52.7999983886719,2|0,0:0|0:0,0:0:0:0:
432,208,84735,5,2,0:0:0:0:
360,158,84910,1,0,1:0:0:0:
309,231,85084,1,2,0:0:0:0:
90,351,85433,1,2,0:0:0:0:
39,278,85607,2,0,P|48:174|196:151,1,263.99999194336,2|2,0:0|0:0,0:0:0:0:
417,347,87003,5,2,0:0:0:0:
356,279,87177,1,2,0:0:0:0:
401,201,87352,1,2,0:0:0:0:
490,220,87526,1,2,0:0:0:0:
498,309,87700,1,2,0:0:0:0:
328,366,87875,6,0,P|279:367|224:349,1,105.599996777344,2|0,0:0|0:0,0:0:0:0:
213,260,88398,2,0,P|237:259|265:268,1,52.7999983886719,2|0,0:0|0:0,0:0:0:0:
264,268,88921,1,2,0:0:0:0:
142,315,89096,2,0,P|87:364|24:321,1,158.399995166016,2|0,0:0|0:0,0:0:0:0:
19,233,89794,2,0,P|74:184|137:227,1,158.399995166016,2|0,0:0|0:0,0:0:0:0:
453,260,90666,6,0,P|429:306|427:358,1,105.599996777344,2|0,0:0|0:0,0:0:0:0:
376,179,91189,2,0,P|428:176|474:151,1,105.599996777344,2|0,0:0|0:0,0:0:0:0:
345,286,91712,2,0,P|316:241|272:214,1,105.599996777344,2|0,0:0|0:0,0:0:0:0:
272,214,92584,1,2,0:0:0:0:
184,235,92759,2,0,L|142:230,3,26.399999194336,2|0|0|0,0:0|0:0|0:0|0:0,0:0:0:0:
166,162,93107,2,0,L|208:167,3,26.399999194336,2|0|0|0,0:0|0:0|0:0|0:0,0:0:0:0:
254,129,93456,6,0,P|235:87|232:9,1,105.599996777344,6|0,0:0|0:0,0:0:0:0:
319,31,93980,2,0,P|328:52|330:91,1,52.7999983886719,2|0,0:0|0:0,0:0:0:0:
331,81,94503,1,2,0:0:0:0:
162,125,94677,2,0,L|110:137,1,52.7999983886719,2|0,0:0|0:0,0:0:0:0:
184,235,95026,2,0,L|132:219,1,52.7999983886719,2|0,0:0|0:0,0:0:0:0:
148,341,95375,2,0,L|111:301,1,52.7999983886719,2|0,0:0|0:0,0:0:0:0:
111,302,95898,1,2,0:0:0:0:
47,366,96073,1,0,3:0:0:0:
232,372,96247,6,0,P|256:337|246:262,1,105.599996777344,2|0,0:0|0:0,0:0:0:0:
196,134,96770,2,0,P|172:169|182:244,1,105.599996777344,2|0,0:0|0:0,0:0:0:0:
253,276,97294,1,2,0:0:0:0:
341,265,97468,2,0,P|377:212|362:99,1,158.399995166016,2|0,0:0|0:0,0:0:0:0:
285,104,98166,5,2,0:0:0:0:
209,151,98340,1,2,0:0:0:0:
143,95,98514,1,2,0:0:0:0:
173,12,98689,1,2,0:0:0:0:
263,18,98863,1,2,0:0:0:0:
414,25,99038,6,0,P|470:68|482:152,1,140.8,6|0,3:2|0:0,0:0:0:0:
380,283,99561,1,2,0:0:0:0:
380,283,99648,1,2,0:0:0:0:
380,283,99735,2,0,P|324:240|312:156,1,140.8,2|2,1:2|0:0,0:0:0:0:
332,79,100258,1,2,0:0:0:0:
203,174,100433,2,0,P|187:241|132:283,1,140.8,0|0,1:0|1:0,0:0:0:0:
50,229,100956,5,2,0:0:0:0:
2,137,101131,1,0,1:0:0:0:
72,68,101305,1,2,0:0:0:0:
160,113,101479,1,0,1:0:0:0:
144,210,101653,1,2,0:0:0:0:
119,363,101828,5,0,1:0:0:0:
132,360,101916,1,2,0:0:0:0:
145,358,102003,1,2,0:0:0:0:
158,356,102090,1,2,0:0:0:0:
171,354,102177,1,0,1:0:0:0:
184,352,102264,1,2,0:0:0:0:
197,350,102352,1,2,0:0:0:0:
210,348,102439,1,2,0:0:0:0:
250,362,102526,5,2,1:2:0:0:
275,327,102613,1,2,1:2:0:0:
280,283,102700,1,2,1:2:0:0:
265,242,102787,1,2,1:2:0:0:
241,206,102874,1,2,1:2:0:0:
217,169,102962,1,2,1:2:0:0:
203,127,103049,1,2,1:2:0:0:
208,84,103136,1,2,1:2:0:0:
234,49,103223,1,2,1:2:0:0:
234,49,106712,6,0,B|302:67|302:67|344:23,1,123.2,8|0,0:0|0:0,0:0:0:0:
329,15,107410,6,0,P|334:126|356:231,1,211.199993554688,6|0,3:2|0:0,0:0:0:0:
353,223,108456,2,0,P|368:145|371:66,1,158.399995166016,6|0,3:2|0:0,0:0:0:0:
322,15,108805,5,0,1:0:0:0:
314,16,108892,1,0,3:0:0:0:
306,17,108979,1,0,3:0:0:0:
298,18,109066,1,0,3:0:0:0:
290,19,109154,2,0,L|262:14,1,26.399999194336,0|0,3:0|0:0,0:0:0:0:
232,105,109328,1,0,1:0:0:0:
224,106,109415,1,0,3:0:0:0:
216,107,109502,1,0,3:0:0:0:
208,108,109589,1,0,3:0:0:0:
200,109,109677,2,0,L|172:104,1,26.399999194336,0|0,3:0|0:0,0:0:0:0:
116,190,109851,2,0,L|32:175,1,79.1999975830079,6|0,3:2|0:0,0:0:0:0:
27,246,110200,6,0,P|84:142|32:55,1,211.199993554688,6|0,3:2|0:0,0:0:0:0:
227,17,110723,1,2,0:0:0:0:
228,38,110811,1,2,0:0:0:0:
236,63,110898,1,2,0:0:0:0:
253,89,110985,1,2,0:0:0:0:
281,114,111073,1,2,0:0:0:0:
319,132,111160,1,2,0:0:0:0:
365,139,111247,2,0,P|442:125|493:13,1,211.199993554688,6|0,3:2|0:0,0:0:0:0:
395,34,111770,5,2,0:0:0:0:
395,34,111857,1,2,0:0:0:0:
395,34,111944,2,0,L|325:41,1,52.7999983886719,2|0,0:0|0:0,0:0:0:0:
219,169,112293,6,0,B|172:192|127:151|145:119|92:76|38:95,1,211.199993554688,6|0,3:2|0:0,0:0:0:0:
95,220,112816,1,2,0:0:0:0:
293,340,112991,6,0,B|340:363|385:322|367:290|420:247|472:265,1,211.199993554688,6|0,3:2|0:0,0:0:0:0:
471,265,114037,2,0,B|488:229|457:196|433:209|401:169|415:130,1,158.399995166016,6|0,3:2|0:0,0:0:0:0:
482,97,114386,5,0,1:0:0:0:
482,89,114473,1,0,3:0:0:0:
482,81,114560,1,0,3:0:0:0:
482,73,114647,1,0,3:0:0:0:
482,65,114735,1,0,3:0:0:0:
482,57,114822,1,0,3:0:0:0:
482,49,114909,2,0,L|481:13,1,26.399999194336,0|0,1:0|0:0,0:0:0:0:
351,22,115084,1,0,1:0:0:0:
351,30,115171,1,0,3:0:0:0:
351,38,115258,1,0,3:0:0:0:
351,46,115345,1,0,3:0:0:0:
351,54,115433,1,0,3:0:0:0:
351,62,115520,1,0,3:0:0:0:
351,70,115607,2,0,L|352:106,1,26.399999194336,0|0,1:0|0:0,0:0:0:0:
213,152,115782,6,0,P|195:46|84:22,1,211.199993554688,6|0,3:2|0:0,0:0:0:0:
22,205,116305,1,2,0:0:0:0:
23,226,116393,1,2,0:0:0:0:
31,251,116480,1,2,0:0:0:0:
48,277,116567,1,2,0:0:0:0:
76,302,116655,1,2,0:0:0:0:
114,320,116742,1,2,0:0:0:0:
160,327,116828,6,0,P|316:273|461:62,1,422.4,6|8,3:2|0:0,0:0:0:0:
372,20,118049,1,0,3:0:0:0:
337,112,118223,1,0,1:0:0:0:
432,168,118397,5,0,3:0:0:0:
432,168,118485,1,0,3:0:0:0:
432,168,118572,2,0,P|463:168|493:183,2,52.7999983886719,4|2|0,3:2|0:0|0:0,0:0:0:0:
310,304,119270,2,0,P|263:304|218:281,2,79.1999975830079,2|2|2,1:2|0:0|0:0,0:0:0:0:
382,357,119968,1,0,1:0:0:0:
470,346,120142,6,0,P|483:308|481:269,1,79.1999975830079,2|2,0:0|0:0,0:0:0:0:
299,143,120665,2,0,P|285:180|287:219,2,79.1999975830079,2|2|2,1:2|0:0|0:0,0:0:0:0:
329,58,121363,1,0,1:0:0:0:
248,18,121537,6,0,P|211:35|164:27,1,79.1999975830079,2|2,0:0|0:0,0:0:0:0:
410,98,122061,2,0,P|447:81|494:89,2,79.1999975830079,2|2|2,1:2|0:0|0:0,0:0:0:0:
461,171,122758,1,0,1:0:0:0:
470,260,122933,6,0,P|460:295|452:354,1,79.1999975830079,2|2,0:0|0:0,0:0:0:0:
248,366,123456,2,0,P|258:331|266:272,1,79.1999975830079,2|2,1:2|0:0,0:0:0:0:
59,260,123979,5,0,3:0:0:0:
59,260,124066,1,0,3:0:0:0:
59,260,124154,1,4,3:2:0:0:
6,330,124328,1,2,0:0:0:0:
89,358,124503,1,0,1:0:0:0:
142,288,124677,1,2,0:0:0:0:
195,218,124851,1,0,1:0:0:0:
278,246,125025,1,2,0:0:0:0:
225,316,125200,1,0,1:0:0:0:
142,288,125374,1,2,0:0:0:0:
21,182,125549,5,0,1:0:0:0:
3,96,125723,1,2,0:0:0:0:
89,78,125898,1,0,1:0:0:0:
107,164,126072,1,2,0:0:0:0:
125,250,126247,1,0,1:0:0:0:
211,232,126421,1,2,0:0:0:0:
193,146,126596,1,0,1:0:0:0:
107,164,126770,1,2,0:0:0:0:
276,173,126944,5,4,3:2:0:0:
289,173,127031,1,2,0:0:0:0:
302,174,127118,1,2,0:0:0:0:
315,174,127205,1,2,0:0:0:0:
328,175,127292,1,0,3:0:0:0:
341,176,127380,1,2,0:0:0:0:
355,176,127467,1,2,0:0:0:0:
368,177,127554,1,2,0:0:0:0:
401,206,127642,5,2,3:2:0:0:
383,245,127729,1,2,3:2:0:0:
347,271,127816,1,2,3:2:0:0:
304,278,127903,1,2,3:2:0:0:
261,275,127990,1,2,3:2:0:0:
217,274,128078,1,2,3:2:0:0:
174,282,128165,1,2,3:2:0:0:
140,308,128252,1,2,3:2:0:0:
121,348,128340,1,2,3:2:0:0:
9,296,128514,5,0,3:0:0:0:
9,296,128601,1,0,3:0:0:0:
9,296,128689,1,0,1:0:0:0:
102,200,128863,1,2,0:0:0:0:
222,260,129037,5,0,3:0:0:0:
232,263,129125,1,0,3:0:0:0:
242,266,129212,1,0,3:0:0:0:
252,269,129299,1,0,3:0:0:0:
262,272,129386,2,0,B|310:293|310:293|256:320,1,105.6,8|0,0:0|0:0,0:0:0:0:
191,331,129735,5,6,3:2:0:0:
42,369,129910,1,2,0:0:0:0:
42,369,129997,2,0,L|48:308,1,52.7999983886719,2|0,0:0|3:0,0:0:0:0:
33,181,130171,2,0,L|22:286,1,105.599996777344,2|0,0:0|0:0,0:0:0:0:
100,264,130433,1,0,3:0:0:0:
100,264,130520,1,2,0:0:0:0:
244,131,130694,1,2,0:0:0:0:
244,131,130781,1,0,3:0:0:0:
287,322,130956,2,0,P|230:290|187:210,1,158.399995166016,2|0,0:0|0:0,0:0:0:0:
277,223,131305,5,2,0:0:0:0:
277,223,131392,2,0,P|304:219|332:210,1,52.7999983886719,2|0,0:0|3:0,0:0:0:0:
454,163,131566,2,0,P|398:170|344:189,1,105.599996777344,2|0,0:0|0:0,0:0:0:0:
402,248,131828,1,0,3:0:0:0:
402,248,131915,1,2,0:0:0:0:
330,87,132090,1,2,0:0:0:0:
330,87,132177,1,0,3:0:0:0:
227,230,132351,2,0,P|160:258|97:188,1,158.399995166016,2|0,0:0|0:0,0:0:0:0:
87,135,132700,5,2,0:0:0:0:
87,135,132787,2,0,P|86:103|95:74,1,52.7999983886719,2|0,0:0|3:0,0:0:0:0:
182,51,132962,2,0,P|118:53|60:35,1,105.599996777344,2|0,0:0|0:0,0:0:0:0:
16,9,133223,1,0,3:0:0:0:
16,9,133311,1,2,0:0:0:0:
214,138,133485,1,2,0:0:0:0:
214,138,133572,1,0,3:0:0:0:
3,244,133747,2,0,P|74:255|103:337,1,158.399995166016,2|0,0:0|0:0,0:0:0:0:
173,362,134096,5,2,0:0:0:0:
173,362,134183,2,0,P|192:336|199:308,1,52.7999983886719,2|0,0:0|3:0,0:0:0:0:
254,193,134357,2,0,P|215:244|200:300,1,105.599996777344,2|0,0:0|0:0,0:0:0:0:
285,336,134619,1,0,3:0:0:0:
285,336,134706,1,2,0:0:0:0:
494,254,134880,1,2,0:0:0:0:
494,254,134967,1,0,3:0:0:0:
319,115,135142,2,0,P|335:184|373:268,1,158.399995166016,2|0,0:0|0:0,0:0:0:0:
417,328,135491,5,2,0:0:0:0:
417,328,135578,2,0,P|446:332|472:346,1,52.7999983886719,2|0,0:0|3:0,0:0:0:0:
353,365,135753,2,0,P|295:357|243:329,1,105.599996777344,2|0,0:0|0:0,0:0:0:0:
249,262,136014,1,0,3:0:0:0:
249,262,136101,1,2,0:0:0:0:
93,345,136276,1,2,0:0:0:0:
93,345,136363,1,0,3:0:0:0:
99,168,136537,2,0,P|40:152|20:53,1,158.399995166016,2|0,0:0|0:0,0:0:0:0:
67,12,136886,5,2,0:0:0:0:
67,12,136973,2,0,P|86:17|93:50,1,52.7999983886719,2|0,0:0|3:0,0:0:0:0:
207,49,137148,2,0,P|188:95|138:104,1,105.599996777344,2|0,0:0|0:0,0:0:0:0:
103,172,137410,1,0,3:0:0:0:
103,172,137497,1,0,0:0:0:0:
210,363,137671,1,2,0:0:0:0:
210,363,137758,1,0,3:0:0:0:
324,170,137933,2,0,P|395:190|443:118,1,158.399995166016,2|0,0:0|0:0,0:0:0:0:
386,89,138282,5,10,0:0:0:0:
386,89,138369,2,0,P|386:61|399:35,1,52.7999983886719,2|0,0:0|3:0,0:0:0:0:
258,5,138543,2,0,P|292:43|309:99,1,105.599996777344,2|0,0:0|0:0,0:0:0:0:
251,145,138805,1,0,3:0:0:0:
251,145,138892,1,2,0:0:0:0:
309,347,139066,1,2,0:0:0:0:
309,347,139153,1,0,3:0:0:0:
104,295,139328,2,0,P|37:292|63:368,1,158.399995166016,2|0,0:0|0:0,0:0:0:0:
180,351,139677,5,2,0:0:0:0:
180,351,139764,2,0,P|181:320|179:291,1,52.7999983886719,2|0,0:0|3:0,0:0:0:0:
69,151,139939,2,0,P|68:182|70:211,1,52.7999983886719,2|0,0:0|0:0,0:0:0:0:
205,215,140113,5,2,0:0:0:0:
216,226,140200,2,0,P|246:218|273:209,2,52.7999983886719,0|2|2,3:0|0:0|0:0,0:0:0:0:
476,111,140549,1,0,3:0:0:0:
424,99,140636,1,2,0:0:0:0:
373,85,140723,1,2,0:0:0:0:
322,71,140810,1,2,0:0:0:0:
272,54,140897,1,6,3:2:0:0:
60,16,141072,5,2,0:0:0:0:
60,16,141160,2,0,P|59:33|68:72,1,52.7999983886719,2|0,0:0|3:0,0:0:0:0:
154,167,141334,2,0,P|154:131|136:53,1,105.599996777344,2|0,0:0|0:0,0:0:0:0:
75,151,141596,1,0,3:0:0:0:
75,151,141683,2,0,L|25:169,1,52.7999983886719,2|0,0:0|0:0,0:0:0:0:
228,222,141857,1,2,0:0:0:0:
228,222,141944,2,0,L|237:169,1,52.7999983886719,0|0,3:0|0:0,0:0:0:0:
92,335,142119,2,0,P|168:316|225:375,1,158.399995166016,2|0,0:0|0:0,0:0:0:0:
298,362,142468,5,2,0:0:0:0:
298,362,142555,2,0,P|327:364|353:350,1,52.7999983886719,2|0,0:0|3:0,0:0:0:0:
416,275,142729,2,0,P|358:271|306:299,1,105.599996777344,2|0,0:0|0:0,0:0:0:0:
280,224,142991,1,0,3:0:0:0:
280,224,143078,2,0,L|285:165,1,52.7999983886719,2|0,0:0|0:0,0:0:0:0:
176,53,143253,1,2,0:0:0:0:
176,53,143340,2,0,L|224:86,1,52.7999983886719,0|0,3:0|0:0,0:0:0:0:
391,50,143514,2,0,P|367:91|318:25,1,158.399995166016,2|0,0:0|0:0,0:0:0:0:
477,120,143863,5,2,0:0:0:0:
477,120,143950,2,0,P|463:127|460:100,1,52.7999983886719,2|0,0:0|3:0,0:0:0:0:
353,182,144125,2,0,P|380:166|386:220,1,105.599996777344,2|0,0:0|0:0,0:0:0:0:
351,280,144386,1,0,3:0:0:0:
351,280,144473,2,0,P|341:306|339:335,1,52.7999983886719,2|0,0:0|0:0,0:0:0:0:
164,376,144648,1,2,0:0:0:0:
164,376,144735,2,0,P|146:354|122:338,1,52.7999983886719,0|0,3:0|0:0,0:0:0:0:
174,166,144910,2,0,P|222:130|213:28,1,158.399995166016,2|0,0:0|0:0,0:0:0:0:
114,15,145258,5,2,0:0:0:0:
114,15,145346,2,0,P|127:37|155:58,1,52.7999983886719,2|0,0:0|3:0,0:0:0:0:
311,116,145520,2,0,P|360:102|415:59,1,105.599996777344,2|0,0:0|0:0,0:0:0:0:
441,7,145782,1,0,3:0:0:0:
352,201,145956,1,0,1:0:0:0:
150,274,146130,1,0,1:0:0:0:
141,222,146217,1,0,1:0:0:0:
112,178,146304,1,0,1:0:0:0:
68,149,146391,1,0,1:0:0:0:
17,140,146479,6,0,L|28:203,1,52.7999983886719,6|0,3:2|0:0,0:0:0:0:
181,351,146654,2,0,L|221:316,1,52.7999983886719,0|0,1:0|0:0,0:0:0:0:
281,104,146828,2,0,L|231:85,1,52.7999983886719,0|0,1:0|0:0,0:0:0:0:
38,293,147003,6,0,L|87:310,1,52.7999983886719,6|0,3:2|0:0,0:0:0:0:
302,256,147178,2,0,L|292:204,1,52.7999983886719,0|0,1:0|0:0,0:0:0:0:
138,46,147352,2,0,L|97:79,1,52.7999983886719,0|0,1:0|0:0,0:0:0:0:
181,351,147526,5,4,3:2:0:0:
181,351,148572,1,0,1:0:0:0:
166,299,148660,1,0,1:0:0:0:
168,250,148747,1,0,3:0:0:0:
183,209,148834,1,0,3:0:0:0:
207,179,148921,1,0,3:0:0:0:
234,162,149008,1,0,3:0:0:0:
259,156,149096,1,0,3:0:0:0:
279,157,149183,1,0,3:0:0:0:
293,162,149270,6,0,P|287:183|258:201,1,52.7999983886719,6|0,3:2|0:0,0:0:0:0:
86,234,149444,2,0,P|70:218|69:184,1,52.7999983886719,0|0,1:0|0:0,0:0:0:0:
127,18,149619,2,0,P|148:12|178:28,1,52.7999983886719,0|0,1:0|0:0,0:0:0:0:
210,257,149793,6,0,P|188:262|158:246,1,52.7999983886719,6|0,3:2|0:0,0:0:0:0:
44,114,149967,2,0,P|50:93|79:75,1,52.7999983886719,0|0,1:0|0:0,0:0:0:0:
251,41,150142,2,0,P|266:57|268:91,1,52.7999983886719,0|0,1:0|0:0,0:0:0:0:
86,234,150316,5,6,3:2:0:0:
94,242,150840,1,0,3:0:0:0:
94,242,150927,1,0,3:0:0:0:
94,242,151014,1,0,1:0:0:0:
15,170,151189,1,0,3:0:0:0:
13,159,151276,1,0,3:0:0:0:
11,148,151363,2,0,L|16:108,2,35.2,0|0|0,3:0|3:0|3:0,0:0:0:0:
116,137,151712,1,0,1:0:0:0:
126,140,151799,1,0,3:0:0:0:
136,143,151886,1,0,3:0:0:0:
146,146,151974,1,0,3:0:0:0:
156,150,152061,1,0,3:0:0:0:
156,150,153456,5,0,3:0:0:0:
253,146,153630,1,0,3:0:0:0:
253,146,153718,1,0,3:0:0:0:
253,146,153805,1,0,1:0:0:0:
196,66,153979,1,2,0:0:0:0:
209,226,154154,5,0,3:0:0:0:
211,238,154241,1,0,3:0:0:0:
213,250,154328,1,0,3:0:0:0:
215,262,154415,1,0,3:0:0:0:
217,275,154503,2,0,B|216:288|216:288|201:309|201:309|227:352|227:352|240:304,1,140.8,8|0,0:0|3:0,0:0:0:0:
98,72,155199,6,0,P|74:61|48:62,1,52.7999983886719,6|0,3:2|0:0,0:0:0:0:
55,247,155374,2,0,B|52:109|195:94|205:212|343:186|335:46,1,422.399987109375,2|0,0:0|0:0,0:0:0:0:
344,55,156159,1,2,0:0:0:0:
344,55,156246,2,0,P|291:57|244:36,2,105.599996777344,2|0|0,3:2|0:0|3:0,0:0:0:0:
263,289,156769,5,2,0:0:0:0:
499,250,156943,1,0,3:0:0:0:
285,142,157118,1,2,0:0:0:0:
393,354,157292,1,0,3:0:0:0:
431,119,157466,5,2,0:0:0:0:
431,119,157554,1,2,0:0:0:0:
431,119,157641,2,0,P|358:38|262:42,1,211.199993554688,0|0,3:0|3:0,0:0:0:0:
75,260,158164,1,2,0:0:0:0:
75,260,158252,1,2,0:0:0:0:
75,260,158339,2,0,P|148:341|244:337,1,211.199993554688,0|0,3:0|3:0,0:0:0:0:
169,192,158862,1,2,0:0:0:0:
152,18,159037,2,0,P|113:51|114:102,1,105.599996777344,0|0,3:0|0:0,0:0:0:0:
12,131,159385,5,2,3:2:0:0:
219,99,159560,2,0,P|390:154|514:237,1,316.799990332032,2|0,0:0|3:0,0:0:0:0:
394,366,160257,5,2,0:0:0:0:
394,366,160345,1,2,0:0:0:0:
394,366,160432,2,0,P|388:315|398:256,1,105.599996777344,0|0,3:0|0:0,0:0:0:0:
460,89,160781,1,0,3:0:0:0:
277,315,160955,2,0,P|271:264|281:205,1,105.599996777344,2|0,0:0|3:0,0:0:0:0:
343,38,161304,1,2,0:0:0:0:
343,38,161391,1,2,0:0:0:0:
343,38,161478,2,0,P|241:50|123:30,1,211.199993554688,6|0,3:2|3:0,0:0:0:0:
20,184,162002,5,0,3:0:0:0:
20,184,162089,1,0,3:0:0:0:
20,184,162176,1,0,1:0:0:0:
191,152,162351,1,2,0:0:0:0:
94,109,162525,1,0,3:0:0:0:
96,124,162612,1,0,3:0:0:0:
99,140,162699,1,0,3:0:0:0:
102,155,162786,1,0,3:0:0:0:
105,171,162874,2,0,B|133:222|122:282|122:282|100:270|89:239,1,158.399995166016,8|0,0:0|0:0,0:0:0:0:
8,267,163223,6,0,P|110:237|229:236,1,211.199993554688,6|0,3:2|3:0,0:0:0:0:
470,278,163746,1,2,0:0:0:0:
470,278,163833,1,2,0:0:0:0:
470,278,163920,2,0,P|468:225|453:174,1,105.599996777344,2|0,3:2|0:0,0:0:0:0:
281,303,164269,2,0,P|281:329|289:354,1,52.7999983886719,0|0,3:0|0:0,0:0:0:0:
362,367,164444,5,2,0:0:0:0:
467,373,164618,1,0,3:0:0:0:
192,235,164792,5,2,0:0:0:0:
374,213,164966,1,0,3:0:0:0:
34,92,165141,6,0,P|63:97|103:82,1,52.7999983886719,2|0,0:0|0:0,0:0:0:0:
284,15,165316,2,0,P|226:5|146:35,1,105.599996777344,0|0,3:0|0:0,0:0:0:0:
64,187,165664,1,2,3:2:0:0:
237,97,165839,5,2,0:0:0:0:
237,97,165926,1,2,0:0:0:0:
237,97,166013,2,0,B|245:138|226:194|188:199|170:255|199:295,1,211.199993554688,2|0,3:2|3:0,0:0:0:0:
491,354,166537,2,0,B|520:314|502:258|464:253|445:197|453:156,1,211.199993554688,2|0,0:0|0:0,0:0:0:0:
452,156,166973,1,2,0:0:0:0:
452,156,167060,1,0,3:0:0:0:
376,340,167234,6,0,P|326:350|259:378,1,105.599996777344,2|0,0:0|3:0,0:0:0:0:
167,217,167583,2,0,P|216:206|284:179,1,105.599996777344,2|0,0:0|3:0,0:0:0:0:
504,81,167932,5,2,0:0:0:0:
374,259,168106,1,0,3:0:0:0:
399,7,168280,1,2,0:0:0:0:
266,185,168455,1,0,3:0:0:0:
488,208,168629,1,2,0:0:0:0:
284,58,168804,1,6,3:2:0:0:
284,58,169153,5,0,3:0:0:0:
216,108,169327,1,2,0:0:0:0:
109,8,169502,5,0,3:0:0:0:
135,88,169676,1,2,0:0:0:0:
7,158,169851,5,0,3:0:0:0:
91,158,170025,1,2,0:0:0:0:
119,302,170199,5,0,3:0:0:0:
144,221,170373,1,2,0:0:0:0:
289,239,170548,5,0,3:0:0:0:
221,190,170722,5,2,0:0:0:0:
347,93,170897,1,0,3:0:0:0:
478,182,171071,1,2,0:0:0:0:
433,334,171246,1,0,3:0:0:0:
274,339,171420,1,2,0:0:0:0:
49,364,171595,5,6,3:2:0:0:
60,353,171682,1,2,0:0:0:0:
71,342,171769,1,2,0:0:0:0:
81,329,171856,1,2,0:0:0:0:
90,316,171944,1,0,3:0:0:0:
97,302,172031,1,2,0:0:0:0:
103,287,172118,1,2,0:0:0:0:
107,272,172205,1,2,0:0:0:0:
106,219,172292,5,2,3:2:0:0:
141,180,172379,1,2,3:2:0:0:
160,131,172466,1,2,3:2:0:0:
142,83,172553,1,2,3:2:0:0:
93,68,172640,1,2,3:2:0:0:
47,91,172728,1,2,3:2:0:0:
38,140,172815,1,2,3:2:0:0:
65,185,172902,1,2,3:2:0:0:
106,219,172989,1,2,3:2:0:0:
256,192,174385,5,2,0:0:0:0:
