osu file format v14

[General]
AudioFilename: audio.mp3
AudioLeadIn: 0
PreviewTime: 97905
Countdown: 0
SampleSet: None
StackLeniency: 0.7
Mode: 3
LetterboxInBreaks: 0
SpecialStyle: 0
WidescreenStoryboard: 0

[Editor]
DistanceSpacing: 0.8
BeatDivisor: 4
GridSize: 32
TimelineZoom: 2.5

[Metadata]
Title:Hoshizora Illumination
TitleUnicode:Hoshizora Illumination
Artist:you
ArtistUnicode:you
Creator:Andrexabc
Version:AYYEEE!!!
Source:SDVX II
Tags:
BeatmapID:1200468
BeatmapSetID:566739

[Difficulty]
HPDrainRate:7.5
CircleSize:4
OverallDifficulty:8
ApproachRate:5
SliderMultiplier:1.4
SliderTickRate:1

[Events]
//Background and Video events
0,0,"lore_background.jpg",0,0
//Break Periods
//Storyboard Layer 0 (Background)
//Storyboard Layer 1 (Fail)
//Storyboard Layer 2 (Pass)
//Storyboard Layer 3 (Foreground)
//Storyboard Sound Samples

[TimingPoints]
1691,285.714285714286,4,1,0,13,1,0
41119,-100,4,1,0,13,0,1
45691,-100,4,1,0,13,0,0
59976,-100,4,1,0,13,0,1
64476,-100,4,1,0,13,0,0
98262,-100,4,1,0,13,0,1
116619,-100,4,1,0,13,0,0

[HitObjects]
448,192,1691,5,0,0:0:0:0:
192,192,1976,128,0,2262:0:0:0:0:
64,192,2262,1,0,0:0:0:0:
448,192,2262,1,0,0:0:0:0:
320,192,2333,1,0,0:0:0:0:
192,192,2405,1,0,0:0:0:0:
448,192,2405,1,0,0:0:0:0:
64,192,2476,1,0,0:0:0:0:
320,192,2548,1,0,0:0:0:0:
192,192,2548,1,0,0:0:0:0:
448,192,2619,1,0,0:0:0:0:
64,192,2691,1,0,0:0:0:0:
320,192,2691,1,0,0:0:0:0:
192,192,2762,1,0,0:0:0:0:
320,192,2833,1,0,0:0:0:0:
448,192,2833,1,0,0:0:0:0:
192,192,2905,1,0,0:0:0:0:
64,192,2976,1,0,0:0:0:0:
448,192,2976,1,0,0:0:0:0:
320,192,3048,1,0,0:0:0:0:
192,192,3119,1,0,0:0:0:0:
64,192,3119,1,0,0:0:0:0:
320,192,3191,1,0,0:0:0:0:
64,192,3262,1,0,0:0:0:0:
448,192,3262,1,0,0:0:0:0:
192,192,3333,1,0,0:0:0:0:
320,192,3405,1,0,0:0:0:0:
448,192,3405,1,0,0:0:0:0:
192,192,3476,1,0,0:0:0:0:
64,192,3548,1,0,0:0:0:0:
320,192,3548,1,0,0:0:0:0:
448,192,3619,1,0,0:0:0:0:
64,192,3691,1,0,0:0:0:0:
192,192,3691,1,0,0:0:0:0:
320,192,3762,1,0,0:0:0:0:
448,192,3833,1,0,0:0:0:0:
64,192,3833,1,0,0:0:0:0:
320,192,3905,1,0,0:0:0:0:
192,192,3976,1,0,0:0:0:0:
448,192,3976,1,0,0:0:0:0:
64,192,4048,1,0,0:0:0:0:
320,192,4119,1,0,0:0:0:0:
192,192,4119,1,0,0:0:0:0:
448,192,4191,1,0,0:0:0:0:
64,192,4262,1,0,0:0:0:0:
320,192,4262,1,0,0:0:0:0:
192,192,4333,1,0,0:0:0:0:
320,192,4405,1,0,0:0:0:0:
448,192,4405,1,0,0:0:0:0:
192,192,4476,1,0,0:0:0:0:
64,192,4548,1,0,0:0:0:0:
320,192,4548,1,0,0:0:0:0:
448,192,4619,1,0,0:0:0:0:
64,192,4691,1,0,0:0:0:0:
192,192,4691,1,0,0:0:0:0:
320,192,4762,1,0,0:0:0:0:
192,192,4833,1,0,0:0:0:0:
448,192,4833,1,0,0:0:0:0:
64,192,4905,1,0,0:0:0:0:
320,192,4976,1,0,0:0:0:0:
448,192,4976,1,0,0:0:0:0:
64,192,5048,1,0,0:0:0:0:
192,192,5119,1,0,0:0:0:0:
448,192,5119,1,0,0:0:0:0:
320,192,5191,1,0,0:0:0:0:
64,192,5262,1,0,0:0:0:0:
192,192,5262,1,0,0:0:0:0:
448,192,5333,1,0,0:0:0:0:
320,192,5405,1,0,0:0:0:0:
192,192,5405,1,0,0:0:0:0:
64,192,5476,1,0,0:0:0:0:
192,192,5548,1,0,0:0:0:0:
448,192,5548,1,0,0:0:0:0:
320,192,5619,1,0,0:0:0:0:
192,192,5691,1,0,0:0:0:0:
64,192,5691,1,0,0:0:0:0:
320,192,5762,1,0,0:0:0:0:
448,192,5833,128,0,5976:0:0:0:0:
64,192,5833,1,0,0:0:0:0:
192,192,5905,1,0,0:0:0:0:
64,192,5976,1,0,0:0:0:0:
448,192,6119,128,0,6262:0:0:0:0:
320,192,6119,1,0,0:0:0:0:
192,192,6155,1,0,0:0:0:0:
64,192,6191,1,0,0:0:0:0:
320,192,6226,1,0,0:0:0:0:
192,192,6262,1,0,0:0:0:0:
448,192,6405,128,0,6476:0:0:0:0:
320,192,6405,1,0,0:0:0:0:
192,192,6441,1,0,0:0:0:0:
64,192,6476,1,0,0:0:0:0:
320,192,6512,1,0,0:0:0:0:
448,192,6548,128,0,6619:0:0:0:0:
192,192,6548,1,0,0:0:0:0:
64,192,6583,1,0,0:0:0:0:
448,192,6691,1,0,0:0:0:0:
320,192,6726,1,0,0:0:0:0:
192,192,6762,1,0,0:0:0:0:
64,192,6798,1,0,0:0:0:0:
448,192,6833,1,0,0:0:0:0:
320,192,6869,1,0,0:0:0:0:
192,192,6905,1,0,0:0:0:0:
64,192,6976,128,0,7119:0:0:0:0:
448,192,6976,1,0,0:0:0:0:
320,192,7048,1,0,0:0:0:0:
192,192,7119,1,0,0:0:0:0:
448,192,7191,1,0,0:0:0:0:
320,192,7262,128,0,7405:0:0:0:0:
64,192,7262,1,0,0:0:0:0:
192,192,7333,1,0,0:0:0:0:
448,192,7405,1,0,0:0:0:0:
64,192,7476,1,0,0:0:0:0:
448,192,7548,128,0,7691:0:0:0:0:
192,192,7548,1,0,0:0:0:0:
320,192,7619,1,0,0:0:0:0:
64,192,7691,1,0,0:0:0:0:
192,192,7762,1,0,0:0:0:0:
64,192,7833,1,0,0:0:0:0:
192,192,7905,1,0,0:0:0:0:
448,192,7976,1,0,0:0:0:0:
320,192,7976,1,0,0:0:0:0:
64,192,8048,1,0,0:0:0:0:
192,192,8119,1,0,0:0:0:0:
320,192,8119,128,0,8262:0:0:0:0:
448,192,8191,1,0,0:0:0:0:
64,192,8262,1,0,0:0:0:0:
192,192,8333,1,0,0:0:0:0:
448,192,8405,1,0,0:0:0:0:
320,192,8405,1,0,0:0:0:0:
64,192,8405,128,0,8548:0:0:0:0:
192,192,8476,1,0,0:0:0:0:
448,192,8548,1,0,0:0:0:0:
320,192,8619,1,0,0:0:0:0:
64,192,8691,1,0,0:0:0:0:
448,192,8691,128,0,8833:0:0:0:0:
320,192,8762,1,0,0:0:0:0:
64,192,8833,1,0,0:0:0:0:
192,192,8833,1,0,0:0:0:0:
320,192,8905,1,0,0:0:0:0:
192,192,8976,1,0,0:0:0:0:
64,192,9048,1,0,0:0:0:0:
320,192,9119,1,0,0:0:0:0:
448,192,9119,1,0,0:0:0:0:
192,192,9191,1,0,0:0:0:0:
64,192,9262,1,0,0:0:0:0:
448,192,9262,128,0,9405:0:0:0:0:
320,192,9262,1,0,0:0:0:0:
192,192,9333,1,0,0:0:0:0:
320,192,9405,1,0,0:0:0:0:
64,192,9476,1,0,0:0:0:0:
192,192,9548,128,0,9691:0:0:0:0:
448,192,9548,1,0,0:0:0:0:
320,192,9548,1,0,0:0:0:0:
64,192,9619,1,0,0:0:0:0:
448,192,9691,1,0,0:0:0:0:
64,192,9762,1,0,0:0:0:0:
320,192,9833,128,0,9976:0:0:0:0:
192,192,9833,1,0,0:0:0:0:
448,192,9905,1,0,0:0:0:0:
64,192,9976,1,0,0:0:0:0:
192,192,9976,1,0,0:0:0:0:
320,192,10048,1,0,0:0:0:0:
448,192,10119,128,0,10405:0:0:0:0:
192,192,10119,1,0,0:0:0:0:
64,192,10191,1,0,0:0:0:0:
320,192,10262,1,0,0:0:0:0:
192,192,10262,1,0,0:0:0:0:
64,192,10333,1,0,0:0:0:0:
192,192,10405,1,0,0:0:0:0:
320,192,10476,1,0,0:0:0:0:
64,192,10548,1,0,0:0:0:0:
448,192,10548,1,0,0:0:0:0:
192,192,10619,1,0,0:0:0:0:
320,192,10691,1,0,0:0:0:0:
64,192,10762,1,0,0:0:0:0:
448,192,10833,1,0,0:0:0:0:
192,192,10833,1,0,0:0:0:0:
320,192,10905,1,0,0:0:0:0:
192,192,10976,1,0,0:0:0:0:
64,192,10976,1,0,0:0:0:0:
320,192,11048,1,0,0:0:0:0:
448,192,11048,1,0,0:0:0:0:
192,192,11083,1,0,0:0:0:0:
64,192,11119,1,0,0:0:0:0:
448,192,11155,1,0,0:0:0:0:
320,192,11191,1,0,0:0:0:0:
192,192,11226,1,0,0:0:0:0:
64,192,11262,1,0,0:0:0:0:
448,192,11333,1,0,0:0:0:0:
320,192,11405,1,0,0:0:0:0:
192,192,11405,1,0,0:0:0:0:
64,192,11476,1,0,0:0:0:0:
448,192,11548,1,0,0:0:0:0:
320,192,11548,1,0,0:0:0:0:
64,192,11619,1,0,0:0:0:0:
448,192,11691,128,0,11833:0:0:0:0:
320,192,11691,1,0,0:0:0:0:
192,192,11691,1,0,0:0:0:0:
64,192,11762,1,0,0:0:0:0:
320,192,11833,1,0,0:0:0:0:
192,192,11905,1,0,0:0:0:0:
64,192,11976,1,0,0:0:0:0:
448,192,11976,1,0,0:0:0:0:
320,192,12048,1,0,0:0:0:0:
64,192,12119,1,0,0:0:0:0:
448,192,12119,1,0,0:0:0:0:
192,192,12191,1,0,0:0:0:0:
448,192,12262,128,0,12405:0:0:0:0:
64,192,12262,1,0,0:0:0:0:
320,192,12262,1,0,0:0:0:0:
192,192,12333,1,0,0:0:0:0:
64,192,12405,1,0,0:0:0:0:
320,192,12476,1,0,0:0:0:0:
192,192,12548,1,0,0:0:0:0:
448,192,12548,1,0,0:0:0:0:
64,192,12619,1,0,0:0:0:0:
448,192,12691,1,0,0:0:0:0:
192,192,12691,1,0,0:0:0:0:
64,192,12762,1,0,0:0:0:0:
192,192,12833,128,0,12976:0:0:0:0:
320,192,12833,1,0,0:0:0:0:
448,192,12833,1,0,0:0:0:0:
64,192,12905,1,0,0:0:0:0:
448,192,12976,1,0,0:0:0:0:
320,192,13048,1,0,0:0:0:0:
64,192,13119,1,0,0:0:0:0:
192,192,13119,1,0,0:0:0:0:
320,192,13191,1,0,0:0:0:0:
448,192,13262,1,0,0:0:0:0:
64,192,13262,1,0,0:0:0:0:
192,192,13333,1,0,0:0:0:0:
320,192,13405,128,0,13548:0:0:0:0:
448,192,13405,1,0,0:0:0:0:
64,192,13405,1,0,0:0:0:0:
192,192,13476,1,0,0:0:0:0:
448,192,13548,1,0,0:0:0:0:
192,192,13619,1,0,0:0:0:0:
64,192,13691,1,0,0:0:0:0:
448,192,13691,1,0,0:0:0:0:
320,192,13762,1,0,0:0:0:0:
192,192,13833,1,0,0:0:0:0:
64,192,13833,1,0,0:0:0:0:
320,192,13905,1,0,0:0:0:0:
448,192,13976,128,0,14119:0:0:0:0:
64,192,13976,1,0,0:0:0:0:
192,192,14048,1,0,0:0:0:0:
320,192,14119,1,0,0:0:0:0:
64,192,14119,1,0,0:0:0:0:
192,192,14191,1,0,0:0:0:0:
448,192,14262,1,0,0:0:0:0:
320,192,14262,1,0,0:0:0:0:
64,192,14333,1,0,0:0:0:0:
192,192,14405,1,0,0:0:0:0:
448,192,14405,1,0,0:0:0:0:
320,192,14476,1,0,0:0:0:0:
192,192,14548,1,0,0:0:0:0:
64,192,14548,1,0,0:0:0:0:
448,192,14619,1,0,0:0:0:0:
320,192,14691,1,0,0:0:0:0:
64,192,14691,1,0,0:0:0:0:
192,192,14762,1,0,0:0:0:0:
320,192,14833,1,0,0:0:0:0:
448,192,14833,1,0,0:0:0:0:
64,192,14833,1,0,0:0:0:0:
192,192,14905,1,0,0:0:0:0:
64,192,14976,1,0,0:0:0:0:
320,192,14976,1,0,0:0:0:0:
448,192,14976,1,0,0:0:0:0:
192,192,15119,128,0,15262:0:0:0:0:
64,192,15262,1,0,0:0:0:0:
320,192,15262,1,0,0:0:0:0:
448,192,15262,1,0,0:0:0:0:
192,192,15405,1,0,0:0:0:0:
320,192,15476,1,0,0:0:0:0:
192,192,15548,1,0,0:0:0:0:
64,192,15548,1,0,0:0:0:0:
448,192,15548,1,0,0:0:0:0:
320,192,15619,1,0,0:0:0:0:
192,192,15691,1,0,0:0:0:0:
64,192,15691,1,0,0:0:0:0:
448,192,15691,1,0,0:0:0:0:
320,192,15762,1,0,0:0:0:0:
64,192,15833,1,0,0:0:0:0:
192,192,15905,1,0,0:0:0:0:
448,192,15976,1,0,0:0:0:0:
320,192,16024,1,0,0:0:0:0:
192,192,16071,1,0,0:0:0:0:
64,192,16119,1,0,0:0:0:0:
320,192,16167,1,0,0:0:0:0:
192,192,16214,1,0,0:0:0:0:
448,192,16262,1,0,0:0:0:0:
320,192,16310,1,0,0:0:0:0:
64,192,16357,1,0,0:0:0:0:
192,192,16405,1,0,0:0:0:0:
448,192,16452,1,0,0:0:0:0:
320,192,16500,1,0,0:0:0:0:
192,192,16548,1,0,0:0:0:0:
448,192,16595,1,0,0:0:0:0:
320,192,16643,1,0,0:0:0:0:
64,192,16691,1,0,0:0:0:0:
192,192,16738,1,0,0:0:0:0:
320,192,16786,1,0,0:0:0:0:
448,192,16833,1,0,0:0:0:0:
192,192,16881,1,0,0:0:0:0:
64,192,16929,1,0,0:0:0:0:
320,192,16976,1,0,0:0:0:0:
192,192,17024,1,0,0:0:0:0:
448,192,17071,1,0,0:0:0:0:
320,192,17119,1,0,0:0:0:0:
64,192,17167,1,0,0:0:0:0:
192,192,17214,1,0,0:0:0:0:
448,192,17262,1,0,0:0:0:0:
320,192,17310,1,0,0:0:0:0:
192,192,17357,1,0,0:0:0:0:
448,192,17405,1,0,0:0:0:0:
320,192,17452,1,0,0:0:0:0:
64,192,17500,1,0,0:0:0:0:
192,192,17548,1,0,0:0:0:0:
320,192,17595,1,0,0:0:0:0:
448,192,17643,1,0,0:0:0:0:
192,192,17691,1,0,0:0:0:0:
320,192,17738,1,0,0:0:0:0:
64,192,17786,1,0,0:0:0:0:
192,192,17833,1,0,0:0:0:0:
448,192,17881,1,0,0:0:0:0:
64,192,17929,1,0,0:0:0:0:
320,192,17976,1,0,0:0:0:0:
192,192,18024,1,0,0:0:0:0:
448,192,18071,1,0,0:0:0:0:
192,192,18119,1,0,0:0:0:0:
64,192,18167,1,0,0:0:0:0:
320,192,18214,1,0,0:0:0:0:
448,192,18262,1,0,0:0:0:0:
64,192,18333,1,0,0:0:0:0:
192,192,18333,1,0,0:0:0:0:
320,192,18405,1,0,0:0:0:0:
448,192,18405,1,0,0:0:0:0:
192,192,18476,1,0,0:0:0:0:
64,192,18476,1,0,0:0:0:0:
320,192,18548,1,0,0:0:0:0:
448,192,18548,1,0,0:0:0:0:
64,192,18619,1,0,0:0:0:0:
192,192,18619,1,0,0:0:0:0:
320,192,18691,1,0,0:0:0:0:
448,192,18691,1,0,0:0:0:0:
192,192,18762,1,0,0:0:0:0:
64,192,18762,1,0,0:0:0:0:
448,192,18833,1,0,0:0:0:0:
320,192,18869,1,0,0:0:0:0:
192,192,18905,1,0,0:0:0:0:
64,192,18941,1,0,0:0:0:0:
448,192,18976,128,0,19119:0:0:0:0:
320,192,19119,1,0,0:0:0:0:
192,192,19155,1,0,0:0:0:0:
64,192,19191,1,0,0:0:0:0:
320,192,19226,1,0,0:0:0:0:
192,192,19262,1,0,0:0:0:0:
448,192,19262,128,0,19405:0:0:0:0:
64,192,19405,1,0,0:0:0:0:
320,192,19405,1,0,0:0:0:0:
192,192,19476,1,0,0:0:0:0:
320,192,19548,1,0,0:0:0:0:
64,192,19619,1,0,0:0:0:0:
192,192,19691,1,0,0:0:0:0:
448,192,19762,1,0,0:0:0:0:
320,192,19833,1,0,0:0:0:0:
192,192,19905,1,0,0:0:0:0:
320,192,19976,1,0,0:0:0:0:
448,192,20048,1,0,0:0:0:0:
64,192,20119,1,0,0:0:0:0:
192,192,20191,1,0,0:0:0:0:
320,192,20262,1,0,0:0:0:0:
448,192,20262,1,0,0:0:0:0:
64,192,20262,1,0,0:0:0:0:
448,192,20548,1,0,0:0:0:0:
192,192,20548,1,0,0:0:0:0:
64,192,20548,1,0,0:0:0:0:
320,192,20691,1,0,0:0:0:0:
192,192,20691,1,0,0:0:0:0:
64,192,20691,1,0,0:0:0:0:
320,192,20833,1,0,0:0:0:0:
448,192,20833,1,0,0:0:0:0:
64,192,20833,128,0,20976:0:0:0:0:
448,192,21119,1,0,0:0:0:0:
192,192,21119,1,0,0:0:0:0:
64,192,21119,1,0,0:0:0:0:
320,192,21191,1,0,0:0:0:0:
192,192,21262,1,0,0:0:0:0:
64,192,21262,1,0,0:0:0:0:
448,192,21262,1,0,0:0:0:0:
192,192,21405,128,0,21548:0:0:0:0:
320,192,21691,1,0,0:0:0:0:
448,192,21691,1,0,0:0:0:0:
64,192,21691,1,0,0:0:0:0:
448,192,21833,1,0,0:0:0:0:
64,192,21833,1,0,0:0:0:0:
192,192,21833,1,0,0:0:0:0:
64,192,21976,1,0,0:0:0:0:
192,192,21976,1,0,0:0:0:0:
320,192,21976,1,0,0:0:0:0:
64,192,22119,1,0,0:0:0:0:
192,192,22119,1,0,0:0:0:0:
448,192,22119,1,0,0:0:0:0:
448,192,22262,128,0,22548:0:0:0:0:
192,192,22262,1,0,0:0:0:0:
64,192,22262,1,0,0:0:0:0:
320,192,22548,1,0,0:0:0:0:
192,192,22548,1,0,0:0:0:0:
64,192,22833,1,0,0:0:0:0:
448,192,22833,1,0,0:0:0:0:
320,192,22833,1,0,0:0:0:0:
192,192,22881,1,0,0:0:0:0:
320,192,22929,1,0,0:0:0:0:
448,192,22976,1,0,0:0:0:0:
192,192,23024,1,0,0:0:0:0:
64,192,23071,1,0,0:0:0:0:
320,192,23119,1,0,0:0:0:0:
448,192,23119,1,0,0:0:0:0:
192,192,23167,1,0,0:0:0:0:
64,192,23214,1,0,0:0:0:0:
448,192,23262,1,0,0:0:0:0:
320,192,23310,1,0,0:0:0:0:
192,192,23357,1,0,0:0:0:0:
64,192,23405,1,0,0:0:0:0:
448,192,23405,1,0,0:0:0:0:
320,192,23452,1,0,0:0:0:0:
448,192,23500,1,0,0:0:0:0:
192,192,23548,1,0,0:0:0:0:
320,192,23595,1,0,0:0:0:0:
448,192,23643,1,0,0:0:0:0:
192,192,23691,1,0,0:0:0:0:
64,192,23691,1,0,0:0:0:0:
320,192,23738,1,0,0:0:0:0:
192,192,23786,1,0,0:0:0:0:
448,192,23833,1,0,0:0:0:0:
320,192,23881,1,0,0:0:0:0:
64,192,23929,1,0,0:0:0:0:
192,192,23976,1,0,0:0:0:0:
448,192,23976,1,0,0:0:0:0:
320,192,24024,1,0,0:0:0:0:
64,192,24071,1,0,0:0:0:0:
192,192,24119,1,0,0:0:0:0:
320,192,24167,1,0,0:0:0:0:
448,192,24214,1,0,0:0:0:0:
192,192,24262,1,0,0:0:0:0:
64,192,24262,1,0,0:0:0:0:
320,192,24310,1,0,0:0:0:0:
192,192,24357,1,0,0:0:0:0:
64,192,24405,1,0,0:0:0:0:
448,192,24452,1,0,0:0:0:0:
320,192,24500,1,0,0:0:0:0:
192,192,24548,1,0,0:0:0:0:
64,192,24548,1,0,0:0:0:0:
448,192,24595,1,0,0:0:0:0:
320,192,24643,1,0,0:0:0:0:
192,192,24691,1,0,0:0:0:0:
64,192,24738,1,0,0:0:0:0:
448,192,24786,1,0,0:0:0:0:
320,192,24833,1,0,0:0:0:0:
192,192,24833,1,0,0:0:0:0:
64,192,24881,1,0,0:0:0:0:
320,192,24929,1,0,0:0:0:0:
448,192,24976,1,0,0:0:0:0:
192,192,25024,1,0,0:0:0:0:
320,192,25071,1,0,0:0:0:0:
64,192,25119,1,0,0:0:0:0:
192,192,25119,1,0,0:0:0:0:
448,192,25167,1,0,0:0:0:0:
320,192,25214,1,0,0:0:0:0:
64,192,25262,1,0,0:0:0:0:
448,192,25310,1,0,0:0:0:0:
192,192,25357,1,0,0:0:0:0:
320,192,25405,1,0,0:0:0:0:
448,192,25405,1,0,0:0:0:0:
192,192,25452,1,0,0:0:0:0:
64,192,25500,1,0,0:0:0:0:
320,192,25548,1,0,0:0:0:0:
192,192,25595,1,0,0:0:0:0:
64,192,25643,1,0,0:0:0:0:
320,192,25691,1,0,0:0:0:0:
448,192,25691,1,0,0:0:0:0:
192,192,25738,1,0,0:0:0:0:
320,192,25786,1,0,0:0:0:0:
448,192,25833,1,0,0:0:0:0:
192,192,25881,1,0,0:0:0:0:
320,192,25929,1,0,0:0:0:0:
64,192,25976,1,0,0:0:0:0:
192,192,25976,1,0,0:0:0:0:
448,192,26024,1,0,0:0:0:0:
320,192,26071,1,0,0:0:0:0:
192,192,26119,1,0,0:0:0:0:
448,192,26167,1,0,0:0:0:0:
64,192,26214,1,0,0:0:0:0:
192,192,26262,1,0,0:0:0:0:
320,192,26262,1,0,0:0:0:0:
448,192,26310,1,0,0:0:0:0:
64,192,26357,1,0,0:0:0:0:
192,192,26405,1,0,0:0:0:0:
320,192,26452,1,0,0:0:0:0:
64,192,26500,1,0,0:0:0:0:
448,192,26548,1,0,0:0:0:0:
192,192,26548,1,0,0:0:0:0:
320,192,26595,1,0,0:0:0:0:
192,192,26643,1,0,0:0:0:0:
64,192,26691,1,0,0:0:0:0:
448,192,26738,1,0,0:0:0:0:
320,192,26786,1,0,0:0:0:0:
448,192,26833,1,0,0:0:0:0:
64,192,26833,1,0,0:0:0:0:
192,192,26833,1,0,0:0:0:0:
320,192,26905,1,0,0:0:0:0:
192,192,26905,1,0,0:0:0:0:
448,192,26976,1,0,0:0:0:0:
192,192,26976,1,0,0:0:0:0:
64,192,27048,1,0,0:0:0:0:
192,192,27048,1,0,0:0:0:0:
320,192,27119,1,0,0:0:0:0:
448,192,27119,1,0,0:0:0:0:
320,192,27191,1,0,0:0:0:0:
64,192,27191,1,0,0:0:0:0:
192,192,27262,1,0,0:0:0:0:
448,192,27262,1,0,0:0:0:0:
320,192,27333,1,0,0:0:0:0:
192,192,27333,1,0,0:0:0:0:
64,192,27405,1,0,0:0:0:0:
320,192,27405,1,0,0:0:0:0:
448,192,27452,1,0,0:0:0:0:
192,192,27500,1,0,0:0:0:0:
320,192,27548,1,0,0:0:0:0:
448,192,27595,1,0,0:0:0:0:
64,192,27643,1,0,0:0:0:0:
192,192,27691,1,0,0:0:0:0:
320,192,27691,1,0,0:0:0:0:
448,192,27738,1,0,0:0:0:0:
64,192,27786,1,0,0:0:0:0:
192,192,27833,1,0,0:0:0:0:
320,192,27881,1,0,0:0:0:0:
448,192,27929,1,0,0:0:0:0:
64,192,27976,1,0,0:0:0:0:
192,192,27976,1,0,0:0:0:0:
320,192,28024,1,0,0:0:0:0:
192,192,28071,1,0,0:0:0:0:
448,192,28119,1,0,0:0:0:0:
320,192,28167,1,0,0:0:0:0:
64,192,28214,1,0,0:0:0:0:
192,192,28262,1,0,0:0:0:0:
448,192,28262,1,0,0:0:0:0:
320,192,28310,1,0,0:0:0:0:
192,192,28357,1,0,0:0:0:0:
64,192,28405,1,0,0:0:0:0:
448,192,28452,1,0,0:0:0:0:
320,192,28500,1,0,0:0:0:0:
192,192,28548,1,0,0:0:0:0:
64,192,28548,1,0,0:0:0:0:
320,192,28595,1,0,0:0:0:0:
448,192,28643,1,0,0:0:0:0:
192,192,28691,1,0,0:0:0:0:
320,192,28738,1,0,0:0:0:0:
448,192,28786,1,0,0:0:0:0:
64,192,28833,1,0,0:0:0:0:
192,192,28833,1,0,0:0:0:0:
320,192,28881,1,0,0:0:0:0:
192,192,28929,1,0,0:0:0:0:
64,192,28976,1,0,0:0:0:0:
320,192,29024,1,0,0:0:0:0:
448,192,29071,1,0,0:0:0:0:
64,192,29119,1,0,0:0:0:0:
320,192,29119,1,0,0:0:0:0:
192,192,29167,1,0,0:0:0:0:
448,192,29214,1,0,0:0:0:0:
320,192,29262,1,0,0:0:0:0:
192,192,29310,1,0,0:0:0:0:
64,192,29357,1,0,0:0:0:0:
320,192,29405,1,0,0:0:0:0:
448,192,29405,1,0,0:0:0:0:
192,192,29452,1,0,0:0:0:0:
64,192,29500,1,0,0:0:0:0:
448,192,29548,1,0,0:0:0:0:
320,192,29595,1,0,0:0:0:0:
192,192,29643,1,0,0:0:0:0:
64,192,29691,1,0,0:0:0:0:
448,192,29691,1,0,0:0:0:0:
320,192,29738,1,0,0:0:0:0:
192,192,29786,1,0,0:0:0:0:
448,192,29833,1,0,0:0:0:0:
320,192,29881,1,0,0:0:0:0:
64,192,29929,1,0,0:0:0:0:
192,192,29976,1,0,0:0:0:0:
448,192,29976,1,0,0:0:0:0:
320,192,30024,1,0,0:0:0:0:
448,192,30071,1,0,0:0:0:0:
192,192,30119,1,0,0:0:0:0:
64,192,30167,1,0,0:0:0:0:
320,192,30214,1,0,0:0:0:0:
192,192,30262,1,0,0:0:0:0:
448,192,30262,1,0,0:0:0:0:
64,192,30310,1,0,0:0:0:0:
320,192,30357,1,0,0:0:0:0:
448,192,30405,1,0,0:0:0:0:
192,192,30452,1,0,0:0:0:0:
320,192,30500,1,0,0:0:0:0:
64,192,30548,1,0,0:0:0:0:
192,192,30548,1,0,0:0:0:0:
448,192,30595,1,0,0:0:0:0:
320,192,30643,1,0,0:0:0:0:
192,192,30691,1,0,0:0:0:0:
64,192,30738,1,0,0:0:0:0:
192,192,30833,1,0,0:0:0:0:
448,192,30833,1,0,0:0:0:0:
320,192,30833,1,0,0:0:0:0:
448,192,30976,1,0,0:0:0:0:
320,192,30976,1,0,0:0:0:0:
64,192,30976,1,0,0:0:0:0:
64,192,31119,1,0,0:0:0:0:
192,192,31119,1,0,0:0:0:0:
448,192,31119,1,0,0:0:0:0:
320,192,31262,1,0,0:0:0:0:
448,192,31262,1,0,0:0:0:0:
64,192,31262,1,0,0:0:0:0:
192,192,31333,1,0,0:0:0:0:
64,192,31405,1,0,0:0:0:0:
320,192,31405,1,0,0:0:0:0:
448,192,31405,1,0,0:0:0:0:
64,192,31548,1,0,0:0:0:0:
192,192,31548,1,0,0:0:0:0:
320,192,31548,1,0,0:0:0:0:
448,192,31691,1,0,0:0:0:0:
320,192,31726,1,0,0:0:0:0:
192,192,31762,1,0,0:0:0:0:
64,192,31798,1,0,0:0:0:0:
448,192,31833,1,0,0:0:0:0:
320,192,31869,1,0,0:0:0:0:
192,192,31905,1,0,0:0:0:0:
64,192,31941,1,0,0:0:0:0:
448,192,31976,1,0,0:0:0:0:
320,192,32048,1,0,0:0:0:0:
64,192,32119,1,0,0:0:0:0:
192,192,32119,1,0,0:0:0:0:
448,192,32119,1,0,0:0:0:0:
320,192,32191,1,0,0:0:0:0:
192,192,32262,1,0,0:0:0:0:
448,192,32262,1,0,0:0:0:0:
64,192,32333,1,0,0:0:0:0:
192,192,32405,1,0,0:0:0:0:
320,192,32405,1,0,0:0:0:0:
448,192,32405,1,0,0:0:0:0:
64,192,32476,1,0,0:0:0:0:
320,192,32548,1,0,0:0:0:0:
448,192,32548,1,0,0:0:0:0:
192,192,32619,1,0,0:0:0:0:
64,192,32691,1,0,0:0:0:0:
320,192,32691,1,0,0:0:0:0:
448,192,32691,1,0,0:0:0:0:
192,192,32762,1,0,0:0:0:0:
320,192,32833,1,0,0:0:0:0:
64,192,32833,1,0,0:0:0:0:
448,192,32905,1,0,0:0:0:0:
64,192,32976,1,0,0:0:0:0:
192,192,32976,1,0,0:0:0:0:
320,192,32976,1,0,0:0:0:0:
448,192,33048,1,0,0:0:0:0:
192,192,33119,1,0,0:0:0:0:
320,192,33119,1,0,0:0:0:0:
64,192,33191,1,0,0:0:0:0:
192,192,33262,1,0,0:0:0:0:
320,192,33262,1,0,0:0:0:0:
448,192,33262,1,0,0:0:0:0:
64,192,33333,1,0,0:0:0:0:
320,192,33405,1,0,0:0:0:0:
448,192,33405,1,0,0:0:0:0:
192,192,33476,1,0,0:0:0:0:
64,192,33548,1,0,0:0:0:0:
320,192,33548,1,0,0:0:0:0:
448,192,33548,1,0,0:0:0:0:
192,192,33619,1,0,0:0:0:0:
64,192,33691,1,0,0:0:0:0:
448,192,33691,1,0,0:0:0:0:
320,192,33762,1,0,0:0:0:0:
64,192,33833,1,0,0:0:0:0:
192,192,33833,1,0,0:0:0:0:
448,192,33833,1,0,0:0:0:0:
320,192,33905,1,0,0:0:0:0:
448,192,33976,1,0,0:0:0:0:
64,192,33976,1,0,0:0:0:0:
192,192,34048,1,0,0:0:0:0:
64,192,34119,1,0,0:0:0:0:
320,192,34119,1,0,0:0:0:0:
448,192,34119,1,0,0:0:0:0:
192,192,34191,1,0,0:0:0:0:
320,192,34262,1,0,0:0:0:0:
448,192,34262,1,0,0:0:0:0:
192,192,34333,1,0,0:0:0:0:
64,192,34405,1,0,0:0:0:0:
320,192,34405,1,0,0:0:0:0:
448,192,34405,1,0,0:0:0:0:
192,192,34476,1,0,0:0:0:0:
64,192,34548,1,0,0:0:0:0:
448,192,34548,1,0,0:0:0:0:
320,192,34619,1,0,0:0:0:0:
192,192,34691,1,0,0:0:0:0:
64,192,34691,1,0,0:0:0:0:
448,192,34691,1,0,0:0:0:0:
320,192,34762,1,0,0:0:0:0:
448,192,34833,1,0,0:0:0:0:
64,192,34833,1,0,0:0:0:0:
192,192,34905,1,0,0:0:0:0:
64,192,34976,1,0,0:0:0:0:
320,192,34976,1,0,0:0:0:0:
448,192,34976,1,0,0:0:0:0:
192,192,35048,1,0,0:0:0:0:
64,192,35119,1,0,0:0:0:0:
448,192,35119,1,0,0:0:0:0:
320,192,35191,1,0,0:0:0:0:
64,192,35262,1,0,0:0:0:0:
192,192,35262,1,0,0:0:0:0:
448,192,35262,1,0,0:0:0:0:
320,192,35333,1,0,0:0:0:0:
64,192,35405,1,0,0:0:0:0:
192,192,35405,1,0,0:0:0:0:
448,192,35476,1,0,0:0:0:0:
320,192,35476,1,0,0:0:0:0:
192,192,35548,1,0,0:0:0:0:
64,192,35548,1,0,0:0:0:0:
320,192,35619,1,0,0:0:0:0:
448,192,35619,1,0,0:0:0:0:
192,192,35691,1,0,0:0:0:0:
64,192,35691,1,0,0:0:0:0:
320,192,35762,1,0,0:0:0:0:
448,192,35762,1,0,0:0:0:0:
192,192,35833,1,0,0:0:0:0:
64,192,35833,1,0,0:0:0:0:
320,192,35905,1,0,0:0:0:0:
448,192,35905,1,0,0:0:0:0:
192,192,35976,1,0,0:0:0:0:
64,192,35976,1,0,0:0:0:0:
320,192,36048,1,0,0:0:0:0:
448,192,36048,1,0,0:0:0:0:
64,192,36119,1,0,0:0:0:0:
192,192,36119,1,0,0:0:0:0:
448,192,36191,1,0,0:0:0:0:
320,192,36191,1,0,0:0:0:0:
64,192,36262,1,0,0:0:0:0:
192,192,36298,1,0,0:0:0:0:
320,192,36333,1,0,0:0:0:0:
448,192,36369,1,0,0:0:0:0:
64,192,36405,1,0,0:0:0:0:
192,192,36441,1,0,0:0:0:0:
320,192,36476,1,0,0:0:0:0:
448,192,36512,1,0,0:0:0:0:
64,192,36548,1,0,0:0:0:0:
192,192,36548,1,0,0:0:0:0:
448,192,36691,1,0,0:0:0:0:
192,192,36691,1,0,0:0:0:0:
64,192,36691,1,0,0:0:0:0:
320,192,36762,1,0,0:0:0:0:
192,192,36833,1,0,0:0:0:0:
448,192,36905,1,0,0:0:0:0:
320,192,36976,1,0,0:0:0:0:
192,192,36976,1,0,0:0:0:0:
64,192,36976,1,0,0:0:0:0:
64,192,37119,1,0,0:0:0:0:
320,192,37119,1,0,0:0:0:0:
448,192,37119,1,0,0:0:0:0:
192,192,37191,1,0,0:0:0:0:
448,192,37262,1,0,0:0:0:0:
320,192,37333,1,0,0:0:0:0:
64,192,37405,1,0,0:0:0:0:
192,192,37405,1,0,0:0:0:0:
448,192,37405,1,0,0:0:0:0:
320,192,37476,1,0,0:0:0:0:
64,192,37548,1,0,0:0:0:0:
192,192,37619,1,0,0:0:0:0:
64,192,37691,1,0,0:0:0:0:
320,192,37691,1,0,0:0:0:0:
448,192,37691,1,0,0:0:0:0:
192,192,37762,1,0,0:0:0:0:
320,192,37833,1,0,0:0:0:0:
448,192,37905,1,0,0:0:0:0:
64,192,37976,1,0,0:0:0:0:
320,192,37976,1,0,0:0:0:0:
192,192,38048,1,0,0:0:0:0:
448,192,38119,1,0,0:0:0:0:
320,192,38119,1,0,0:0:0:0:
64,192,38119,1,0,0:0:0:0:
192,192,38191,1,0,0:0:0:0:
448,192,38262,1,0,0:0:0:0:
320,192,38333,1,0,0:0:0:0:
192,192,38405,1,0,0:0:0:0:
448,192,38476,1,0,0:0:0:0:
64,192,38548,1,0,0:0:0:0:
320,192,38548,1,0,0:0:0:0:
192,192,38548,1,0,0:0:0:0:
64,192,38691,1,0,0:0:0:0:
320,192,38691,1,0,0:0:0:0:
448,192,38691,1,0,0:0:0:0:
64,192,38833,1,0,0:0:0:0:
192,192,38833,1,0,0:0:0:0:
448,192,38833,1,0,0:0:0:0:
192,192,38976,1,0,0:0:0:0:
320,192,38976,1,0,0:0:0:0:
448,192,38976,1,0,0:0:0:0:
64,192,39048,1,0,0:0:0:0:
320,192,39119,1,0,0:0:0:0:
448,192,39191,1,0,0:0:0:0:
320,192,39262,1,0,0:0:0:0:
448,192,39333,1,0,0:0:0:0:
320,192,39405,1,0,0:0:0:0:
192,192,39405,1,0,0:0:0:0:
64,192,39405,1,0,0:0:0:0:
448,192,39548,1,0,0:0:0:0:
64,192,39548,1,0,0:0:0:0:
320,192,39548,1,0,0:0:0:0:
192,192,39619,1,0,0:0:0:0:
320,192,39691,128,0,39976:0:0:0:0:
192,192,39976,1,0,0:0:0:0:
64,192,39976,1,0,0:0:0:0:
448,192,39976,1,0,0:0:0:0:
192,192,40119,1,0,0:0:0:0:
64,192,40191,1,0,0:0:0:0:
192,192,40262,1,0,0:0:0:0:
64,192,40333,1,0,0:0:0:0:
320,192,40405,1,0,0:0:0:0:
192,192,40476,1,0,0:0:0:0:
448,192,40548,128,0,40691:0:0:0:0:
320,192,40691,128,0,40833:0:0:0:0:
192,192,40833,128,0,40976:0:0:0:0:
64,192,40976,128,0,41119:0:0:0:0:
448,192,41119,1,0,0:0:0:0:
320,192,41191,1,0,0:0:0:0:
192,192,41262,1,0,0:0:0:0:
64,192,41262,1,0,0:0:0:0:
320,192,41333,1,0,0:0:0:0:
192,192,41405,1,0,0:0:0:0:
448,192,41405,1,0,0:0:0:0:
64,192,41476,1,0,0:0:0:0:
320,192,41548,1,0,0:0:0:0:
448,192,41548,1,0,0:0:0:0:
192,192,41619,1,0,0:0:0:0:
64,192,41691,1,0,0:0:0:0:
448,192,41691,1,0,0:0:0:0:
320,192,41762,1,0,0:0:0:0:
192,192,41833,1,0,0:0:0:0:
64,192,41833,1,0,0:0:0:0:
448,192,41905,1,0,0:0:0:0:
320,192,41976,1,0,0:0:0:0:
192,192,41976,1,0,0:0:0:0:
64,192,42048,1,0,0:0:0:0:
448,192,42119,1,0,0:0:0:0:
320,192,42119,1,0,0:0:0:0:
192,192,42191,1,0,0:0:0:0:
64,192,42262,1,0,0:0:0:0:
448,192,42262,1,0,0:0:0:0:
320,192,42333,1,0,0:0:0:0:
192,192,42405,1,0,0:0:0:0:
64,192,42405,1,0,0:0:0:0:
320,192,42476,1,0,0:0:0:0:
448,192,42548,1,0,0:0:0:0:
192,192,42548,1,0,0:0:0:0:
64,192,42619,1,0,0:0:0:0:
320,192,42691,1,0,0:0:0:0:
448,192,42691,1,0,0:0:0:0:
192,192,42762,1,0,0:0:0:0:
320,192,42833,1,0,0:0:0:0:
64,192,42833,1,0,0:0:0:0:
448,192,42905,1,0,0:0:0:0:
64,192,42976,1,0,0:0:0:0:
192,192,42976,1,0,0:0:0:0:
320,192,43048,1,0,0:0:0:0:
448,192,43119,1,0,0:0:0:0:
192,192,43119,1,0,0:0:0:0:
64,192,43191,1,0,0:0:0:0:
448,192,43262,1,0,0:0:0:0:
192,192,43262,1,0,0:0:0:0:
320,192,43333,1,0,0:0:0:0:
64,192,43405,1,0,0:0:0:0:
192,192,43405,1,0,0:0:0:0:
448,192,43476,1,0,0:0:0:0:
320,192,43548,1,0,0:0:0:0:
64,192,43548,1,0,0:0:0:0:
192,192,43619,1,0,0:0:0:0:
320,192,43691,1,0,0:0:0:0:
448,192,43691,1,0,0:0:0:0:
192,192,43762,1,0,0:0:0:0:
64,192,43833,1,0,0:0:0:0:
448,192,43833,1,0,0:0:0:0:
320,192,43905,1,0,0:0:0:0:
192,192,43976,1,0,0:0:0:0:
64,192,43976,1,0,0:0:0:0:
320,192,44048,1,0,0:0:0:0:
448,192,44119,1,0,0:0:0:0:
64,192,44119,1,0,0:0:0:0:
192,192,44191,1,0,0:0:0:0:
320,192,44262,1,0,0:0:0:0:
64,192,44262,1,0,0:0:0:0:
448,192,44333,1,0,0:0:0:0:
192,192,44405,1,0,0:0:0:0:
320,192,44405,1,0,0:0:0:0:
64,192,44476,1,0,0:0:0:0:
448,192,44548,1,0,0:0:0:0:
192,192,44548,1,0,0:0:0:0:
320,192,44619,1,0,0:0:0:0:
64,192,44691,1,0,0:0:0:0:
192,192,44691,1,0,0:0:0:0:
448,192,44762,1,0,0:0:0:0:
320,192,44833,1,0,0:0:0:0:
192,192,44833,1,0,0:0:0:0:
64,192,44905,1,0,0:0:0:0:
448,192,44976,1,0,0:0:0:0:
320,192,44976,1,0,0:0:0:0:
192,192,45048,1,0,0:0:0:0:
64,192,45119,1,0,0:0:0:0:
320,192,45191,1,0,0:0:0:0:
192,192,45262,1,0,0:0:0:0:
64,192,45262,1,0,0:0:0:0:
448,192,45262,1,0,0:0:0:0:
320,192,45333,1,0,0:0:0:0:
448,192,45405,1,0,0:0:0:0:
64,192,45405,1,0,0:0:0:0:
320,192,45476,1,0,0:0:0:0:
192,192,45548,1,0,0:0:0:0:
64,192,45548,1,0,0:0:0:0:
448,192,45548,1,0,0:0:0:0:
320,192,45619,1,0,0:0:0:0:
64,192,45691,1,0,0:0:0:0:
448,192,45691,1,0,0:0:0:0:
192,192,45762,1,0,0:0:0:0:
320,192,45833,1,0,0:0:0:0:
448,192,45833,1,0,0:0:0:0:
192,192,45905,1,0,0:0:0:0:
64,192,45976,1,0,0:0:0:0:
320,192,45976,1,0,0:0:0:0:
448,192,46048,1,0,0:0:0:0:
64,192,46119,1,0,0:0:0:0:
192,192,46119,1,0,0:0:0:0:
320,192,46191,1,0,0:0:0:0:
448,192,46262,1,0,0:0:0:0:
64,192,46262,1,0,0:0:0:0:
192,192,46333,1,0,0:0:0:0:
320,192,46405,1,0,0:0:0:0:
448,192,46405,1,0,0:0:0:0:
192,192,46476,1,0,0:0:0:0:
64,192,46548,1,0,0:0:0:0:
320,192,46548,1,0,0:0:0:0:
448,192,46619,1,0,0:0:0:0:
192,192,46691,1,0,0:0:0:0:
320,192,46691,1,0,0:0:0:0:
448,192,46762,1,0,0:0:0:0:
64,192,46833,1,0,0:0:0:0:
192,192,46833,1,0,0:0:0:0:
320,192,46905,1,0,0:0:0:0:
448,192,46976,1,0,0:0:0:0:
192,192,46976,1,0,0:0:0:0:
64,192,47048,1,0,0:0:0:0:
320,192,47119,1,0,0:0:0:0:
192,192,47119,1,0,0:0:0:0:
448,192,47191,1,0,0:0:0:0:
64,192,47262,1,0,0:0:0:0:
320,192,47262,1,0,0:0:0:0:
192,192,47333,1,0,0:0:0:0:
320,192,47405,1,0,0:0:0:0:
448,192,47405,1,0,0:0:0:0:
192,192,47476,1,0,0:0:0:0:
448,192,47548,1,0,0:0:0:0:
64,192,47548,1,0,0:0:0:0:
320,192,47619,1,0,0:0:0:0:
448,192,47691,1,0,0:0:0:0:
192,192,47691,1,0,0:0:0:0:
320,192,47762,1,0,0:0:0:0:
64,192,47833,1,0,0:0:0:0:
448,192,47905,1,0,0:0:0:0:
320,192,47976,1,0,0:0:0:0:
192,192,47976,1,0,0:0:0:0:
64,192,47976,1,0,0:0:0:0:
320,192,48119,1,0,0:0:0:0:
192,192,48262,1,0,0:0:0:0:
64,192,48262,1,0,0:0:0:0:
448,192,48262,1,0,0:0:0:0:
192,192,48405,1,0,0:0:0:0:
64,192,48548,1,0,0:0:0:0:
320,192,48548,1,0,0:0:0:0:
448,192,48548,1,0,0:0:0:0:
448,192,48691,1,0,0:0:0:0:
192,192,48833,1,0,0:0:0:0:
64,192,48833,1,0,0:0:0:0:
320,192,48833,1,0,0:0:0:0:
448,192,48976,1,0,0:0:0:0:
320,192,48976,1,0,0:0:0:0:
64,192,48976,1,0,0:0:0:0:
192,192,49119,1,0,0:0:0:0:
64,192,49262,1,0,0:0:0:0:
320,192,49262,1,0,0:0:0:0:
448,192,49262,1,0,0:0:0:0:
320,192,49405,1,0,0:0:0:0:
192,192,49548,1,0,0:0:0:0:
64,192,49548,1,0,0:0:0:0:
448,192,49548,1,0,0:0:0:0:
320,192,49833,1,0,0:0:0:0:
448,192,49833,1,0,0:0:0:0:
64,192,49833,1,0,0:0:0:0:
448,192,50119,1,0,0:0:0:0:
64,192,50119,1,0,0:0:0:0:
192,192,50119,1,0,0:0:0:0:
192,192,50262,1,0,0:0:0:0:
448,192,50262,1,0,0:0:0:0:
64,192,50333,1,0,0:0:0:0:
320,192,50405,1,0,0:0:0:0:
448,192,50405,1,0,0:0:0:0:
192,192,50476,1,0,0:0:0:0:
64,192,50548,1,0,0:0:0:0:
448,192,50548,1,0,0:0:0:0:
320,192,50619,1,0,0:0:0:0:
192,192,50691,1,0,0:0:0:0:
64,192,50691,1,0,0:0:0:0:
320,192,50762,1,0,0:0:0:0:
192,192,50833,1,0,0:0:0:0:
448,192,50833,1,0,0:0:0:0:
64,192,50905,1,0,0:0:0:0:
320,192,50976,1,0,0:0:0:0:
192,192,50976,1,0,0:0:0:0:
448,192,51048,1,0,0:0:0:0:
64,192,51119,1,0,0:0:0:0:
320,192,51119,1,0,0:0:0:0:
192,192,51191,1,0,0:0:0:0:
448,192,51262,1,0,0:0:0:0:
320,192,51262,1,0,0:0:0:0:
64,192,51333,1,0,0:0:0:0:
192,192,51405,1,0,0:0:0:0:
448,192,51405,1,0,0:0:0:0:
320,192,51476,1,0,0:0:0:0:
448,192,51548,1,0,0:0:0:0:
64,192,51548,1,0,0:0:0:0:
192,192,51619,1,0,0:0:0:0:
320,192,51691,1,0,0:0:0:0:
448,192,51691,1,0,0:0:0:0:
192,192,51762,1,0,0:0:0:0:
64,192,51833,1,0,0:0:0:0:
448,192,51833,1,0,0:0:0:0:
320,192,51905,1,0,0:0:0:0:
192,192,51976,1,0,0:0:0:0:
448,192,51976,1,0,0:0:0:0:
64,192,52048,1,0,0:0:0:0:
320,192,52119,1,0,0:0:0:0:
448,192,52119,1,0,0:0:0:0:
192,192,52191,1,0,0:0:0:0:
320,192,52262,1,0,0:0:0:0:
64,192,52262,1,0,0:0:0:0:
192,192,52333,1,0,0:0:0:0:
320,192,52405,1,0,0:0:0:0:
448,192,52405,1,0,0:0:0:0:
64,192,52476,1,0,0:0:0:0:
192,192,52548,1,0,0:0:0:0:
448,192,52548,1,0,0:0:0:0:
320,192,52619,1,0,0:0:0:0:
64,192,52691,1,0,0:0:0:0:
192,192,52691,1,0,0:0:0:0:
448,192,52762,1,0,0:0:0:0:
320,192,52833,1,0,0:0:0:0:
64,192,52833,1,0,0:0:0:0:
192,192,52905,1,0,0:0:0:0:
320,192,52976,1,0,0:0:0:0:
448,192,52976,1,0,0:0:0:0:
192,192,53048,1,0,0:0:0:0:
64,192,53119,1,0,0:0:0:0:
320,192,53119,1,0,0:0:0:0:
448,192,53191,1,0,0:0:0:0:
64,192,53262,1,0,0:0:0:0:
192,192,53262,1,0,0:0:0:0:
320,192,53333,1,0,0:0:0:0:
192,192,53405,1,0,0:0:0:0:
448,192,53405,1,0,0:0:0:0:
64,192,53476,1,0,0:0:0:0:
320,192,53548,1,0,0:0:0:0:
192,192,53548,1,0,0:0:0:0:
448,192,53619,1,0,0:0:0:0:
64,192,53691,1,0,0:0:0:0:
320,192,53691,1,0,0:0:0:0:
448,192,53762,1,0,0:0:0:0:
192,192,53833,1,0,0:0:0:0:
64,192,53833,1,0,0:0:0:0:
320,192,53905,1,0,0:0:0:0:
192,192,53976,1,0,0:0:0:0:
64,192,53976,1,0,0:0:0:0:
448,192,54048,1,0,0:0:0:0:
320,192,54119,1,0,0:0:0:0:
64,192,54119,1,0,0:0:0:0:
192,192,54191,1,0,0:0:0:0:
320,192,54262,1,0,0:0:0:0:
448,192,54262,1,0,0:0:0:0:
192,192,54333,1,0,0:0:0:0:
64,192,54405,1,0,0:0:0:0:
448,192,54405,1,0,0:0:0:0:
320,192,54476,1,0,0:0:0:0:
192,192,54548,1,0,0:0:0:0:
64,192,54548,1,0,0:0:0:0:
320,192,54619,1,0,0:0:0:0:
448,192,54691,1,0,0:0:0:0:
64,192,54691,1,0,0:0:0:0:
192,192,54762,1,0,0:0:0:0:
320,192,54833,1,0,0:0:0:0:
448,192,54833,1,0,0:0:0:0:
192,192,54905,1,0,0:0:0:0:
448,192,54976,1,0,0:0:0:0:
320,192,54976,1,0,0:0:0:0:
64,192,55048,1,0,0:0:0:0:
192,192,55119,1,0,0:0:0:0:
320,192,55191,1,0,0:0:0:0:
448,192,55262,1,0,0:0:0:0:
64,192,55262,1,0,0:0:0:0:
192,192,55333,1,0,0:0:0:0:
320,192,55405,1,0,0:0:0:0:
448,192,55405,1,0,0:0:0:0:
192,192,55476,1,0,0:0:0:0:
448,192,55548,1,0,0:0:0:0:
64,192,55548,1,0,0:0:0:0:
192,192,55619,1,0,0:0:0:0:
320,192,55691,1,0,0:0:0:0:
64,192,55691,1,0,0:0:0:0:
448,192,55762,1,0,0:0:0:0:
192,192,55833,1,0,0:0:0:0:
320,192,55833,1,0,0:0:0:0:
64,192,55905,1,0,0:0:0:0:
448,192,55976,1,0,0:0:0:0:
320,192,55976,1,0,0:0:0:0:
192,192,56048,1,0,0:0:0:0:
64,192,56119,1,0,0:0:0:0:
448,192,56119,1,0,0:0:0:0:
320,192,56191,1,0,0:0:0:0:
64,192,56262,1,0,0:0:0:0:
192,192,56262,1,0,0:0:0:0:
448,192,56262,1,0,0:0:0:0:
320,192,56333,1,0,0:0:0:0:
64,192,56405,1,0,0:0:0:0:
448,192,56405,1,0,0:0:0:0:
192,192,56476,1,0,0:0:0:0:
320,192,56548,1,0,0:0:0:0:
448,192,56548,1,0,0:0:0:0:
192,192,56619,1,0,0:0:0:0:
448,192,56691,1,0,0:0:0:0:
64,192,56691,1,0,0:0:0:0:
320,192,56762,1,0,0:0:0:0:
192,192,56833,1,0,0:0:0:0:
64,192,56833,1,0,0:0:0:0:
320,192,56905,1,0,0:0:0:0:
192,192,56976,1,0,0:0:0:0:
448,192,56976,1,0,0:0:0:0:
320,192,57048,1,0,0:0:0:0:
64,192,57119,1,0,0:0:0:0:
192,192,57119,1,0,0:0:0:0:
448,192,57191,1,0,0:0:0:0:
320,192,57262,1,0,0:0:0:0:
64,192,57262,1,0,0:0:0:0:
192,192,57333,1,0,0:0:0:0:
320,192,57405,1,0,0:0:0:0:
64,192,57405,1,0,0:0:0:0:
448,192,57476,1,0,0:0:0:0:
192,192,57548,1,0,0:0:0:0:
320,192,57548,1,0,0:0:0:0:
64,192,57619,1,0,0:0:0:0:
448,192,57691,1,0,0:0:0:0:
320,192,57691,1,0,0:0:0:0:
192,192,57762,1,0,0:0:0:0:
64,192,57833,1,0,0:0:0:0:
448,192,57833,1,0,0:0:0:0:
320,192,57905,1,0,0:0:0:0:
192,192,57976,1,0,0:0:0:0:
64,192,57976,1,0,0:0:0:0:
320,192,58048,1,0,0:0:0:0:
448,192,58119,1,0,0:0:0:0:
64,192,58119,1,0,0:0:0:0:
192,192,58191,1,0,0:0:0:0:
320,192,58262,1,0,0:0:0:0:
448,192,58262,1,0,0:0:0:0:
192,192,58333,1,0,0:0:0:0:
64,192,58405,128,0,58548:0:0:0:0:
448,192,58405,1,0,0:0:0:0:
192,192,58548,128,0,58691:0:0:0:0:
320,192,58548,1,0,0:0:0:0:
320,192,58691,128,0,58833:0:0:0:0:
64,192,58691,1,0,0:0:0:0:
64,192,58833,128,0,58976:0:0:0:0:
448,192,58833,1,0,0:0:0:0:
192,192,58976,128,0,59119:0:0:0:0:
320,192,58976,1,0,0:0:0:0:
320,192,59119,128,0,59262:0:0:0:0:
448,192,59119,1,0,0:0:0:0:
448,192,59262,128,0,59405:0:0:0:0:
64,192,59262,1,0,0:0:0:0:
192,192,59405,128,0,59548:0:0:0:0:
64,192,59405,1,0,0:0:0:0:
320,192,59548,128,0,59691:0:0:0:0:
192,192,59691,128,0,59833:0:0:0:0:
448,192,59691,1,0,0:0:0:0:
320,192,59833,128,0,59976:0:0:0:0:
192,192,59976,128,0,61119:0:0:0:0:
64,192,59976,1,0,0:0:0:0:
448,192,60262,1,0,0:0:0:0:
320,192,60405,1,0,0:0:0:0:
320,192,60691,1,0,0:0:0:0:
320,192,60976,1,0,0:0:0:0:
448,192,61119,128,0,61691:0:0:0:0:
64,192,61262,1,0,0:0:0:0:
64,192,61548,1,0,0:0:0:0:
320,192,61691,128,0,61833:0:0:0:0:
192,192,61833,128,0,61976:0:0:0:0:
64,192,61833,1,0,0:0:0:0:
320,192,61976,128,0,62119:0:0:0:0:
192,192,62119,128,0,62548:0:0:0:0:
64,192,62119,1,0,0:0:0:0:
64,192,62405,1,0,0:0:0:0:
320,192,62548,128,0,62833:0:0:0:0:
64,192,62691,1,0,0:0:0:0:
448,192,62833,128,0,63976:0:0:0:0:
64,192,62976,1,0,0:0:0:0:
64,192,63262,1,0,0:0:0:0:
64,192,63548,1,0,0:0:0:0:
64,192,63833,1,0,0:0:0:0:
64,192,63976,128,0,64119:0:0:0:0:
192,192,64119,128,0,64262:0:0:0:0:
448,192,64119,1,0,0:0:0:0:
320,192,64262,128,0,64405:0:0:0:0:
448,192,64405,128,0,64548:0:0:0:0:
64,192,64405,1,0,0:0:0:0:
192,192,64548,128,0,65691:0:0:0:0:
64,192,64691,1,0,0:0:0:0:
448,192,64833,1,0,0:0:0:0:
320,192,64976,1,0,0:0:0:0:
320,192,65262,1,0,0:0:0:0:
320,192,65548,1,0,0:0:0:0:
320,192,65691,128,0,66262:0:0:0:0:
448,192,65976,1,0,0:0:0:0:
64,192,66262,128,0,67405:0:0:0:0:
448,192,66262,1,0,0:0:0:0:
448,192,66548,1,0,0:0:0:0:
448,192,66833,1,0,0:0:0:0:
448,192,67119,1,0,0:0:0:0:
448,192,67405,128,0,67548:0:0:0:0:
192,192,67405,1,0,0:0:0:0:
320,192,67548,128,0,67691:0:0:0:0:
192,192,67691,128,0,67833:0:0:0:0:
448,192,67691,1,0,0:0:0:0:
64,192,67833,128,0,67976:0:0:0:0:
192,192,67976,128,0,68119:0:0:0:0:
320,192,67976,1,0,0:0:0:0:
320,192,68119,128,0,68262:0:0:0:0:
448,192,68262,128,0,68405:0:0:0:0:
64,192,68262,1,0,0:0:0:0:
64,192,68405,128,0,68548:0:0:0:0:
192,192,68548,128,0,68691:0:0:0:0:
320,192,68548,1,0,0:0:0:0:
320,192,68691,128,0,68833:0:0:0:0:
192,192,68833,128,0,68976:0:0:0:0:
448,192,68833,1,0,0:0:0:0:
320,192,68976,128,0,69119:0:0:0:0:
192,192,69119,128,0,70262:0:0:0:0:
448,192,69119,1,0,0:0:0:0:
448,192,69405,1,0,0:0:0:0:
320,192,69691,1,0,0:0:0:0:
64,192,69976,1,0,0:0:0:0:
320,192,70119,1,0,0:0:0:0:
448,192,70262,128,0,70833:0:0:0:0:
64,192,70262,1,0,0:0:0:0:
64,192,70548,1,0,0:0:0:0:
192,192,70691,1,0,0:0:0:0:
192,192,70833,128,0,70976:0:0:0:0:
64,192,70833,1,0,0:0:0:0:
320,192,70976,128,0,71119:0:0:0:0:
192,192,71119,128,0,71262:0:0:0:0:
320,192,71262,128,0,71691:0:0:0:0:
64,192,71262,1,0,0:0:0:0:
192,192,71405,1,0,0:0:0:0:
64,192,71548,1,0,0:0:0:0:
64,192,71691,128,0,71976:0:0:0:0:
448,192,71833,1,0,0:0:0:0:
320,192,71976,128,0,73119:0:0:0:0:
64,192,72262,1,0,0:0:0:0:
192,192,72405,1,0,0:0:0:0:
448,192,72548,1,0,0:0:0:0:
192,192,72833,1,0,0:0:0:0:
64,192,72976,1,0,0:0:0:0:
192,192,73119,128,0,73262:0:0:0:0:
448,192,73119,1,0,0:0:0:0:
320,192,73262,128,0,73405:0:0:0:0:
192,192,73405,128,0,73548:0:0:0:0:
64,192,73405,1,0,0:0:0:0:
320,192,73548,128,0,73691:0:0:0:0:
64,192,73548,1,0,0:0:0:0:
448,192,73691,128,0,74262:0:0:0:0:
192,192,73691,1,0,0:0:0:0:
64,192,73976,1,0,0:0:0:0:
192,192,74119,1,0,0:0:0:0:
64,192,74262,128,0,75405:0:0:0:0:
320,192,74262,1,0,0:0:0:0:
448,192,74548,1,0,0:0:0:0:
320,192,74691,1,0,0:0:0:0:
192,192,74833,1,0,0:0:0:0:
320,192,75119,1,0,0:0:0:0:
448,192,75262,1,0,0:0:0:0:
192,192,75405,128,0,76548:0:0:0:0:
320,192,75405,1,0,0:0:0:0:
448,192,75691,1,0,0:0:0:0:
320,192,75833,1,0,0:0:0:0:
448,192,75976,1,0,0:0:0:0:
320,192,76119,1,0,0:0:0:0:
448,192,76262,1,0,0:0:0:0:
320,192,76405,1,0,0:0:0:0:
320,192,76548,1,0,0:0:0:0:
448,192,76548,1,0,0:0:0:0:
64,192,76548,128,0,77691:0:0:0:0:
448,192,77691,1,0,0:0:0:0:
192,192,77691,1,0,0:0:0:0:
320,192,77833,128,0,77976:0:0:0:0:
192,192,77976,128,0,78262:0:0:0:0:
448,192,78262,128,0,78405:0:0:0:0:
320,192,78405,128,0,78548:0:0:0:0:
448,192,78548,128,0,78691:0:0:0:0:
320,192,78691,128,0,80548:0:0:0:0:
64,192,78691,128,0,79119:0:0:0:0:
192,192,79119,128,0,79405:0:0:0:0:
448,192,79405,128,0,79548:0:0:0:0:
64,192,79548,128,0,79691:0:0:0:0:
192,192,79691,128,0,79833:0:0:0:0:
64,192,79833,128,0,82548:0:0:0:0:
448,192,80262,128,0,80548:0:0:0:0:
192,192,80548,128,0,80691:0:0:0:0:
320,192,80691,128,0,80833:0:0:0:0:
448,192,80833,128,0,80976:0:0:0:0:
320,192,80976,128,0,81405:0:0:0:0:
192,192,80976,128,0,82548:0:0:0:0:
448,192,81405,128,0,81548:0:0:0:0:
320,192,81548,128,0,81691:0:0:0:0:
448,192,81691,128,0,81833:0:0:0:0:
320,192,81833,128,0,81976:0:0:0:0:
448,192,81976,128,0,82119:0:0:0:0:
320,192,82119,1,0,0:0:0:0:
320,192,82262,128,0,83691:0:0:0:0:
448,192,82548,128,0,82691:0:0:0:0:
64,192,82691,128,0,82833:0:0:0:0:
192,192,82833,128,0,82976:0:0:0:0:
64,192,82976,128,0,83119:0:0:0:0:
448,192,83119,128,0,84405:0:0:0:0:
192,192,83691,128,0,83833:0:0:0:0:
64,192,83833,128,0,83976:0:0:0:0:
320,192,83976,128,0,84119:0:0:0:0:
192,192,84119,128,0,84262:0:0:0:0:
192,192,84405,128,0,85691:0:0:0:0:
320,192,84405,128,0,84691:0:0:0:0:
448,192,84691,128,0,84833:0:0:0:0:
320,192,84833,128,0,84976:0:0:0:0:
64,192,84976,128,0,85119:0:0:0:0:
320,192,85119,128,0,85262:0:0:0:0:
448,192,85262,128,0,85405:0:0:0:0:
64,192,85405,128,0,85548:0:0:0:0:
320,192,85548,128,0,85691:0:0:0:0:
64,192,85691,1,0,0:0:0:0:
448,192,85691,128,0,85833:0:0:0:0:
192,192,85833,128,0,85976:0:0:0:0:
64,192,85976,128,0,86119:0:0:0:0:
320,192,86119,128,0,86262:0:0:0:0:
192,192,86262,128,0,86405:0:0:0:0:
64,192,86405,128,0,86548:0:0:0:0:
320,192,86548,128,0,86691:0:0:0:0:
448,192,86691,128,0,86833:0:0:0:0:
320,192,86833,128,0,87976:0:0:0:0:
64,192,86833,128,0,87119:0:0:0:0:
192,192,87119,128,0,87405:0:0:0:0:
448,192,87405,128,0,87548:0:0:0:0:
64,192,87405,1,0,0:0:0:0:
192,192,87548,128,0,87691:0:0:0:0:
64,192,87691,128,0,87833:0:0:0:0:
448,192,87691,1,0,0:0:0:0:
192,192,87833,128,0,87976:0:0:0:0:
64,192,87976,1,0,0:0:0:0:
448,192,87976,128,0,88262:0:0:0:0:
320,192,88262,128,0,88548:0:0:0:0:
64,192,88262,1,0,0:0:0:0:
192,192,88262,1,0,0:0:0:0:
192,192,88548,128,0,88691:0:0:0:0:
64,192,88548,1,0,0:0:0:0:
320,192,88691,128,0,88833:0:0:0:0:
192,192,88833,128,0,88976:0:0:0:0:
64,192,88833,1,0,0:0:0:0:
320,192,88976,128,0,89119:0:0:0:0:
448,192,88976,1,0,0:0:0:0:
448,192,89119,128,0,89405:0:0:0:0:
64,192,89119,1,0,0:0:0:0:
192,192,89405,128,0,89691:0:0:0:0:
64,192,89405,1,0,0:0:0:0:
320,192,89691,128,0,89833:0:0:0:0:
64,192,89691,1,0,0:0:0:0:
448,192,89833,128,0,89976:0:0:0:0:
192,192,89976,128,0,90119:0:0:0:0:
64,192,89976,1,0,0:0:0:0:
64,192,90119,128,0,90262:0:0:0:0:
320,192,90262,128,0,90405:0:0:0:0:
448,192,90262,1,0,0:0:0:0:
192,192,90405,128,0,90548:0:0:0:0:
64,192,90548,1,0,0:0:0:0:
320,192,90691,128,0,90833:0:0:0:0:
64,192,90833,1,0,0:0:0:0:
448,192,90976,128,0,91119:0:0:0:0:
320,192,91119,128,0,91405:0:0:0:0:
64,192,91119,1,0,0:0:0:0:
64,192,91405,1,0,0:0:0:0:
192,192,91548,1,0,0:0:0:0:
448,192,91548,1,0,0:0:0:0:
64,192,91548,1,0,0:0:0:0:
320,192,91691,1,0,0:0:0:0:
64,192,91691,1,0,0:0:0:0:
448,192,91691,1,0,0:0:0:0:
192,192,91833,1,0,0:0:0:0:
320,192,91833,1,0,0:0:0:0:
448,192,91833,1,0,0:0:0:0:
192,192,91976,1,0,0:0:0:0:
64,192,91976,1,0,0:0:0:0:
320,192,91976,1,0,0:0:0:0:
192,192,92119,1,0,0:0:0:0:
64,192,92119,1,0,0:0:0:0:
448,192,92119,1,0,0:0:0:0:
64,192,92262,1,0,0:0:0:0:
320,192,92262,1,0,0:0:0:0:
448,192,92262,1,0,0:0:0:0:
192,192,92405,1,0,0:0:0:0:
320,192,92405,1,0,0:0:0:0:
448,192,92405,1,0,0:0:0:0:
64,192,92548,1,0,0:0:0:0:
192,192,92548,1,0,0:0:0:0:
448,192,92548,1,0,0:0:0:0:
320,192,92691,1,0,0:0:0:0:
192,192,92691,1,0,0:0:0:0:
64,192,92691,1,0,0:0:0:0:
320,192,92833,1,0,0:0:0:0:
448,192,92833,1,0,0:0:0:0:
64,192,92833,1,0,0:0:0:0:
192,192,92976,1,0,0:0:0:0:
448,192,92976,1,0,0:0:0:0:
64,192,92976,1,0,0:0:0:0:
320,192,93119,1,0,0:0:0:0:
192,192,93119,1,0,0:0:0:0:
64,192,93119,1,0,0:0:0:0:
64,192,93262,1,0,0:0:0:0:
192,192,93262,1,0,0:0:0:0:
448,192,93262,1,0,0:0:0:0:
320,192,93405,1,0,0:0:0:0:
192,192,93405,1,0,0:0:0:0:
448,192,93405,1,0,0:0:0:0:
64,192,93548,1,0,0:0:0:0:
192,192,93548,1,0,0:0:0:0:
320,192,93548,1,0,0:0:0:0:
448,192,93691,1,0,0:0:0:0:
64,192,93691,1,0,0:0:0:0:
192,192,93691,1,0,0:0:0:0:
448,192,93833,1,0,0:0:0:0:
320,192,93833,1,0,0:0:0:0:
192,192,93905,1,0,0:0:0:0:
64,192,93905,1,0,0:0:0:0:
320,192,93976,1,0,0:0:0:0:
448,192,93976,1,0,0:0:0:0:
192,192,94048,1,0,0:0:0:0:
64,192,94048,1,0,0:0:0:0:
448,192,94119,1,0,0:0:0:0:
320,192,94119,1,0,0:0:0:0:
192,192,94191,1,0,0:0:0:0:
64,192,94191,1,0,0:0:0:0:
448,192,94262,1,0,0:0:0:0:
320,192,94298,1,0,0:0:0:0:
192,192,94333,1,0,0:0:0:0:
64,192,94369,1,0,0:0:0:0:
448,192,94405,1,0,0:0:0:0:
320,192,94441,1,0,0:0:0:0:
192,192,94476,1,0,0:0:0:0:
64,192,94512,1,0,0:0:0:0:
320,192,94548,1,0,0:0:0:0:
448,192,94583,1,0,0:0:0:0:
64,192,94619,1,0,0:0:0:0:
192,192,94655,1,0,0:0:0:0:
320,192,94691,1,0,0:0:0:0:
448,192,94726,1,0,0:0:0:0:
64,192,94762,1,0,0:0:0:0:
192,192,94798,1,0,0:0:0:0:
320,192,94833,128,0,95976:0:0:0:0:
448,192,95976,1,0,0:0:0:0:
192,192,95976,1,0,0:0:0:0:
64,192,95976,1,0,0:0:0:0:
64,192,96119,128,0,96262:0:0:0:0:
320,192,96262,128,0,96405:0:0:0:0:
192,192,96405,128,0,96548:0:0:0:0:
448,192,96548,128,0,96691:0:0:0:0:
64,192,96691,128,0,96833:0:0:0:0:
192,192,96833,128,0,96976:0:0:0:0:
320,192,96976,128,0,97119:0:0:0:0:
448,192,97119,128,0,97691:0:0:0:0:
192,192,97119,1,0,0:0:0:0:
64,192,97119,1,0,0:0:0:0:
320,192,97691,1,0,0:0:0:0:
192,192,97691,1,0,0:0:0:0:
64,192,97691,1,0,0:0:0:0:
320,192,97976,1,0,0:0:0:0:
64,192,97976,1,0,0:0:0:0:
448,192,97976,1,0,0:0:0:0:
192,192,97976,1,0,0:0:0:0:
320,192,98262,1,0,0:0:0:0:
448,192,98262,1,0,0:0:0:0:
64,192,98262,1,0,0:0:0:0:
192,192,98310,1,0,0:0:0:0:
320,192,98357,1,0,0:0:0:0:
64,192,98405,1,0,0:0:0:0:
192,192,98452,1,0,0:0:0:0:
320,192,98500,1,0,0:0:0:0:
192,192,98548,1,0,0:0:0:0:
448,192,98548,1,0,0:0:0:0:
64,192,98595,1,0,0:0:0:0:
320,192,98643,1,0,0:0:0:0:
192,192,98691,1,0,0:0:0:0:
448,192,98691,1,0,0:0:0:0:
320,192,98738,1,0,0:0:0:0:
64,192,98786,1,0,0:0:0:0:
448,192,98833,1,0,0:0:0:0:
192,192,98833,1,0,0:0:0:0:
320,192,98881,1,0,0:0:0:0:
192,192,98929,1,0,0:0:0:0:
64,192,98976,1,0,0:0:0:0:
320,192,99024,1,0,0:0:0:0:
448,192,99071,1,0,0:0:0:0:
192,192,99119,1,0,0:0:0:0:
64,192,99119,1,0,0:0:0:0:
448,192,99167,1,0,0:0:0:0:
320,192,99214,1,0,0:0:0:0:
192,192,99262,1,0,0:0:0:0:
64,192,99310,1,0,0:0:0:0:
320,192,99357,1,0,0:0:0:0:
192,192,99405,1,0,0:0:0:0:
448,192,99405,1,0,0:0:0:0:
320,192,99452,1,0,0:0:0:0:
64,192,99500,1,0,0:0:0:0:
192,192,99548,1,0,0:0:0:0:
320,192,99595,1,0,0:0:0:0:
64,192,99643,1,0,0:0:0:0:
192,192,99691,1,0,0:0:0:0:
448,192,99691,1,0,0:0:0:0:
320,192,99738,1,0,0:0:0:0:
192,192,99786,1,0,0:0:0:0:
64,192,99833,1,0,0:0:0:0:
448,192,99881,1,0,0:0:0:0:
320,192,99929,1,0,0:0:0:0:
192,192,99976,1,0,0:0:0:0:
64,192,99976,1,0,0:0:0:0:
320,192,100024,1,0,0:0:0:0:
448,192,100071,1,0,0:0:0:0:
64,192,100119,1,0,0:0:0:0:
192,192,100167,1,0,0:0:0:0:
320,192,100214,1,0,0:0:0:0:
192,192,100262,1,0,0:0:0:0:
64,192,100262,1,0,0:0:0:0:
448,192,100310,1,0,0:0:0:0:
320,192,100357,1,0,0:0:0:0:
192,192,100405,1,0,0:0:0:0:
64,192,100452,1,0,0:0:0:0:
320,192,100500,1,0,0:0:0:0:
448,192,100548,1,0,0:0:0:0:
192,192,100548,1,0,0:0:0:0:
320,192,100595,1,0,0:0:0:0:
192,192,100643,1,0,0:0:0:0:
448,192,100691,1,0,0:0:0:0:
64,192,100691,1,0,0:0:0:0:
320,192,100738,1,0,0:0:0:0:
192,192,100786,1,0,0:0:0:0:
64,192,100833,1,0,0:0:0:0:
320,192,100881,1,0,0:0:0:0:
448,192,100929,1,0,0:0:0:0:
192,192,100976,1,0,0:0:0:0:
64,192,100976,1,0,0:0:0:0:
320,192,101024,1,0,0:0:0:0:
192,192,101071,1,0,0:0:0:0:
64,192,101119,1,0,0:0:0:0:
448,192,101167,1,0,0:0:0:0:
320,192,101214,1,0,0:0:0:0:
192,192,101262,1,0,0:0:0:0:
64,192,101262,1,0,0:0:0:0:
320,192,101310,1,0,0:0:0:0:
448,192,101357,1,0,0:0:0:0:
192,192,101405,1,0,0:0:0:0:
64,192,101452,1,0,0:0:0:0:
320,192,101500,1,0,0:0:0:0:
192,192,101548,1,0,0:0:0:0:
448,192,101548,1,0,0:0:0:0:
64,192,101595,1,0,0:0:0:0:
320,192,101643,1,0,0:0:0:0:
448,192,101691,1,0,0:0:0:0:
192,192,101738,1,0,0:0:0:0:
320,192,101786,1,0,0:0:0:0:
192,192,101833,1,0,0:0:0:0:
64,192,101833,1,0,0:0:0:0:
448,192,101976,1,0,0:0:0:0:
64,192,101976,1,0,0:0:0:0:
320,192,101976,1,0,0:0:0:0:
448,192,102119,1,0,0:0:0:0:
64,192,102119,1,0,0:0:0:0:
320,192,102155,1,0,0:0:0:0:
192,192,102191,1,0,0:0:0:0:
64,192,102226,1,0,0:0:0:0:
448,192,102262,1,0,0:0:0:0:
320,192,102298,1,0,0:0:0:0:
448,192,102405,1,0,0:0:0:0:
320,192,102441,1,0,0:0:0:0:
192,192,102476,1,0,0:0:0:0:
64,192,102512,1,0,0:0:0:0:
192,192,102691,1,0,0:0:0:0:
320,192,102726,1,0,0:0:0:0:
448,192,102762,1,0,0:0:0:0:
192,192,102798,1,0,0:0:0:0:
320,192,102833,1,0,0:0:0:0:
192,192,102905,1,0,0:0:0:0:
448,192,102976,1,0,0:0:0:0:
320,192,103024,1,0,0:0:0:0:
192,192,103071,1,0,0:0:0:0:
448,192,103119,1,0,0:0:0:0:
320,192,103119,1,0,0:0:0:0:
64,192,103167,1,0,0:0:0:0:
192,192,103214,1,0,0:0:0:0:
320,192,103262,1,0,0:0:0:0:
448,192,103310,1,0,0:0:0:0:
192,192,103357,1,0,0:0:0:0:
64,192,103405,1,0,0:0:0:0:
320,192,103405,1,0,0:0:0:0:
448,192,103452,1,0,0:0:0:0:
192,192,103500,1,0,0:0:0:0:
64,192,103548,1,0,0:0:0:0:
320,192,103595,1,0,0:0:0:0:
192,192,103643,1,0,0:0:0:0:
448,192,103691,1,0,0:0:0:0:
320,192,103738,1,0,0:0:0:0:
448,192,103786,1,0,0:0:0:0:
320,192,103833,1,0,0:0:0:0:
448,192,103881,1,0,0:0:0:0:
64,192,103929,1,0,0:0:0:0:
192,192,103976,1,0,0:0:0:0:
320,192,103976,1,0,0:0:0:0:
448,192,104024,1,0,0:0:0:0:
64,192,104071,1,0,0:0:0:0:
192,192,104119,1,0,0:0:0:0:
320,192,104167,1,0,0:0:0:0:
448,192,104214,1,0,0:0:0:0:
64,192,104262,1,0,0:0:0:0:
192,192,104262,1,0,0:0:0:0:
320,192,104310,1,0,0:0:0:0:
448,192,104357,1,0,0:0:0:0:
192,192,104405,1,0,0:0:0:0:
64,192,104452,1,0,0:0:0:0:
320,192,104500,1,0,0:0:0:0:
192,192,104548,1,0,0:0:0:0:
448,192,104548,1,0,0:0:0:0:
64,192,104595,1,0,0:0:0:0:
320,192,104643,1,0,0:0:0:0:
192,192,104691,1,0,0:0:0:0:
448,192,104738,1,0,0:0:0:0:
320,192,104786,1,0,0:0:0:0:
448,192,104833,1,0,0:0:0:0:
64,192,104833,1,0,0:0:0:0:
192,192,104881,1,0,0:0:0:0:
320,192,104929,1,0,0:0:0:0:
448,192,104976,1,0,0:0:0:0:
64,192,104976,1,0,0:0:0:0:
192,192,105024,1,0,0:0:0:0:
320,192,105071,1,0,0:0:0:0:
448,192,105119,1,0,0:0:0:0:
192,192,105167,1,0,0:0:0:0:
64,192,105214,1,0,0:0:0:0:
320,192,105262,1,0,0:0:0:0:
192,192,105310,1,0,0:0:0:0:
448,192,105357,1,0,0:0:0:0:
320,192,105405,1,0,0:0:0:0:
64,192,105405,1,0,0:0:0:0:
192,192,105452,1,0,0:0:0:0:
320,192,105500,1,0,0:0:0:0:
448,192,105548,1,0,0:0:0:0:
64,192,105595,1,0,0:0:0:0:
192,192,105643,1,0,0:0:0:0:
320,192,105691,1,0,0:0:0:0:
448,192,105691,1,0,0:0:0:0:
192,192,105738,1,0,0:0:0:0:
64,192,105786,1,0,0:0:0:0:
448,192,105833,1,0,0:0:0:0:
320,192,105881,1,0,0:0:0:0:
192,192,105929,1,0,0:0:0:0:
64,192,105976,1,0,0:0:0:0:
448,192,105976,1,0,0:0:0:0:
320,192,106024,1,0,0:0:0:0:
192,192,106071,1,0,0:0:0:0:
64,192,106119,1,0,0:0:0:0:
320,192,106167,1,0,0:0:0:0:
448,192,106214,1,0,0:0:0:0:
192,192,106262,1,0,0:0:0:0:
320,192,106310,1,0,0:0:0:0:
64,192,106357,1,0,0:0:0:0:
192,192,106405,1,0,0:0:0:0:
448,192,106452,1,0,0:0:0:0:
320,192,106500,1,0,0:0:0:0:
192,192,106548,1,0,0:0:0:0:
64,192,106548,1,0,0:0:0:0:
448,192,106595,1,0,0:0:0:0:
320,192,106643,1,0,0:0:0:0:
64,192,106691,1,0,0:0:0:0:
192,192,106738,1,0,0:0:0:0:
448,192,106786,1,0,0:0:0:0:
320,192,106833,1,0,0:0:0:0:
64,192,106833,1,0,0:0:0:0:
192,192,106905,1,0,0:0:0:0:
320,192,106905,1,0,0:0:0:0:
192,192,106976,1,0,0:0:0:0:
448,192,106976,1,0,0:0:0:0:
64,192,107048,1,0,0:0:0:0:
320,192,107048,1,0,0:0:0:0:
448,192,107119,1,0,0:0:0:0:
320,192,107155,1,0,0:0:0:0:
192,192,107191,1,0,0:0:0:0:
64,192,107226,1,0,0:0:0:0:
448,192,107262,1,0,0:0:0:0:
320,192,107298,1,0,0:0:0:0:
192,192,107333,1,0,0:0:0:0:
64,192,107369,1,0,0:0:0:0:
320,192,107405,1,0,0:0:0:0:
448,192,107452,1,0,0:0:0:0:
320,192,107500,1,0,0:0:0:0:
64,192,107548,1,0,0:0:0:0:
192,192,107595,1,0,0:0:0:0:
320,192,107643,1,0,0:0:0:0:
448,192,107691,128,0,107833:0:0:0:0:
64,192,107691,1,0,0:0:0:0:
192,192,107691,1,0,0:0:0:0:
320,192,107738,1,0,0:0:0:0:
192,192,107786,1,0,0:0:0:0:
64,192,107833,1,0,0:0:0:0:
320,192,107881,1,0,0:0:0:0:
192,192,107929,1,0,0:0:0:0:
448,192,107976,1,0,0:0:0:0:
320,192,107976,1,0,0:0:0:0:
64,192,108024,1,0,0:0:0:0:
192,192,108071,1,0,0:0:0:0:
320,192,108119,1,0,0:0:0:0:
448,192,108167,1,0,0:0:0:0:
192,192,108214,1,0,0:0:0:0:
64,192,108262,128,0,108405:0:0:0:0:
448,192,108262,1,0,0:0:0:0:
320,192,108310,1,0,0:0:0:0:
192,192,108357,1,0,0:0:0:0:
448,192,108405,1,0,0:0:0:0:
320,192,108452,1,0,0:0:0:0:
64,192,108500,1,0,0:0:0:0:
192,192,108548,1,0,0:0:0:0:
320,192,108595,1,0,0:0:0:0:
64,192,108643,1,0,0:0:0:0:
192,192,108691,1,0,0:0:0:0:
448,192,108691,1,0,0:0:0:0:
320,192,108738,1,0,0:0:0:0:
192,192,108786,1,0,0:0:0:0:
448,192,108833,128,0,108976:0:0:0:0:
64,192,108833,1,0,0:0:0:0:
320,192,108881,1,0,0:0:0:0:
192,192,108929,1,0,0:0:0:0:
64,192,108976,1,0,0:0:0:0:
320,192,108976,1,0,0:0:0:0:
192,192,109024,1,0,0:0:0:0:
320,192,109071,1,0,0:0:0:0:
64,192,109119,1,0,0:0:0:0:
448,192,109167,1,0,0:0:0:0:
320,192,109214,1,0,0:0:0:0:
192,192,109262,1,0,0:0:0:0:
64,192,109262,1,0,0:0:0:0:
320,192,109310,1,0,0:0:0:0:
448,192,109357,1,0,0:0:0:0:
64,192,109405,128,0,109548:0:0:0:0:
192,192,109405,1,0,0:0:0:0:
320,192,109452,1,0,0:0:0:0:
448,192,109500,1,0,0:0:0:0:
192,192,109548,1,0,0:0:0:0:
320,192,109595,1,0,0:0:0:0:
192,192,109643,1,0,0:0:0:0:
64,192,109691,1,0,0:0:0:0:
320,192,109738,1,0,0:0:0:0:
448,192,109786,1,0,0:0:0:0:
64,192,109833,1,0,0:0:0:0:
192,192,109833,1,0,0:0:0:0:
320,192,109881,1,0,0:0:0:0:
448,192,109929,1,0,0:0:0:0:
320,192,109976,128,0,110119:0:0:0:0:
64,192,109976,1,0,0:0:0:0:
192,192,110024,1,0,0:0:0:0:
448,192,110071,1,0,0:0:0:0:
64,192,110119,1,0,0:0:0:0:
192,192,110167,1,0,0:0:0:0:
448,192,110214,1,0,0:0:0:0:
320,192,110262,1,0,0:0:0:0:
192,192,110310,1,0,0:0:0:0:
448,192,110357,1,0,0:0:0:0:
64,192,110405,1,0,0:0:0:0:
192,192,110452,1,0,0:0:0:0:
448,192,110500,1,0,0:0:0:0:
64,192,110548,128,0,110691:0:0:0:0:
320,192,110548,1,0,0:0:0:0:
192,192,110595,1,0,0:0:0:0:
448,192,110643,1,0,0:0:0:0:
320,192,110691,1,0,0:0:0:0:
448,192,110833,1,0,0:0:0:0:
64,192,110833,1,0,0:0:0:0:
192,192,110833,1,0,0:0:0:0:
320,192,110976,1,0,0:0:0:0:
64,192,110976,1,0,0:0:0:0:
448,192,110976,1,0,0:0:0:0:
192,192,110976,1,0,0:0:0:0:
320,192,111119,128,0,111262:0:0:0:0:
192,192,111262,1,0,0:0:0:0:
64,192,111262,1,0,0:0:0:0:
448,192,111262,1,0,0:0:0:0:
192,192,111405,128,0,111548:0:0:0:0:
64,192,111548,1,0,0:0:0:0:
448,192,111548,1,0,0:0:0:0:
320,192,111548,1,0,0:0:0:0:
64,192,111691,1,0,0:0:0:0:
192,192,111691,1,0,0:0:0:0:
448,192,111691,1,0,0:0:0:0:
320,192,111762,1,0,0:0:0:0:
448,192,111833,1,0,0:0:0:0:
64,192,111976,1,0,0:0:0:0:
192,192,111976,1,0,0:0:0:0:
448,192,112024,1,0,0:0:0:0:
320,192,112071,1,0,0:0:0:0:
64,192,112119,1,0,0:0:0:0:
448,192,112119,1,0,0:0:0:0:
192,192,112167,1,0,0:0:0:0:
320,192,112214,1,0,0:0:0:0:
448,192,112262,1,0,0:0:0:0:
64,192,112262,1,0,0:0:0:0:
192,192,112310,1,0,0:0:0:0:
320,192,112357,1,0,0:0:0:0:
192,192,112405,1,0,0:0:0:0:
64,192,112405,1,0,0:0:0:0:
448,192,112452,1,0,0:0:0:0:
320,192,112500,1,0,0:0:0:0:
192,192,112548,1,0,0:0:0:0:
448,192,112548,1,0,0:0:0:0:
64,192,112595,1,0,0:0:0:0:
320,192,112643,1,0,0:0:0:0:
192,192,112691,1,0,0:0:0:0:
448,192,112691,1,0,0:0:0:0:
64,192,112738,1,0,0:0:0:0:
320,192,112786,1,0,0:0:0:0:
192,192,112833,1,0,0:0:0:0:
64,192,112833,1,0,0:0:0:0:
320,192,112881,1,0,0:0:0:0:
448,192,112929,1,0,0:0:0:0:
192,192,112976,1,0,0:0:0:0:
320,192,112976,1,0,0:0:0:0:
64,192,113024,1,0,0:0:0:0:
320,192,113071,1,0,0:0:0:0:
192,192,113119,1,0,0:0:0:0:
448,192,113119,1,0,0:0:0:0:
64,192,113167,1,0,0:0:0:0:
192,192,113214,1,0,0:0:0:0:
320,192,113262,1,0,0:0:0:0:
448,192,113262,1,0,0:0:0:0:
64,192,113310,1,0,0:0:0:0:
192,192,113357,1,0,0:0:0:0:
320,192,113405,1,0,0:0:0:0:
448,192,113405,1,0,0:0:0:0:
192,192,113452,1,0,0:0:0:0:
64,192,113500,1,0,0:0:0:0:
448,192,113548,1,0,0:0:0:0:
192,192,113548,1,0,0:0:0:0:
320,192,113595,1,0,0:0:0:0:
64,192,113643,1,0,0:0:0:0:
192,192,113691,1,0,0:0:0:0:
448,192,113691,1,0,0:0:0:0:
320,192,113738,1,0,0:0:0:0:
192,192,113786,1,0,0:0:0:0:
64,192,113833,1,0,0:0:0:0:
448,192,113833,1,0,0:0:0:0:
320,192,113881,1,0,0:0:0:0:
192,192,113929,1,0,0:0:0:0:
64,192,113976,1,0,0:0:0:0:
320,192,113976,1,0,0:0:0:0:
448,192,114024,1,0,0:0:0:0:
192,192,114071,1,0,0:0:0:0:
320,192,114119,1,0,0:0:0:0:
64,192,114119,1,0,0:0:0:0:
448,192,114167,1,0,0:0:0:0:
192,192,114214,1,0,0:0:0:0:
320,192,114262,1,0,0:0:0:0:
448,192,114262,1,0,0:0:0:0:
64,192,114333,1,0,0:0:0:0:
192,192,114333,1,0,0:0:0:0:
320,192,114405,1,0,0:0:0:0:
448,192,114405,1,0,0:0:0:0:
192,192,114476,1,0,0:0:0:0:
64,192,114476,1,0,0:0:0:0:
320,192,114548,1,0,0:0:0:0:
448,192,114548,1,0,0:0:0:0:
192,192,114619,1,0,0:0:0:0:
64,192,114619,1,0,0:0:0:0:
320,192,114691,1,0,0:0:0:0:
448,192,114691,1,0,0:0:0:0:
192,192,114762,1,0,0:0:0:0:
64,192,114762,1,0,0:0:0:0:
448,192,114833,1,0,0:0:0:0:
320,192,114869,1,0,0:0:0:0:
192,192,114905,1,0,0:0:0:0:
64,192,114941,1,0,0:0:0:0:
448,192,114976,1,0,0:0:0:0:
320,192,115012,1,0,0:0:0:0:
448,192,115119,1,0,0:0:0:0:
320,192,115155,1,0,0:0:0:0:
192,192,115191,1,0,0:0:0:0:
64,192,115226,1,0,0:0:0:0:
448,192,115262,1,0,0:0:0:0:
320,192,115298,1,0,0:0:0:0:
64,192,115405,1,0,0:0:0:0:
448,192,115405,1,0,0:0:0:0:
192,192,115452,1,0,0:0:0:0:
320,192,115500,1,0,0:0:0:0:
64,192,115548,1,0,0:0:0:0:
448,192,115595,1,0,0:0:0:0:
192,192,115643,1,0,0:0:0:0:
320,192,115691,1,0,0:0:0:0:
64,192,115738,1,0,0:0:0:0:
448,192,115786,1,0,0:0:0:0:
192,192,115833,1,0,0:0:0:0:
320,192,115881,1,0,0:0:0:0:
64,192,115929,1,0,0:0:0:0:
448,192,115976,1,0,0:0:0:0:
192,192,116024,1,0,0:0:0:0:
320,192,116071,1,0,0:0:0:0:
64,192,116119,1,0,0:0:0:0:
448,192,116167,1,0,0:0:0:0:
192,192,116214,1,0,0:0:0:0:
320,192,116262,1,0,0:0:0:0:
64,192,116310,1,0,0:0:0:0:
448,192,116357,1,0,0:0:0:0:
192,192,116405,1,0,0:0:0:0:
320,192,116452,1,0,0:0:0:0:
64,192,116500,1,0,0:0:0:0:
192,192,116548,1,0,0:0:0:0:
448,192,116548,1,0,0:0:0:0:
320,192,116691,128,0,116833:0:0:0:0:
192,192,116833,128,0,116976:0:0:0:0:
320,192,116976,128,0,117119:0:0:0:0:
448,192,117119,128,0,117262:0:0:0:0:
64,192,117262,128,0,117405:0:0:0:0:
192,192,117405,128,0,117548:0:0:0:0:
320,192,117548,128,0,117691:0:0:0:0:
448,192,117691,128,0,118976:0:0:0:0:
192,192,117762,1,0,0:0:0:0:
64,192,117833,1,0,0:0:0:0:
192,192,117905,1,0,0:0:0:0:
320,192,117976,1,0,0:0:0:0:
192,192,118048,1,0,0:0:0:0:
320,192,118119,1,0,0:0:0:0:
192,192,118191,1,0,0:0:0:0:
64,192,118262,1,0,0:0:0:0:
192,192,118333,1,0,0:0:0:0:
320,192,118405,1,0,0:0:0:0:
192,192,118476,1,0,0:0:0:0:
320,192,118548,1,0,0:0:0:0:
192,192,118619,1,0,0:0:0:0:
64,192,118691,1,0,0:0:0:0:
192,192,118762,1,0,0:0:0:0:
