osu file format v14

[General]
AudioFilename: audio.mp3
AudioLeadIn: 0
PreviewTime: 83427
Countdown: 0
SampleSet: Normal
StackLeniency: 0.7
Mode: 1
LetterboxInBreaks: 0
WidescreenStoryboard: 1

[Editor]
DistanceSpacing: 1.5
BeatDivisor: 1
GridSize: 32
TimelineZoom: 2.4

[Metadata]
Title:Hold Angel
TitleUnicode:Hold Angel
Artist:you
ArtistUnicode:you
Creator:Whulf
Version:Law's Futsuu
Source:
Tags:speedcore 600 OVER!!! Psycho Filth Records Metzo liku the law the_law hivie nevqr never Electronic Instrumental fa featured artist mappers guild mg
BeatmapID:4482809
BeatmapSetID:1354083

[Difficulty]
HPDrainRate:7
CircleSize:2
OverallDifficulty:4
ApproachRate:10
SliderMultiplier:0.8
SliderTickRate:2

[Events]
//Background and Video events
0,0,"www.png",0,0
//Break Periods
2,64227,69377
//Storyboard Layer 0 (Background)
//Storyboard Layer 1 (Fail)
//Storyboard Layer 2 (Pass)
//Storyboard Layer 3 (Foreground)
//Storyboard Layer 4 (Overlay)
//Storyboard Sound Samples

[TimingPoints]
227,200,4,1,0,70,1,0
227,-100,4,1,0,70,0,0
12227,-100,4,1,0,80,0,0
13027,-100,4,1,0,75,0,0
25827,-100,4,1,0,100,0,0
50626,-100,4,1,0,100,0,0
50826,-100,4,1,0,100,0,0
51026,-100,4,1,0,100,0,0
51226,-100,4,1,0,100,0,0
51426,-100,4,1,0,95,0,0
51626,-100,4,1,0,95,0,0
51826,-100,4,1,0,95,0,0
52026,-100,4,1,0,95,0,0
52226,-100,4,1,0,95,0,0
52426,-100,4,1,0,95,0,0
52626,-100,4,1,0,95,0,0
52826,-100,4,1,0,95,0,0
53026,-100,4,1,0,90,0,0
53226,-100,4,1,0,90,0,0
53426,-100,4,1,0,90,0,0
53626,-100,4,1,0,90,0,0
53826,-100,4,1,0,90,0,0
54026,-100,4,1,0,90,0,0
54226,-100,4,1,0,90,0,0
54426,-100,4,1,0,90,0,0
54626,-100,4,1,0,85,0,0
54826,-100,4,1,0,85,0,0
55026,-100,4,1,0,85,0,0
55226,-100,4,1,0,85,0,0
55426,-100,4,1,0,85,0,0
55626,-100,4,1,0,85,0,0
55826,-100,4,1,0,85,0,0
56026,-100,4,1,0,85,0,0
56226,-100,4,1,0,80,0,0
56426,-100,4,1,0,80,0,0
56626,-100,4,1,0,80,0,0
56826,-100,4,1,0,80,0,0
57026,-100,4,1,0,80,0,0
57226,-100,4,1,0,80,0,0
57426,-100,4,1,0,80,0,0
57626,-100,4,1,0,80,0,0
57826,-100,4,1,0,75,0,0
58026,-100,4,1,0,75,0,0
58226,-100,4,1,0,75,0,0
58426,-100,4,1,0,75,0,0
58626,-100,4,1,0,75,0,0
58826,-100,4,1,0,75,0,0
59026,-100,4,1,0,75,0,0
59226,-100,4,1,0,75,0,0
59426,-100,4,1,0,70,0,0
59626,-100,4,1,0,70,0,0
59826,-100,4,1,0,70,0,0
60026,-100,4,1,0,70,0,0
60226,-100,4,1,0,70,0,0
60426,-100,4,1,0,70,0,0
60626,-100,4,1,0,70,0,0
60826,-100,4,1,0,70,0,0
61026,-100,4,1,0,65,0,0
61226,-100,4,1,0,65,0,0
61426,-100,4,1,0,65,0,0
61626,-100,4,1,0,65,0,0
61826,-100,4,1,0,65,0,0
62026,-100,4,1,0,65,0,0
62226,-100,4,1,0,65,0,0
62426,-100,4,1,0,65,0,0
62626,-100,4,1,0,60,0,0
62826,-100,4,1,0,60,0,0
63026,-100,4,1,0,60,0,0
63226,-100,4,1,0,60,0,0
63426,-100,4,1,0,60,0,0
63626,-100,4,1,0,60,0,0
63826,-100,4,1,0,60,0,0
64026,-100,4,1,0,60,0,0
69827,-100,4,1,0,75,0,0
70627,-100,4,1,0,70,0,0
76326,-100,4,1,0,70,0,0
76426,-100,4,1,0,70,0,0
76526,-100,4,1,0,70,0,0
76626,-100,4,1,0,70,0,0
76726,-100,4,1,0,70,0,0
76826,-100,4,1,0,70,0,0
76926,-100,4,1,0,70,0,0
77026,-100,4,1,0,75,0,0
77926,-100,4,1,0,75,0,0
78026,-100,4,1,0,75,0,0
78126,-100,4,1,0,75,0,0
78226,-100,4,1,0,75,0,0
78326,-100,4,1,0,75,0,0
78426,-100,4,1,0,75,0,0
78526,-100,4,1,0,75,0,0
78626,-100,4,1,0,80,0,0
79526,-100,4,1,0,80,0,0
79626,-100,4,1,0,80,0,0
79726,-100,4,1,0,80,0,0
79826,-100,4,1,0,80,0,0
79926,-100,4,1,0,80,0,0
80026,-100,4,1,0,80,0,0
80126,-100,4,1,0,80,0,0
80226,-100,4,1,0,85,0,0
80427,-100,4,1,0,90,0,0
80726,-100,4,1,0,90,0,0
80826,-100,4,1,0,90,0,0
80926,-100,4,1,0,90,0,0
81026,-100,4,1,0,95,0,0
81227,-100,4,1,0,95,0,0
81826,-100,4,1,0,95,0,0
81876,-100,4,1,0,95,0,0
81926,-100,4,1,0,95,0,0
81976,-100,4,1,0,95,0,0
82026,-100,4,1,0,95,0,0
82076,-100,4,1,0,95,0,0
82126,-100,4,1,0,95,0,0
82176,-100,4,1,0,95,0,0
82226,-100,4,1,0,95,0,0
82276,-100,4,1,0,95,0,0
82326,-100,4,1,0,95,0,0
82376,-100,4,1,0,95,0,0
82426,-100,4,1,0,95,0,0
82476,-100,4,1,0,95,0,0
82526,-100,4,1,0,95,0,0
82576,-100,4,1,0,95,0,0
82626,-100,4,1,0,95,0,0
83427,-100,4,1,0,100,0,1
95427,-100,4,1,0,100,0,0
96227,-100,4,1,0,100,0,1
108627,-100,4,1,0,100,0,0
109027,-100,4,1,0,70,0,0

[HitObjects]
256,192,227,5,0,0:0:0:0:
256,192,1027,1,0,0:0:0:0:
256,192,1827,1,8,0:0:0:0:
256,192,2227,1,8,0:0:0:0:
256,192,2627,1,8,0:0:0:0:
256,192,3427,1,0,0:0:0:0:
256,192,4227,1,0,0:0:0:0:
256,192,5027,1,8,0:0:0:0:
256,192,5427,1,0,0:0:0:0:
256,192,5827,1,8,0:0:0:0:
256,192,6227,1,8,0:0:0:0:
256,192,6627,1,4,0:0:0:0:
256,192,8227,1,0,0:0:0:0:
256,192,8627,1,0,0:0:0:0:
256,192,9027,1,8,0:0:0:0:
256,192,9827,1,0,0:0:0:0:
256,192,10627,1,0,0:0:0:0:
256,192,11427,1,8,0:0:0:0:
256,192,11827,1,0,0:0:0:0:
256,192,12227,1,12,0:0:0:0:
256,192,13027,1,4,0:0:0:0:
256,192,13427,1,0,0:0:0:0:
256,192,13627,1,8,0:0:0:0:
256,192,13827,1,0,0:0:0:0:
256,192,14227,1,0,0:0:0:0:
256,192,14627,1,8,0:0:0:0:
256,192,15027,1,8,0:0:0:0:
256,192,15227,1,0,0:0:0:0:
256,192,15427,1,8,0:0:0:0:
256,192,15827,1,8,0:0:0:0:
256,192,16027,1,8,0:0:0:0:
256,192,16227,1,0,0:0:0:0:
256,192,16627,1,8,0:0:0:0:
256,192,17027,1,0,0:0:0:0:
256,192,17427,1,0,0:0:0:0:
256,192,17627,1,0,0:0:0:0:
256,192,17827,1,8,0:0:0:0:
256,192,18227,1,0,0:0:0:0:
256,192,18627,1,8,0:0:0:0:
256,192,18827,1,8,0:0:0:0:
256,192,19027,1,8,0:0:0:0:
256,192,19227,1,8,0:0:0:0:
256,192,19427,1,4,0:0:0:0:
256,192,20227,1,0,0:0:0:0:
256,192,20627,1,0,0:0:0:0:
256,192,20827,1,0,0:0:0:0:
256,192,21027,1,8,0:0:0:0:
256,192,21427,1,0,0:0:0:0:
256,192,21827,1,8,0:0:0:0:
256,192,22027,1,0,0:0:0:0:
256,192,22227,1,8,0:0:0:0:
256,192,22427,1,8,0:0:0:0:
256,192,22627,1,0,0:0:0:0:
256,192,23027,1,0,0:0:0:0:
256,192,23427,1,8,0:0:0:0:
256,192,23827,1,0,0:0:0:0:
256,192,24027,1,0,0:0:0:0:
256,192,24227,1,8,0:0:0:0:
256,192,24627,1,8,0:0:0:0:
256,192,24827,1,0,0:0:0:0:
256,192,25027,1,12,0:0:0:0:
256,192,25827,5,4,0:0:0:0:
256,192,26227,1,0,0:0:0:0:
256,192,26427,1,8,0:0:0:0:
256,192,26627,1,0,0:0:0:0:
256,192,27027,1,0,0:0:0:0:
256,192,27427,1,8,0:0:0:0:
256,192,27627,1,0,0:0:0:0:
256,192,27827,1,8,0:0:0:0:
256,192,28027,1,0,0:0:0:0:
256,192,28227,1,8,0:0:0:0:
256,192,29027,1,8,0:0:0:0:
256,192,29227,1,8,0:0:0:0:
256,192,29427,1,0,0:0:0:0:
256,192,29827,1,0,0:0:0:0:
256,192,30027,1,0,0:0:0:0:
256,192,30227,1,8,0:0:0:0:
256,192,30627,1,0,0:0:0:0:
256,192,30827,1,0,0:0:0:0:
256,192,31027,1,8,0:0:0:0:
256,192,31227,1,8,0:0:0:0:
256,192,31427,1,0,0:0:0:0:
256,192,31827,1,8,0:0:0:0:
256,192,32227,1,4,0:0:0:0:
256,192,33027,1,0,0:0:0:0:
256,192,33427,1,8,0:0:0:0:
256,192,33627,1,8,0:0:0:0:
256,192,33827,1,0,0:0:0:0:
256,192,34227,1,0,0:0:0:0:
256,192,34627,1,8,0:0:0:0:
256,192,35427,1,0,0:0:0:0:
256,192,35627,1,8,0:0:0:0:
256,192,35827,1,0,0:0:0:0:
256,192,36227,1,8,0:0:0:0:
256,192,36427,1,0,0:0:0:0:
256,192,36627,1,8,0:0:0:0:
256,192,37027,1,8,0:0:0:0:
256,192,37227,1,8,0:0:0:0:
256,192,37427,1,0,0:0:0:0:
256,192,37627,1,0,0:0:0:0:
256,192,37827,1,8,0:0:0:0:
256,192,38627,1,0,0:0:0:0:
256,192,38827,1,8,0:0:0:0:
256,192,39227,1,8,0:0:0:0:
256,192,39427,1,0,0:0:0:0:
256,192,39827,1,8,0:0:0:0:
256,192,40227,1,0,0:0:0:0:
256,192,40627,1,0,0:0:0:0:
256,192,40827,1,0,0:0:0:0:
256,192,41027,1,8,0:0:0:0:
256,192,41827,1,8,0:0:0:0:
256,192,42027,1,0,0:0:0:0:
256,192,42227,1,8,0:0:0:0:
256,192,42427,1,8,0:0:0:0:
256,192,42627,1,0,0:0:0:0:
256,192,43027,1,8,0:0:0:0:
256,192,43427,1,0,0:0:0:0:
256,192,43627,1,8,0:0:0:0:
256,192,43827,1,0,0:0:0:0:
256,192,44027,1,0,0:0:0:0:
256,192,44227,1,8,0:0:0:0:
256,192,44627,1,8,0:0:0:0:
256,192,45027,1,0,0:0:0:0:
256,192,45227,1,8,0:0:0:0:
256,192,45627,1,8,0:0:0:0:
256,192,45827,1,0,0:0:0:0:
256,192,46227,1,0,0:0:0:0:
256,192,46427,1,8,0:0:0:0:
256,192,46627,1,0,0:0:0:0:
256,192,47027,1,0,0:0:0:0:
256,192,47427,1,8,0:0:0:0:
256,192,48227,1,0,0:0:0:0:
256,192,48427,1,0,0:0:0:0:
256,192,48627,1,8,0:0:0:0:
256,192,48827,1,8,0:0:0:0:
256,192,49027,1,0,0:0:0:0:
256,192,49427,1,0,0:0:0:0:
256,192,49827,1,8,0:0:0:0:
256,192,50027,1,8,0:0:0:0:
256,192,50227,1,0,0:0:0:0:
256,192,50427,1,0,0:0:0:0:
256,192,50627,1,8,0:0:0:0:
256,192,51427,1,4,0:0:0:0:
256,192,52227,1,0,0:0:0:0:
256,192,53027,1,8,0:0:0:0:
256,192,53827,1,8,0:0:0:0:
256,192,54627,1,0,0:0:0:0:
256,192,55427,1,0,0:0:0:0:
256,192,56227,1,8,0:0:0:0:
256,192,57027,1,0,0:0:0:0:
256,192,57827,1,8,0:0:0:0:
256,192,58627,1,0,0:0:0:0:
256,192,59427,1,8,0:0:0:0:
256,192,60227,1,8,0:0:0:0:
256,192,61027,1,0,0:0:0:0:
256,192,61827,1,8,0:0:0:0:
256,192,62627,1,0,0:0:0:0:
256,192,63427,1,8,0:0:0:0:
256,192,69827,12,0,70427,0:0:0:0:
256,192,70627,5,0,0:0:0:0:
256,192,71227,1,0,0:0:0:0:
256,192,71827,1,0,0:0:0:0:
256,192,72227,1,8,0:0:0:0:
256,192,72827,1,8,0:0:0:0:
256,192,73427,1,8,0:0:0:0:
256,192,73827,1,0,0:0:0:0:
256,192,74427,1,0,0:0:0:0:
256,192,75027,1,0,0:0:0:0:
256,192,75427,1,8,0:0:0:0:
256,192,76227,1,8,0:0:0:0:
256,192,76627,1,8,0:0:0:0:
256,192,77027,1,0,0:0:0:0:
256,192,77327,1,0,0:0:0:0:
256,192,77627,1,8,0:0:0:0:
256,192,78227,1,8,0:0:0:0:
256,192,78627,1,0,0:0:0:0:
256,192,78927,1,0,0:0:0:0:
256,192,79227,1,8,0:0:0:0:
256,192,79827,1,8,0:0:0:0:
256,192,80227,1,0,0:0:0:0:
256,192,80427,1,0,0:0:0:0:
256,192,81027,1,8,0:0:0:0:
256,192,81227,1,8,0:0:0:0:
256,192,81827,1,0,0:0:0:0:
256,192,82027,1,0,0:0:0:0:
256,192,82227,1,8,0:0:0:0:
256,192,82427,1,8,0:0:0:0:
256,192,83427,5,0,0:0:0:0:
256,192,83727,1,8,0:0:0:0:
256,192,84027,1,0,0:0:0:0:
256,192,84427,1,0,0:0:0:0:
256,192,84627,1,8,0:0:0:0:
256,192,85027,1,8,0:0:0:0:
256,192,85327,1,0,0:0:0:0:
256,192,85627,1,8,0:0:0:0:
256,192,85827,1,0,0:0:0:0:
256,192,86227,1,8,0:0:0:0:
256,192,86627,1,0,0:0:0:0:
256,192,86927,1,0,0:0:0:0:
256,192,87227,1,8,0:0:0:0:
256,192,87627,1,0,0:0:0:0:
256,192,87827,1,8,0:0:0:0:
256,192,88227,1,0,0:0:0:0:
256,192,88627,1,0,0:0:0:0:
256,192,89027,1,8,0:0:0:0:
256,192,89827,1,0,0:0:0:0:
256,192,90127,1,8,0:0:0:0:
256,192,90427,1,0,0:0:0:0:
256,192,90827,1,0,0:0:0:0:
256,192,91027,1,8,0:0:0:0:
256,192,91227,1,0,0:0:0:0:
256,192,91427,1,8,0:0:0:0:
256,192,91727,1,8,0:0:0:0:
256,192,92027,1,0,0:0:0:0:
256,192,92227,1,8,0:0:0:0:
256,192,92627,1,8,0:0:0:0:
256,192,93027,1,0,0:0:0:0:
256,192,93327,1,0,0:0:0:0:
256,192,93627,1,8,0:0:0:0:
256,192,94027,1,8,0:0:0:0:
256,192,94227,1,0,0:0:0:0:
256,192,94427,1,8,0:0:0:0:
256,192,94627,1,0,0:0:0:0:
256,192,95027,1,0,0:0:0:0:
256,192,95427,1,8,0:0:0:0:
256,192,96227,1,8,0:0:0:0:
256,192,96427,1,0,0:0:0:0:
256,192,96627,1,8,0:0:0:0:
256,192,96827,1,0,0:0:0:0:
256,192,97027,1,8,0:0:0:0:
256,192,97427,1,8,0:0:0:0:
256,192,97827,1,0,0:0:0:0:
256,192,98027,1,8,0:0:0:0:
256,192,98227,1,0,0:0:0:0:
256,192,98427,1,8,0:0:0:0:
256,192,98627,1,0,0:0:0:0:
256,192,99027,1,0,0:0:0:0:
224,192,99227,1,0,0:0:0:0:
256,192,99427,1,8,0:0:0:0:
256,192,99827,1,8,0:0:0:0:
256,192,100227,1,0,0:0:0:0:
256,192,100427,1,8,0:0:0:0:
256,192,100627,1,8,0:0:0:0:
256,192,101027,1,0,0:0:0:0:
256,192,101227,1,8,0:0:0:0:
256,192,101427,1,8,0:0:0:0:
256,192,101627,1,0,0:0:0:0:
256,192,101827,1,8,0:0:0:0:
256,192,102627,1,8,0:0:0:0:
256,192,102827,1,8,0:0:0:0:
256,192,103027,1,0,0:0:0:0:
256,192,103227,1,0,0:0:0:0:
256,192,103427,1,8,0:0:0:0:
256,192,103827,1,8,0:0:0:0:
256,192,104227,1,0,0:0:0:0:
256,192,104427,1,0,0:0:0:0:
256,192,104627,1,8,0:0:0:0:
256,192,104827,1,8,0:0:0:0:
256,192,105027,1,0,0:0:0:0:
256,192,105427,1,8,0:0:0:0:
256,192,105627,1,0,0:0:0:0:
256,192,105827,1,8,0:0:0:0:
256,192,106227,1,8,0:0:0:0:
256,192,106627,1,8,0:0:0:0:
256,192,106827,1,8,0:0:0:0:
256,192,107027,1,8,0:0:0:0:
256,192,107427,1,8,0:0:0:0:
256,192,107627,1,8,0:0:0:0:
256,192,107827,1,0,0:0:0:0:
256,192,108027,1,0,0:0:0:0:
256,192,108227,1,8,0:0:0:0:
256,192,108427,1,8,0:0:0:0:
256,192,109027,1,0,0:0:0:0:
256,192,109827,1,8,0:0:0:0:
256,192,110427,1,0,0:0:0:0:
256,192,110627,1,0,0:0:0:0:
256,192,111027,1,0,0:0:0:0:
256,192,111427,1,8,0:0:0:0:
256,192,112027,1,0,0:0:0:0:
256,192,112227,1,0,0:0:0:0:
256,192,113027,1,8,0:0:0:0:
256,192,113427,1,0,0:0:0:0:
256,192,113827,1,0,0:0:0:0:
256,192,114427,1,0,0:0:0:0:
256,192,114627,1,8,0:0:0:0:
256,192,115427,1,0,0:0:0:0:
256,192,116227,1,8,0:0:0:0:
256,192,116827,1,0,0:0:0:0:
256,192,117027,1,0,0:0:0:0:
256,192,117427,1,0,0:0:0:0:
256,192,117827,1,8,0:0:0:0:
256,192,118627,1,0,0:0:0:0:
256,192,119427,1,8,0:0:0:0:
256,192,119827,1,0,0:0:0:0:
256,192,120227,1,0,0:0:0:0:
256,192,120827,1,0,0:0:0:0:
256,192,121027,1,8,0:0:0:0:
256,192,121827,1,4,0:0:0:0:
