osu file format v14

[General]
AudioFilename: audio.mp3
AudioLeadIn: 0
PreviewTime: 83427
Countdown: 0
SampleSet: Normal
StackLeniency: 0.7
Mode: 1
LetterboxInBreaks: 0
WidescreenStoryboard: 1

[Editor]
DistanceSpacing: 1.05
BeatDivisor: 4
GridSize: 32
TimelineZoom: 3.499999

[Metadata]
Title:Hold Angel
TitleUnicode:Hold Angel
Artist:you
ArtistUnicode:you
Creator:Whulf
Version:Inner Oni
Source:
Tags:speedcore 600 OVER!!! Psycho Filth Records Metzo liku the law the_law hivie nevqr never Electronic Instrumental fa featured artist mappers guild mg
BeatmapID:4468407
BeatmapSetID:1354083

[Difficulty]
HPDrainRate:5.5
CircleSize:2
OverallDifficulty:6.5
ApproachRate:10
SliderMultiplier:1.4
SliderTickRate:2

[Events]
//Background and Video events
0,0,"www.png",0,0
//Break Periods
2,64227,69377
//Storyboard Layer 0 (Background)
//Storyboard Layer 1 (Fail)
//Storyboard Layer 2 (Pass)
//Storyboard Layer 3 (Foreground)
//Storyboard Layer 4 (Overlay)
//Storyboard Sound Samples

[TimingPoints]
227,200,4,1,0,70,1,0
227,-133.333333333333,4,1,0,70,0,0
12227,-114.942528735632,4,1,0,80,0,0
13027,-125,4,1,0,75,0,0
25827,-100,4,1,0,100,0,0
50626,-100,4,1,0,100,0,0
51426,-101.509433962264,4,1,0,95,0,0
51826,-102.281368821293,4,1,0,95,0,0
52026,-102.671755725191,4,1,0,95,0,0
52226,-103.065134099617,4,1,0,95,0,0
52426,-103.461538461538,4,1,0,95,0,0
52626,-103.861003861004,4,1,0,95,0,0
52826,-104.263565891473,4,1,0,95,0,0
53026,-104.669260700389,4,1,0,90,0,0
53426,-105.490196078431,4,1,0,90,0,0
53626,-105.905511811024,4,1,0,90,0,0
53826,-106.324110671937,4,1,0,90,0,0
54026,-106.746031746032,4,1,0,90,0,0
54226,-107.171314741036,4,1,0,90,0,0
54426,-107.6,4,1,0,90,0,0
54626,-108.032128514056,4,1,0,85,0,0
55026,-108.906882591093,4,1,0,85,0,0
55226,-109.349593495935,4,1,0,85,0,0
55426,-109.795918367347,4,1,0,85,0,0
55626,-110.245901639344,4,1,0,85,0,0
55826,-110.699588477366,4,1,0,85,0,0
56026,-111.157024793388,4,1,0,85,0,0
56226,-111.618257261411,4,1,0,80,0,0
56626,-112.55230125523,4,1,0,80,0,0
56826,-113.025210084034,4,1,0,80,0,0
57026,-113.502109704641,4,1,0,80,0,0
57226,-113.983050847458,4,1,0,80,0,0
57426,-114.468085106383,4,1,0,80,0,0
57626,-114.957264957265,4,1,0,80,0,0
57826,-115.450643776824,4,1,0,75,0,0
58226,-116.450216450216,4,1,0,75,0,0
58426,-116.95652173913,4,1,0,75,0,0
58626,-117.467248908297,4,1,0,75,0,0
58826,-117.982456140351,4,1,0,75,0,0
59026,-118.502202643172,4,1,0,75,0,0
59226,-119.026548672566,4,1,0,75,0,0
59426,-119.555555555556,4,1,0,70,0,0
59826,-120.627802690583,4,1,0,70,0,0
60026,-121.171171171171,4,1,0,70,0,0
60226,-121.719457013575,4,1,0,70,0,0
60426,-122.272727272727,4,1,0,70,0,0
60626,-122.831050228311,4,1,0,70,0,0
60826,-123.394495412844,4,1,0,70,0,0
61026,-123.963133640553,4,1,0,65,0,0
61426,-125.116279069767,4,1,0,65,0,0
61626,-125.700934579439,4,1,0,65,0,0
61826,-126.291079812207,4,1,0,65,0,0
62026,-126.88679245283,4,1,0,65,0,0
62226,-127.488151658768,4,1,0,65,0,0
62426,-128.095238095238,4,1,0,65,0,0
62626,-128.708133971292,4,1,0,60,0,0
63026,-129.951690821256,4,1,0,60,0,0
63226,-130.582524271845,4,1,0,60,0,0
63426,-131.219512195122,4,1,0,60,0,0
63626,-131.862745098039,4,1,0,60,0,0
63826,-132.512315270936,4,1,0,60,0,0
64026,-133.168316831683,4,1,0,60,0,0
69827,-90.9090909090909,4,1,0,75,0,0
70627,-133.333333333333,4,1,0,70,0,0
76326,-133.333333333333,4,1,0,70,0,0
76426,-132.575757575758,4,1,0,70,0,0
76626,-131.086142322097,4,1,0,70,0,0
76726,-130.353817504655,4,1,0,70,0,0
76826,-129.62962962963,4,1,0,70,0,0
76926,-128.913443830571,4,1,0,70,0,0
77026,-128.205128205128,4,1,0,75,0,0
77926,-128.205128205128,4,1,0,75,0,0
78026,-127.551020408163,4,1,0,75,0,0
78226,-126.262626262626,4,1,0,75,0,0
78326,-125.628140703518,4,1,0,75,0,0
78426,-125,4,1,0,75,0,0
78526,-124.378109452736,4,1,0,75,0,0
78626,-123.762376237624,4,1,0,80,0,0
79526,-123.762376237624,4,1,0,80,0,0
79626,-123.112278397899,4,1,0,80,0,0
79826,-121.832358674464,4,1,0,80,0,0
79926,-121.20232708468,4,1,0,80,0,0
80026,-120.578778135048,4,1,0,80,0,0
80126,-119.961612284069,4,1,0,80,0,0
80226,-119.350732017823,4,1,0,85,0,0
80427,-114.942528735632,4,1,0,90,0,0
80726,-114.942528735632,4,1,0,90,0,0
80826,-113.207547169811,4,1,0,90,0,0
80926,-111.524163568773,4,1,0,90,0,0
81026,-109.89010989011,4,1,0,95,0,0
81227,-106.382978723404,4,1,0,95,0,0
81826,-106.382978723404,4,1,0,95,0,0
81876,-105.960264900662,4,1,0,95,0,0
81926,-105.540897097625,4,1,0,95,0,0
82026,-104.712041884817,4,1,0,95,0,0
82226,-103.092783505155,4,1,0,95,0,0
82276,-102.695763799743,4,1,0,95,0,0
82326,-102.30179028133,4,1,0,95,0,0
82426,-101.522842639594,4,1,0,95,0,0
82626,-100,4,1,0,95,0,0
83427,-100,4,1,0,100,0,1
95427,-100,4,1,0,100,0,0
96227,-100,4,1,0,100,0,1
108627,-100,4,1,0,100,0,0
109027,-125,4,1,0,70,0,0

[HitObjects]
214,183,227,5,4,0:0:0:0:
205,160,427,1,0,0:0:0:0:
204,158,627,1,8,0:0:0:0:
204,158,827,1,8,0:0:0:0:
204,158,927,1,8,0:0:0:0:
108,151,1027,1,8,0:0:0:0:
205,160,1227,1,0,0:0:0:0:
108,151,1427,1,0,0:0:0:0:
293,97,1527,1,8,0:0:0:0:
220,106,1627,1,0,0:0:0:0:
181,92,1727,1,0,0:0:0:0:
220,106,1827,1,8,0:0:0:0:
242,100,2027,1,0,0:0:0:0:
288,81,2227,1,8,0:0:0:0:
278,98,2327,1,0,0:0:0:0:
288,81,2427,1,8,0:0:0:0:
157,55,2627,1,8,0:0:0:0:
157,55,2827,1,0,0:0:0:0:
157,55,3027,1,8,0:0:0:0:
157,55,3127,1,0,0:0:0:0:
157,55,3227,1,8,0:0:0:0:
276,92,3327,1,8,0:0:0:0:
281,102,3427,1,0,0:0:0:0:
281,102,3627,1,0,0:0:0:0:
281,102,3827,1,8,0:0:0:0:
281,102,4027,1,8,0:0:0:0:
281,102,4127,1,8,0:0:0:0:
257,80,4227,1,0,0:0:0:0:
254,80,4427,1,0,0:0:0:0:
191,75,4627,1,8,0:0:0:0:
276,92,4727,1,8,0:0:0:0:
197,71,4827,1,0,0:0:0:0:
197,71,4927,1,8,0:0:0:0:
191,75,5027,1,0,0:0:0:0:
191,75,5227,1,8,0:0:0:0:
191,75,5427,1,0,0:0:0:0:
188,78,5527,1,0,0:0:0:0:
194,80,5627,1,8,0:0:0:0:
195,151,5827,1,8,0:0:0:0:
271,176,6027,1,0,0:0:0:0:
256,118,6127,1,0,0:0:0:0:
221,52,6227,1,8,0:0:0:0:
221,52,6327,1,0,0:0:0:0:
221,52,6427,1,8,0:0:0:0:
221,52,6477,1,8,0:0:0:0:
141,136,6527,1,8,0:0:0:0:
221,52,6627,1,4,0:0:0:0:
205,178,6827,1,0,0:0:0:0:
205,178,7027,1,8,0:0:0:0:
205,178,7227,1,8,0:0:0:0:
205,178,7327,1,8,0:0:0:0:
205,178,7427,1,0,0:0:0:0:
257,217,7627,1,0,0:0:0:0:
257,217,7827,1,8,0:0:0:0:
276,92,7927,1,0,0:0:0:0:
221,144,8027,1,0,0:0:0:0:
257,217,8127,1,8,0:0:0:0:
257,217,8227,1,8,0:0:0:0:
221,144,8427,1,0,0:0:0:0:
221,144,8627,1,8,0:0:0:0:
221,144,8727,1,0,0:0:0:0:
221,144,8827,1,8,0:0:0:0:
175,89,9027,1,8,0:0:0:0:
175,89,9227,1,0,0:0:0:0:
261,88,9427,1,8,0:0:0:0:
375,118,9527,1,0,0:0:0:0:
272,67,9627,1,0,0:0:0:0:
272,67,9727,1,0,0:0:0:0:
272,67,9827,1,8,0:0:0:0:
272,67,10027,1,8,0:0:0:0:
272,67,10227,1,0,0:0:0:0:
272,67,10427,1,8,0:0:0:0:
272,67,10527,1,0,0:0:0:0:
272,67,10627,1,0,0:0:0:0:
272,67,10827,1,8,0:0:0:0:
412,270,11027,1,0,0:0:0:0:
358,108,11127,1,8,0:0:0:0:
412,270,11227,1,0,0:0:0:0:
412,270,11327,1,8,0:0:0:0:
283,167,11427,1,0,0:0:0:0:
177,60,11627,1,8,0:0:0:0:
177,60,11827,1,0,0:0:0:0:
177,60,11927,1,0,0:0:0:0:
177,60,12027,1,8,0:0:0:0:
357,169,12227,1,4,0:0:0:0:
380,189,13027,1,12,0:0:0:0:
354,175,13227,1,8,0:0:0:0:
354,175,13427,1,8,0:0:0:0:
354,175,13627,1,8,0:0:0:0:
354,175,13727,1,8,0:0:0:0:
354,175,13827,1,0,0:0:0:0:
214,237,14027,1,0,0:0:0:0:
214,237,14227,1,8,0:0:0:0:
405,279,14327,1,0,0:0:0:0:
223,232,14427,1,0,0:0:0:0:
224,231,14527,1,8,0:0:0:0:
219,89,14627,1,8,0:0:0:0:
219,89,14827,1,0,0:0:0:0:
219,89,15027,1,8,0:0:0:0:
111,123,15127,1,8,0:0:0:0:
111,123,15227,1,8,0:0:0:0:
111,123,15427,1,0,0:0:0:0:
111,123,15627,1,0,0:0:0:0:
111,123,15827,1,8,0:0:0:0:
324,137,15927,1,0,0:0:0:0:
111,123,16027,1,8,0:0:0:0:
111,123,16127,1,8,0:0:0:0:
124,111,16227,1,0,0:0:0:0:
124,111,16427,1,0,0:0:0:0:
124,111,16627,1,8,0:0:0:0:
124,111,16827,1,8,0:0:0:0:
124,109,16927,1,8,0:0:0:0:
124,111,17027,1,0,0:0:0:0:
124,111,17227,1,0,0:0:0:0:
124,111,17427,1,8,0:0:0:0:
296,162,17527,1,0,0:0:0:0:
305,112,17627,1,0,0:0:0:0:
305,112,17727,1,8,0:0:0:0:
236,73,17827,1,0,0:0:0:0:
274,91,18027,1,8,0:0:0:0:
165,60,18227,1,0,0:0:0:0:
165,60,18327,1,0,0:0:0:0:
165,60,18427,1,8,0:0:0:0:
165,60,18627,1,0,0:0:0:0:
350,113,18677,1,0,0:0:0:0:
359,110,18727,1,0,0:0:0:0:
298,115,18827,1,8,0:0:0:0:
315,111,19027,1,8,0:0:0:0:
314,111,19077,1,8,0:0:0:0:
316,110,19127,1,8,0:0:0:0:
313,104,19227,1,0,0:0:0:0:
288,113,19427,1,4,0:0:0:0:
388,159,19627,1,0,0:0:0:0:
388,159,19827,1,8,0:0:0:0:
388,159,20027,1,8,0:0:0:0:
388,159,20127,1,8,0:0:0:0:
388,159,20227,1,0,0:0:0:0:
388,159,20427,1,0,0:0:0:0:
388,159,20627,1,8,0:0:0:0:
276,141,20727,1,0,0:0:0:0:
148,111,20827,1,8,0:0:0:0:
148,111,20927,1,8,0:0:0:0:
276,141,21027,1,8,0:0:0:0:
148,111,21227,1,0,0:0:0:0:
148,111,21427,1,8,0:0:0:0:
153,106,21527,1,0,0:0:0:0:
155,105,21627,1,8,0:0:0:0:
158,104,21827,1,0,0:0:0:0:
158,104,22027,1,0,0:0:0:0:
158,104,22227,1,8,0:0:0:0:
256,108,22327,1,8,0:0:0:0:
155,105,22427,1,8,0:0:0:0:
158,104,22527,1,8,0:0:0:0:
158,104,22627,1,0,0:0:0:0:
158,104,22827,1,0,0:0:0:0:
158,104,23027,1,8,0:0:0:0:
155,105,23227,1,0,0:0:0:0:
158,104,23327,1,0,0:0:0:0:
158,104,23427,1,8,0:0:0:0:
158,104,23627,1,8,0:0:0:0:
158,104,23827,1,0,0:0:0:0:
256,108,23927,1,0,0:0:0:0:
161,84,24027,1,0,0:0:0:0:
161,84,24127,1,0,0:0:0:0:
163,84,24227,1,8,0:0:0:0:
258,110,24427,1,8,0:0:0:0:
258,110,24627,1,0,0:0:0:0:
258,110,24727,1,8,0:0:0:0:
194,24,24827,1,0,0:0:0:0:
194,24,25027,1,12,0:0:0:0:
267,160,25827,5,0,0:0:0:0:
187,136,26027,1,8,0:0:0:0:
179,127,26077,1,8,0:0:0:0:
267,160,26127,1,0,0:0:0:0:
179,127,26227,1,8,0:0:0:0:
179,127,26327,1,0,0:0:0:0:
179,127,26427,1,0,0:0:0:0:
178,126,26527,1,8,0:0:0:0:
178,126,26627,1,0,0:0:0:0:
178,126,26677,1,0,0:0:0:0:
178,126,26727,1,8,0:0:0:0:
177,124,26827,1,8,0:0:0:0:
179,127,26927,1,0,0:0:0:0:
179,127,27027,1,8,0:0:0:0:
179,127,27077,1,8,0:0:0:0:
179,127,27127,1,8,0:0:0:0:
174,120,27227,1,0,0:0:0:0:
174,120,27327,1,0,0:0:0:0:
395,248,27427,1,8,0:0:0:0:
337,189,27627,1,8,0:0:0:0:
337,189,27677,1,8,0:0:0:0:
337,189,27727,1,8,0:0:0:0:
258,122,27827,1,0,0:0:0:0:
258,122,27927,1,8,0:0:0:0:
258,122,28027,1,0,0:0:0:0:
258,122,28127,1,0,0:0:0:0:
258,122,28227,1,8,0:0:0:0:
220,33,28277,1,0,0:0:0:0:
220,33,28327,1,8,0:0:0:0:
220,33,28427,1,0,0:0:0:0:
220,33,28527,1,8,0:0:0:0:
220,33,28627,1,0,0:0:0:0:
220,33,28677,1,0,0:0:0:0:
220,33,28727,1,8,0:0:0:0:
156,131,28827,1,8,0:0:0:0:
160,125,28927,1,0,0:0:0:0:
388,132,29027,1,12,0:0:0:0:
357,235,29227,1,0,0:0:0:0:
357,235,29427,1,8,0:0:0:0:
315,221,29627,1,0,0:0:0:0:
212,69,29727,1,0,0:0:0:0:
315,221,29827,1,0,0:0:0:0:
212,69,30027,1,8,0:0:0:0:
212,69,30227,1,0,0:0:0:0:
242,39,30327,1,0,0:0:0:0:
212,69,30427,1,8,0:0:0:0:
230,54,30477,1,8,0:0:0:0:
230,55,30527,1,0,0:0:0:0:
136,63,30627,1,8,0:0:0:0:
384,238,30827,1,0,0:0:0:0:
147,63,31027,1,8,0:0:0:0:
147,63,31227,1,0,0:0:0:0:
147,63,31327,1,8,0:0:0:0:
272,133,31427,1,0,0:0:0:0:
360,200,31627,1,0,0:0:0:0:
109,165,31827,1,0,0:0:0:0:
314,97,32027,1,12,0:0:0:0:
267,160,32227,5,0,0:0:0:0:
187,136,32427,1,8,0:0:0:0:
236,58,32477,1,0,0:0:0:0:
200,41,32527,1,8,0:0:0:0:
200,41,32627,1,0,0:0:0:0:
200,41,32727,1,8,0:0:0:0:
200,41,32827,1,0,0:0:0:0:
200,41,32927,1,0,0:0:0:0:
200,41,33027,1,8,0:0:0:0:
200,41,33077,1,8,0:0:0:0:
178,126,33127,1,8,0:0:0:0:
200,41,33227,1,0,0:0:0:0:
200,41,33327,1,8,0:0:0:0:
200,41,33427,1,0,0:0:0:0:
200,41,33477,1,0,0:0:0:0:
179,127,33527,1,8,0:0:0:0:
174,120,33627,1,0,0:0:0:0:
200,41,33727,1,8,0:0:0:0:
200,41,33827,1,0,0:0:0:0:
200,41,34027,1,0,0:0:0:0:
145,13,34077,1,0,0:0:0:0:
145,13,34127,1,8,0:0:0:0:
145,13,34227,1,0,0:0:0:0:
145,13,34327,1,8,0:0:0:0:
145,13,34427,1,0,0:0:0:0:
145,13,34527,1,8,0:0:0:0:
179,34,34627,1,0,0:0:0:0:
220,33,34677,1,0,0:0:0:0:
220,33,34727,1,8,0:0:0:0:
220,33,34827,1,0,0:0:0:0:
220,33,34927,1,8,0:0:0:0:
220,33,35027,1,0,0:0:0:0:
179,34,35077,1,0,0:0:0:0:
220,33,35127,1,0,0:0:0:0:
179,34,35227,1,8,0:0:0:0:
179,34,35327,1,0,0:0:0:0:
388,132,35427,1,12,0:0:0:0:
409,266,35627,1,0,0:0:0:0:
409,266,35827,1,8,0:0:0:0:
214,80,36027,1,8,0:0:0:0:
214,80,36077,1,8,0:0:0:0:
214,80,36127,1,8,0:0:0:0:
216,87,36227,1,0,0:0:0:0:
213,87,36427,1,8,0:0:0:0:
308,106,36477,1,0,0:0:0:0:
207,95,36527,1,8,0:0:0:0:
175,75,36627,1,0,0:0:0:0:
228,181,36827,1,0,0:0:0:0:
299,188,36877,1,0,0:0:0:0:
385,272,36927,1,8,0:0:0:0:
411,217,37027,1,0,0:0:0:0:
411,217,37227,1,0,0:0:0:0:
404,214,37427,1,8,0:0:0:0:
317,193,37527,1,8,0:0:0:0:
404,214,37627,1,0,0:0:0:0:
416,145,37827,1,12,0:0:0:0:
393,252,38227,1,0,0:0:0:0:
393,252,38327,1,8,0:0:0:0:
393,252,38427,1,8,0:0:0:0:
393,252,38527,1,0,0:0:0:0:
364,127,38627,1,8,0:0:0:0:
364,127,38827,1,0,0:0:0:0:
364,127,38877,1,0,0:0:0:0:
364,127,38927,1,0,0:0:0:0:
364,127,39027,1,8,0:0:0:0:
364,127,39127,1,8,0:0:0:0:
315,114,39227,1,0,0:0:0:0:
315,114,39327,1,8,0:0:0:0:
263,95,39527,5,0,0:0:0:0:
196,39,39577,1,0,0:0:0:0:
196,39,39627,1,8,0:0:0:0:
196,39,39727,1,8,0:0:0:0:
195,47,39827,1,0,0:0:0:0:
195,48,39877,1,0,0:0:0:0:
195,48,39927,1,0,0:0:0:0:
162,122,40027,1,8,0:0:0:0:
162,132,40227,1,8,0:0:0:0:
162,132,40277,1,8,0:0:0:0:
162,132,40327,1,0,0:0:0:0:
162,132,40427,1,8,0:0:0:0:
163,132,40527,1,8,0:0:0:0:
163,132,40627,1,0,0:0:0:0:
214,81,40827,1,8,0:0:0:0:
237,170,40927,1,0,0:0:0:0:
237,170,41027,1,8,0:0:0:0:
237,170,41077,1,8,0:0:0:0:
237,170,41127,1,8,0:0:0:0:
237,170,41227,1,0,0:0:0:0:
281,170,41427,1,8,0:0:0:0:
220,117,41527,1,0,0:0:0:0:
220,117,41627,1,8,0:0:0:0:
220,117,41677,1,8,0:0:0:0:
220,117,41727,1,0,0:0:0:0:
215,132,41827,1,8,0:0:0:0:
215,132,42027,1,0,0:0:0:0:
151,150,42127,1,0,0:0:0:0:
212,130,42227,1,8,0:0:0:0:
126,112,42277,1,8,0:0:0:0:
212,129,42327,1,0,0:0:0:0:
212,129,42427,1,8,0:0:0:0:
269,127,42527,1,0,0:0:0:0:
227,137,42627,1,8,0:0:0:0:
185,21,42827,1,8,0:0:0:0:
198,81,42877,1,8,0:0:0:0:
168,48,42927,1,8,0:0:0:0:
185,21,43027,1,0,0:0:0:0:
185,21,43127,1,8,0:0:0:0:
185,21,43227,1,0,0:0:0:0:
185,21,43277,1,0,0:0:0:0:
143,46,43327,1,0,0:0:0:0:
154,181,43427,1,8,0:0:0:0:
154,181,43627,1,0,0:0:0:0:
154,181,43827,1,8,0:0:0:0:
154,181,43877,1,8,0:0:0:0:
154,181,43927,1,8,0:0:0:0:
154,181,44027,1,0,0:0:0:0:
117,25,44227,1,8,0:0:0:0:
117,25,44277,1,8,0:0:0:0:
117,25,44327,1,0,0:0:0:0:
189,53,44427,1,8,0:0:0:0:
189,53,44527,1,0,0:0:0:0:
155,86,44727,1,8,0:0:0:0:
155,86,44827,1,0,0:0:0:0:
193,73,44877,1,0,0:0:0:0:
193,73,44927,1,8,0:0:0:0:
198,181,45027,1,0,0:0:0:0:
198,181,45127,1,8,0:0:0:0:
191,177,45227,1,8,0:0:0:0:
170,45,45327,1,0,0:0:0:0:
157,45,45627,1,0,0:0:0:0:
221,32,45677,1,8,0:0:0:0:
209,23,45727,1,0,0:0:0:0:
202,30,45927,1,8,0:0:0:0:
201,30,45977,1,8,0:0:0:0:
202,30,46027,1,0,0:0:0:0:
143,45,46227,1,0,0:0:0:0:
143,45,46277,1,0,0:0:0:0:
148,33,46327,1,8,0:0:0:0:
251,84,46427,5,0,0:0:0:0:
251,84,46527,1,8,0:0:0:0:
251,84,46577,1,8,0:0:0:0:
251,84,46627,1,0,0:0:0:0:
251,84,46827,1,0,0:0:0:0:
454,254,46877,1,0,0:0:0:0:
454,254,46927,1,0,0:0:0:0:
454,254,47027,1,8,0:0:0:0:
278,141,47227,1,0,0:0:0:0:
243,111,47327,1,0,0:0:0:0:
243,111,47427,1,8,0:0:0:0:
261,100,47477,1,8,0:0:0:0:
263,100,47527,1,8,0:0:0:0:
310,210,47627,5,0,0:0:0:0:
394,191,47827,1,8,0:0:0:0:
394,191,47927,1,8,0:0:0:0:
321,153,48027,1,0,0:0:0:0:
321,153,48077,1,0,0:0:0:0:
321,153,48127,1,0,0:0:0:0:
238,76,48227,1,8,0:0:0:0:
313,215,48427,1,0,0:0:0:0:
275,200,48627,1,8,0:0:0:0:
275,200,48727,1,8,0:0:0:0:
275,200,48827,1,0,0:0:0:0:
275,200,48877,1,0,0:0:0:0:
275,200,48927,1,8,0:0:0:0:
275,200,49027,1,0,0:0:0:0:
330,211,49227,1,8,0:0:0:0:
330,211,49277,1,8,0:0:0:0:
330,211,49327,1,8,0:0:0:0:
288,207,49627,1,0,0:0:0:0:
287,206,49727,1,8,0:0:0:0:
287,206,49777,1,8,0:0:0:0:
287,206,49827,1,0,0:0:0:0:
162,52,50027,1,0,0:0:0:0:
162,52,50077,1,0,0:0:0:0:
162,52,50127,1,0,0:0:0:0:
162,52,50227,1,8,0:0:0:0:
154,78,50427,1,0,0:0:0:0:
154,78,50527,1,0,0:0:0:0:
384,160,50627,1,12,0:0:0:0:
390,152,51427,1,12,0:0:0:0:
299,150,51827,1,8,0:0:0:0:
299,150,52027,1,8,0:0:0:0:
299,150,52227,1,0,0:0:0:0:
299,150,52427,1,0,0:0:0:0:
299,150,52627,1,8,0:0:0:0:
299,150,52827,1,0,0:0:0:0:
299,150,53027,1,8,0:0:0:0:
299,150,53427,1,0,0:0:0:0:
299,150,53627,1,8,0:0:0:0:
299,150,53827,1,0,0:0:0:0:
299,150,54027,1,0,0:0:0:0:
299,150,54227,1,8,0:0:0:0:
299,150,54427,1,0,0:0:0:0:
299,150,54627,1,8,0:0:0:0:
299,150,55027,1,0,0:0:0:0:
299,150,55227,1,8,0:0:0:0:
299,150,55427,1,0,0:0:0:0:
299,150,55627,1,0,0:0:0:0:
299,150,55827,1,8,0:0:0:0:
299,150,56027,1,0,0:0:0:0:
299,150,56227,1,8,0:0:0:0:
299,150,56627,1,0,0:0:0:0:
299,150,56827,1,0,0:0:0:0:
217,151,57027,1,8,0:0:0:0:
217,151,57227,1,0,0:0:0:0:
217,151,57427,1,8,0:0:0:0:
217,151,57627,1,0,0:0:0:0:
217,151,57827,1,8,0:0:0:0:
217,151,58227,1,0,0:0:0:0:
217,151,58427,1,0,0:0:0:0:
217,151,58627,1,8,0:0:0:0:
217,151,58827,1,0,0:0:0:0:
217,151,59027,1,8,0:0:0:0:
217,151,59227,1,8,0:0:0:0:
217,151,59427,1,0,0:0:0:0:
217,151,59827,1,8,0:0:0:0:
217,151,60027,1,8,0:0:0:0:
217,151,60227,1,0,0:0:0:0:
217,151,60427,1,8,0:0:0:0:
100,139,60627,1,0,0:0:0:0:
55,146,60827,1,0,0:0:0:0:
63,144,61027,1,8,0:0:0:0:
63,144,61427,1,0,0:0:0:0:
63,144,61627,1,0,0:0:0:0:
63,144,61827,1,8,0:0:0:0:
63,144,62027,1,0,0:0:0:0:
63,144,62227,1,8,0:0:0:0:
63,144,62427,1,0,0:0:0:0:
63,144,62627,1,8,0:0:0:0:
63,144,63027,1,0,0:0:0:0:
63,144,63227,1,0,0:0:0:0:
63,144,63427,1,8,0:0:0:0:
63,144,63627,1,0,0:0:0:0:
155,151,63827,1,0,0:0:0:0:
155,151,64027,1,8,0:0:0:0:
256,192,69827,12,0,70427,0:0:0:0:
328,195,70627,5,4,0:0:0:0:
243,158,70827,1,8,0:0:0:0:
243,158,70927,1,0,0:0:0:0:
243,158,71127,1,0,0:0:0:0:
248,168,71227,1,0,0:0:0:0:
248,168,71327,1,8,0:0:0:0:
232,138,71527,1,8,0:0:0:0:
231,137,71627,1,0,0:0:0:0:
230,131,71827,1,8,0:0:0:0:
230,131,71927,1,8,0:0:0:0:
232,138,72027,1,0,0:0:0:0:
232,138,72127,1,8,0:0:0:0:
232,138,72227,1,0,0:0:0:0:
231,137,72427,1,8,0:0:0:0:
230,131,72527,1,0,0:0:0:0:
230,131,72727,1,0,0:0:0:0:
234,131,72827,1,0,0:0:0:0:
234,131,72927,1,8,0:0:0:0:
235,131,73127,1,0,0:0:0:0:
235,131,73227,1,8,0:0:0:0:
241,127,73427,1,8,0:0:0:0:
241,127,73527,1,8,0:0:0:0:
241,127,73627,1,0,0:0:0:0:
241,127,73727,1,0,0:0:0:0:
241,127,73827,1,8,0:0:0:0:
241,127,74027,1,8,0:0:0:0:
241,127,74127,1,0,0:0:0:0:
241,127,74327,1,8,0:0:0:0:
241,127,74427,1,0,0:0:0:0:
241,127,74527,1,8,0:0:0:0:
232,89,74727,1,0,0:0:0:0:
232,89,74827,1,0,0:0:0:0:
143,138,75027,1,8,0:0:0:0:
143,138,75127,1,8,0:0:0:0:
158,126,75227,1,8,0:0:0:0:
158,126,75327,1,0,0:0:0:0:
159,126,75427,1,8,0:0:0:0:
159,126,75627,1,0,0:0:0:0:
159,126,75727,1,8,0:0:0:0:
303,87,75927,1,8,0:0:0:0:
158,126,76027,1,0,0:0:0:0:
158,126,76127,1,8,0:0:0:0:
303,87,76327,1,8,0:0:0:0:
303,87,76427,1,0,0:0:0:0:
211,75,76627,1,8,0:0:0:0:
236,84,76727,1,8,0:0:0:0:
236,84,76827,1,0,0:0:0:0:
236,84,76927,1,8,0:0:0:0:
244,131,77027,1,4,0:0:0:0:
260,74,77227,1,8,0:0:0:0:
261,74,77327,1,0,0:0:0:0:
261,74,77527,1,0,0:0:0:0:
261,74,77627,1,0,0:0:0:0:
260,74,77727,1,8,0:0:0:0:
260,74,77927,1,0,0:0:0:0:
260,74,78027,1,8,0:0:0:0:
261,74,78227,1,8,0:0:0:0:
261,74,78327,1,8,0:0:0:0:
261,74,78427,1,0,0:0:0:0:
425,157,78527,1,8,0:0:0:0:
443,195,78627,1,4,0:0:0:0:
268,171,78827,1,8,0:0:0:0:
268,171,78927,1,0,0:0:0:0:
166,143,79127,1,8,0:0:0:0:
166,143,79227,1,0,0:0:0:0:
174,142,79327,1,8,0:0:0:0:
177,142,79527,1,8,0:0:0:0:
177,142,79627,1,0,0:0:0:0:
177,142,79827,1,8,0:0:0:0:
177,142,79927,1,0,0:0:0:0:
177,142,80027,1,8,0:0:0:0:
174,142,80127,1,8,0:0:0:0:
215,149,80227,1,4,0:0:0:0:
353,130,80427,1,4,0:0:0:0:
229,148,80727,1,0,0:0:0:0:
339,195,80827,1,8,0:0:0:0:
232,148,80927,1,8,0:0:0:0:
403,170,81027,1,4,0:0:0:0:
303,128,81227,1,4,0:0:0:0:
284,184,81527,1,0,0:0:0:0:
241,131,81627,1,8,0:0:0:0:
284,184,81727,1,8,0:0:0:0:
103,127,81827,1,0,0:0:0:0:
103,127,81877,1,0,0:0:0:0:
103,127,81927,1,0,0:0:0:0:
112,129,82027,1,8,0:0:0:0:
114,129,82227,1,8,0:0:0:0:
115,129,82277,1,8,0:0:0:0:
116,129,82327,1,8,0:0:0:0:
116,129,82427,1,0,0:0:0:0:
270,118,82627,1,8,0:0:0:0:
299,145,83427,1,4,0:0:0:0:
299,145,83627,1,8,0:0:0:0:
299,145,83727,1,0,0:0:0:0:
299,145,83927,1,8,0:0:0:0:
256,134,83977,1,8,0:0:0:0:
256,134,84027,1,8,0:0:0:0:
241,126,84127,1,0,0:0:0:0:
424,273,84327,1,8,0:0:0:0:
210,132,84377,1,8,0:0:0:0:
159,49,84427,1,0,0:0:0:0:
159,49,84527,1,0,0:0:0:0:
159,49,84627,1,8,0:0:0:0:
159,49,84727,1,0,0:0:0:0:
159,49,84827,1,8,0:0:0:0:
159,49,84877,1,8,0:0:0:0:
159,49,84927,1,8,0:0:0:0:
159,49,85027,1,0,0:0:0:0:
300,188,85227,1,8,0:0:0:0:
300,188,85327,1,0,0:0:0:0:
300,188,85527,1,0,0:0:0:0:
269,127,85577,1,0,0:0:0:0:
300,188,85627,1,0,0:0:0:0:
269,127,85727,1,8,0:0:0:0:
268,168,85927,1,0,0:0:0:0:
268,168,86027,1,8,0:0:0:0:
268,168,86077,1,8,0:0:0:0:
268,168,86127,1,0,0:0:0:0:
268,168,86227,1,8,0:0:0:0:
268,168,86327,1,8,0:0:0:0:
268,168,86427,1,0,0:0:0:0:
268,168,86477,1,0,0:0:0:0:
268,168,86527,1,0,0:0:0:0:
268,168,86627,1,8,0:0:0:0:
363,122,86827,1,0,0:0:0:0:
363,122,86927,1,8,0:0:0:0:
363,122,87127,1,0,0:0:0:0:
140,108,87177,1,0,0:0:0:0:
178,42,87227,1,8,0:0:0:0:
178,42,87327,1,0,0:0:0:0:
210,92,87527,1,8,0:0:0:0:
210,92,87627,1,0,0:0:0:0:
210,92,87677,1,0,0:0:0:0:
210,92,87727,1,0,0:0:0:0:
210,92,87827,1,8,0:0:0:0:
259,116,87927,1,0,0:0:0:0:
259,116,88027,1,8,0:0:0:0:
259,116,88077,1,8,0:0:0:0:
259,116,88127,1,8,0:0:0:0:
321,173,88227,1,0,0:0:0:0:
321,173,88427,1,0,0:0:0:0:
321,173,88527,1,0,0:0:0:0:
283,201,88627,1,8,0:0:0:0:
271,192,88677,1,8,0:0:0:0:
271,192,88727,1,8,0:0:0:0:
271,192,88827,1,0,0:0:0:0:
271,192,88927,1,0,0:0:0:0:
271,192,89027,1,8,0:0:0:0:
271,192,89077,1,8,0:0:0:0:
271,192,89127,1,8,0:0:0:0:
271,192,89227,1,0,0:0:0:0:
500,281,89327,1,8,0:0:0:0:
299,145,89827,1,4,0:0:0:0:
258,168,90027,1,0,0:0:0:0:
258,168,90127,1,8,0:0:0:0:
299,145,90327,1,8,0:0:0:0:
256,134,90377,1,8,0:0:0:0:
258,168,90427,1,0,0:0:0:0:
258,168,90527,1,8,0:0:0:0:
258,168,90727,1,0,0:0:0:0:
258,168,90777,1,0,0:0:0:0:
258,168,90827,1,0,0:0:0:0:
258,168,90927,1,8,0:0:0:0:
257,166,91027,1,0,0:0:0:0:
257,166,91127,1,8,0:0:0:0:
257,166,91227,1,0,0:0:0:0:
258,168,91277,1,0,0:0:0:0:
159,49,91327,1,8,0:0:0:0:
159,49,91427,1,0,0:0:0:0:
192,117,91627,1,8,0:0:0:0:
300,188,91727,1,0,0:0:0:0:
300,188,91927,1,0,0:0:0:0:
192,117,91977,1,8,0:0:0:0:
300,188,92027,1,0,0:0:0:0:
269,127,92127,1,8,0:0:0:0:
192,117,92327,1,8,0:0:0:0:
192,117,92427,1,0,0:0:0:0:
192,117,92477,1,0,0:0:0:0:
268,168,92527,1,0,0:0:0:0:
268,168,92627,1,8,0:0:0:0:
268,168,92727,1,8,0:0:0:0:
268,168,92827,1,0,0:0:0:0:
192,117,92877,1,0,0:0:0:0:
192,117,92927,1,8,0:0:0:0:
192,117,93027,1,0,0:0:0:0:
363,122,93227,1,8,0:0:0:0:
363,122,93327,1,0,0:0:0:0:
205,83,93527,1,8,0:0:0:0:
199,87,93577,1,8,0:0:0:0:
178,42,93627,1,8,0:0:0:0:
178,42,93727,1,0,0:0:0:0:
210,92,93927,1,8,0:0:0:0:
210,92,94027,1,0,0:0:0:0:
210,92,94077,1,0,0:0:0:0:
210,92,94127,1,0,0:0:0:0:
210,92,94227,1,8,0:0:0:0:
172,110,94327,1,8,0:0:0:0:
172,110,94427,1,0,0:0:0:0:
190,86,94627,1,8,0:0:0:0:
229,130,94727,1,8,0:0:0:0:
233,130,94827,1,0,0:0:0:0:
233,130,94877,1,0,0:0:0:0:
234,132,94927,1,0,0:0:0:0:
234,132,95027,1,8,0:0:0:0:
234,132,95127,1,0,0:0:0:0:
234,132,95227,1,8,0:0:0:0:
234,132,95277,1,8,0:0:0:0:
229,130,95327,1,8,0:0:0:0:
372,177,95427,1,0,0:0:0:0:
316,228,95827,1,8,0:0:0:0:
305,239,96027,1,0,0:0:0:0:
377,235,96127,1,8,0:0:0:0:
299,145,96227,1,0,0:0:0:0:
273,91,96427,1,8,0:0:0:0:
220,91,96527,1,0,0:0:0:0:
257,99,96727,1,8,0:0:0:0:
257,99,96777,1,8,0:0:0:0:
257,99,96827,1,8,0:0:0:0:
253,97,96927,1,0,0:0:0:0:
424,273,97127,1,8,0:0:0:0:
159,49,97227,1,0,0:0:0:0:
159,37,97277,1,0,0:0:0:0:
159,49,97327,1,0,0:0:0:0:
159,49,97427,1,8,0:0:0:0:
159,49,97527,1,0,0:0:0:0:
159,49,97627,1,8,0:0:0:0:
159,49,97677,1,8,0:0:0:0:
182,60,97727,1,0,0:0:0:0:
182,60,97827,1,8,0:0:0:0:
135,182,98027,1,0,0:0:0:0:
135,182,98127,1,8,0:0:0:0:
141,17,98327,1,0,0:0:0:0:
159,72,98377,1,0,0:0:0:0:
160,72,98427,1,0,0:0:0:0:
153,186,98527,1,8,0:0:0:0:
153,186,98727,1,8,0:0:0:0:
153,186,98827,1,0,0:0:0:0:
136,151,98927,1,0,0:0:0:0:
429,251,99027,1,8,0:0:0:0:
429,251,99127,1,8,0:0:0:0:
429,251,99177,1,8,0:0:0:0:
429,251,99227,1,0,0:0:0:0:
429,251,99327,1,8,0:0:0:0:
393,157,99427,1,4,0:0:0:0:
393,157,99827,1,4,0:0:0:0:
329,167,100227,1,0,0:0:0:0:
329,167,100327,1,0,0:0:0:0:
329,167,100427,1,0,0:0:0:0:
393,157,100627,1,4,0:0:0:0:
445,275,100927,1,0,0:0:0:0:
393,157,101027,1,4,0:0:0:0:
393,157,101227,1,4,0:0:0:0:
393,157,101427,1,4,0:0:0:0:
393,157,101627,1,4,0:0:0:0:
437,243,101827,1,8,0:0:0:0:
437,243,101877,1,8,0:0:0:0:
437,243,101927,1,8,0:0:0:0:
437,243,102027,1,0,0:0:0:0:
363,211,102127,1,0,0:0:0:0:
363,211,102227,1,8,0:0:0:0:
363,211,102277,1,8,0:0:0:0:
363,211,102327,1,8,0:0:0:0:
363,211,102427,1,0,0:0:0:0:
363,211,102527,1,0,0:0:0:0:
318,238,102627,1,8,0:0:0:0:
437,299,102827,1,0,0:0:0:0:
437,299,102927,1,8,0:0:0:0:
337,245,103127,1,8,0:0:0:0:
305,239,103177,1,8,0:0:0:0:
337,245,103227,1,8,0:0:0:0:
305,239,103327,1,0,0:0:0:0:
305,239,103527,1,8,0:0:0:0:
271,227,103627,1,0,0:0:0:0:
271,227,103677,1,0,0:0:0:0:
271,227,103727,1,0,0:0:0:0:
271,227,103827,1,8,0:0:0:0:
271,227,103927,1,0,0:0:0:0:
271,227,104027,1,8,0:0:0:0:
274,185,104227,1,0,0:0:0:0:
376,242,104427,1,8,0:0:0:0:
160,13,104527,1,0,0:0:0:0:
408,278,104727,1,0,0:0:0:0:
144,60,104777,1,0,0:0:0:0:
144,60,104827,1,0,0:0:0:0:
170,26,104927,1,8,0:0:0:0:
128,57,105127,1,8,0:0:0:0:
128,57,105177,1,8,0:0:0:0:
167,81,105227,1,8,0:0:0:0:
159,42,105327,1,0,0:0:0:0:
159,42,105427,1,8,0:0:0:0:
501,304,105527,1,0,0:0:0:0:
159,42,105627,1,8,0:0:0:0:
309,114,105827,1,4,0:0:0:0:
309,114,106227,1,4,0:0:0:0:
309,114,106627,1,4,0:0:0:0:
309,114,106827,1,4,0:0:0:0:
309,114,107027,1,4,0:0:0:0:
309,114,107427,1,4,0:0:0:0:
309,114,107627,1,4,0:0:0:0:
174,92,107827,1,4,0:0:0:0:
174,92,108027,1,4,0:0:0:0:
241,101,108227,1,8,0:0:0:0:
241,101,108277,1,8,0:0:0:0:
196,57,108327,1,8,0:0:0:0:
196,57,108427,1,0,0:0:0:0:
196,57,108527,1,8,0:0:0:0:
311,186,109027,1,4,0:0:0:0:
436,241,109227,1,0,0:0:0:0:
311,186,109427,1,8,0:0:0:0:
311,186,109627,1,8,0:0:0:0:
311,186,109727,1,8,0:0:0:0:
311,186,109827,1,0,0:0:0:0:
311,186,110027,1,0,0:0:0:0:
311,186,110227,1,8,0:0:0:0:
140,80,110327,1,0,0:0:0:0:
385,184,110427,1,0,0:0:0:0:
436,241,110527,1,8,0:0:0:0:
216,127,110627,1,8,0:0:0:0:
216,127,110827,1,0,0:0:0:0:
216,127,111027,1,8,0:0:0:0:
385,184,111127,1,8,0:0:0:0:
216,127,111227,1,8,0:0:0:0:
216,127,111427,1,0,0:0:0:0:
216,127,111627,1,0,0:0:0:0:
216,127,111827,1,8,0:0:0:0:
335,137,111927,1,0,0:0:0:0:
216,127,112027,1,8,0:0:0:0:
335,137,112127,1,8,0:0:0:0:
216,127,112227,1,0,0:0:0:0:
335,137,112427,1,0,0:0:0:0:
188,78,112627,1,8,0:0:0:0:
188,78,112827,1,8,0:0:0:0:
188,78,112927,1,8,0:0:0:0:
188,78,113027,1,0,0:0:0:0:
188,78,113227,1,0,0:0:0:0:
188,78,113427,1,8,0:0:0:0:
188,78,113527,1,0,0:0:0:0:
188,78,113627,1,0,0:0:0:0:
332,141,113727,1,8,0:0:0:0:
188,78,113827,1,0,0:0:0:0:
188,78,114027,1,0,0:0:0:0:
188,78,114227,1,8,0:0:0:0:
188,78,114327,1,0,0:0:0:0:
188,78,114427,1,8,0:0:0:0:
188,78,114627,1,8,0:0:0:0:
128,112,114827,1,0,0:0:0:0:
188,78,115027,1,0,0:0:0:0:
141,33,115227,1,8,0:0:0:0:
311,186,115427,1,0,0:0:0:0:
186,117,115627,1,0,0:0:0:0:
311,186,115827,1,8,0:0:0:0:
311,186,116027,1,8,0:0:0:0:
311,186,116127,1,0,0:0:0:0:
311,186,116227,1,0,0:0:0:0:
311,186,116427,1,0,0:0:0:0:
311,186,116627,1,8,0:0:0:0:
140,80,116727,1,8,0:0:0:0:
243,147,116827,1,8,0:0:0:0:
188,120,116927,1,0,0:0:0:0:
216,127,117027,1,8,0:0:0:0:
216,127,117227,1,0,0:0:0:0:
216,127,117427,1,8,0:0:0:0:
159,53,117527,1,0,0:0:0:0:
159,53,117627,1,8,0:0:0:0:
216,127,117827,1,0,0:0:0:0:
216,127,118027,1,0,0:0:0:0:
216,127,118227,1,8,0:0:0:0:
216,127,118327,1,0,0:0:0:0:
271,127,118427,1,0,0:0:0:0:
271,127,118527,1,0,0:0:0:0:
271,127,118627,1,8,0:0:0:0:
271,127,118827,1,8,0:0:0:0:
261,105,119027,1,0,0:0:0:0:
311,186,119227,1,0,0:0:0:0:
311,186,119327,1,8,0:0:0:0:
311,186,119427,1,0,0:0:0:0:
311,186,119627,1,8,0:0:0:0:
311,186,119827,1,0,0:0:0:0:
140,80,119927,1,0,0:0:0:0:
243,147,120027,1,8,0:0:0:0:
220,42,120127,1,8,0:0:0:0:
216,127,120227,1,0,0:0:0:0:
216,127,120427,1,8,0:0:0:0:
216,127,120627,1,0,0:0:0:0:
214,50,120727,1,0,0:0:0:0:
216,127,120827,1,8,0:0:0:0:
216,127,121027,1,8,0:0:0:0:
308,112,121827,1,4,0:0:0:0:
