osu file format v14

[General]
AudioFilename: audio.mp3
AudioLeadIn: 0
PreviewTime: 83427
Countdown: 0
SampleSet: Normal
StackLeniency: 0.7
Mode: 1
LetterboxInBreaks: 0
WidescreenStoryboard: 1

[Editor]
DistanceSpacing: 1.05
BeatDivisor: 2
GridSize: 32
TimelineZoom: 1.8

[Metadata]
Title:Hold Angel
TitleUnicode:Hold Angel
Artist:you
ArtistUnicode:you
Creator:Whulf
Version:Hivie's Lite Oni
Source:
Tags:speedcore 600 OVER!!! Psycho Filth Records Metzo liku the law the_law hivie nevqr never Electronic Instrumental fa featured artist mappers guild mg
BeatmapID:4468369
BeatmapSetID:1354083

[Difficulty]
HPDrainRate:5.5
CircleSize:2
OverallDifficulty:5.5
ApproachRate:10
SliderMultiplier:1.4
SliderTickRate:2

[Events]
//Background and Video events
0,0,"www.png",0,0
//Break Periods
2,64227,69377
//Storyboard Layer 0 (Background)
//Storyboard Layer 1 (Fail)
//Storyboard Layer 2 (Pass)
//Storyboard Layer 3 (Foreground)
//Storyboard Layer 4 (Overlay)
//Storyboard Sound Samples

[TimingPoints]
227,200,4,1,0,70,1,0
227,-200,4,1,0,70,0,0
12227,-200,4,1,0,80,0,0
13027,-200,4,1,0,75,0,0
25827,-166.666666666667,4,1,0,100,0,0
51426,-200,4,1,0,95,0,0
53027,-200,4,1,0,90,0,0
54627,-200,4,1,0,85,0,0
56227,-200,4,1,0,80,0,0
57827,-200,4,1,0,75,0,0
59427,-200,4,1,0,70,0,0
61027,-200,4,1,0,65,0,0
62627,-200,4,1,0,60,0,0
70627,-200,4,1,0,70,0,0
77027,-200,4,1,0,75,0,0
78627,-200,4,1,0,80,0,0
80227,-200,4,1,0,85,0,0
80427,-200,4,1,0,90,0,0
81027,-200,4,1,0,95,0,0
83427,-166.666666666667,4,1,0,100,0,1
95427,-166.666666666667,4,1,0,100,0,0
96227,-166.666666666667,4,1,0,100,0,1
108627,-166.666666666667,4,1,0,100,0,0
109027,-200,4,1,0,70,0,0

[HitObjects]
255,191,227,5,4,1:0:0:0:
255,191,427,1,0,1:0:0:0:
255,191,627,1,8,1:0:0:0:
255,191,827,1,8,1:0:0:0:
255,191,927,1,8,1:0:0:0:
255,191,1027,1,0,1:0:0:0:
255,191,1227,1,0,1:0:0:0:
255,191,1427,1,8,1:0:0:0:
255,191,1627,1,0,1:0:0:0:
255,191,1727,1,0,1:0:0:0:
255,191,1827,1,8,1:0:0:0:
255,191,2027,1,0,1:0:0:0:
256,191,2227,1,8,1:0:0:0:
256,191,2327,1,0,1:0:0:0:
256,191,2427,1,8,1:0:0:0:
255,191,2627,1,8,1:0:0:0:
255,191,2827,1,0,1:0:0:0:
255,191,3027,1,8,1:0:0:0:
256,191,3427,1,0,1:0:0:0:
256,191,3627,1,0,1:0:0:0:
256,191,3827,1,8,1:0:0:0:
256,191,4027,1,8,1:0:0:0:
256,191,4127,1,0,1:0:0:0:
256,191,4227,1,8,1:0:0:0:
255,191,4427,1,0,1:0:0:0:
255,191,4627,1,8,1:0:0:0:
255,191,4827,1,0,1:0:0:0:
255,191,4927,1,8,1:0:0:0:
255,191,5027,1,0,1:0:0:0:
255,191,5227,1,8,1:0:0:0:
255,191,5427,1,0,1:0:0:0:
255,191,5527,1,0,1:0:0:0:
255,191,5627,1,8,1:0:0:0:
255,191,5827,1,8,1:0:0:0:
256,191,6027,1,0,1:0:0:0:
256,191,6227,1,8,1:0:0:0:
255,191,6627,1,4,1:0:0:0:
255,191,6827,1,0,1:0:0:0:
255,191,7027,1,8,1:0:0:0:
255,191,7227,1,8,1:0:0:0:
255,191,7327,1,8,1:0:0:0:
255,191,7427,1,0,1:0:0:0:
256,192,7627,1,0,1:0:0:0:
256,192,7827,1,8,1:0:0:0:
255,191,8027,1,0,1:0:0:0:
256,192,8127,1,0,1:0:0:0:
256,192,8227,1,8,1:0:0:0:
255,191,8427,1,0,1:0:0:0:
255,191,8627,1,8,1:0:0:0:
255,191,8727,1,0,1:0:0:0:
255,191,8827,1,8,1:0:0:0:
255,191,9027,1,8,1:0:0:0:
255,191,9227,1,0,1:0:0:0:
256,191,9427,1,8,1:0:0:0:
256,191,9827,1,0,1:0:0:0:
256,191,10027,1,8,1:0:0:0:
256,191,10227,1,0,1:0:0:0:
256,191,10427,1,8,1:0:0:0:
256,191,10527,1,0,1:0:0:0:
256,191,10627,1,8,1:0:0:0:
256,191,10827,1,8,1:0:0:0:
256,192,11027,1,0,1:0:0:0:
256,192,11227,1,0,1:0:0:0:
256,192,11327,1,8,1:0:0:0:
256,191,11427,1,0,1:0:0:0:
255,191,11627,1,8,1:0:0:0:
255,191,11827,1,0,1:0:0:0:
255,191,11927,1,0,1:0:0:0:
255,191,12027,1,8,1:0:0:0:
256,191,12227,1,4,1:0:0:0:
256,191,13027,1,12,1:0:0:0:
256,191,13227,1,0,1:0:0:0:
256,191,13427,1,8,1:0:0:0:
256,191,13627,1,8,1:0:0:0:
256,191,13727,1,8,1:0:0:0:
256,191,13827,1,0,1:0:0:0:
255,192,14027,1,0,1:0:0:0:
255,192,14227,1,8,1:0:0:0:
255,192,14327,1,8,1:0:0:0:
255,192,14427,1,0,1:0:0:0:
255,192,14527,1,0,1:0:0:0:
255,191,14627,1,8,1:0:0:0:
255,191,14827,1,0,1:0:0:0:
255,191,15027,1,8,1:0:0:0:
255,191,15127,1,8,1:0:0:0:
255,191,15227,1,8,1:0:0:0:
255,191,15427,1,0,1:0:0:0:
255,191,15627,1,0,1:0:0:0:
255,191,15827,1,8,1:0:0:0:
255,191,16227,1,0,1:0:0:0:
255,191,16427,1,0,1:0:0:0:
255,191,16627,1,8,1:0:0:0:
255,191,16827,1,8,1:0:0:0:
255,191,16927,1,8,1:0:0:0:
255,191,17027,1,0,1:0:0:0:
255,191,17227,1,0,1:0:0:0:
255,191,17427,1,8,1:0:0:0:
255,191,17527,1,0,1:0:0:0:
256,191,17627,1,8,1:0:0:0:
256,191,17727,1,8,1:0:0:0:
255,191,17827,1,0,1:0:0:0:
256,191,18027,1,8,1:0:0:0:
255,191,18227,1,0,1:0:0:0:
255,191,18327,1,0,1:0:0:0:
255,191,18427,1,8,1:0:0:0:
255,191,18627,1,0,1:0:0:0:
255,191,18727,1,0,1:0:0:0:
256,191,18827,1,8,1:0:0:0:
256,191,18927,1,8,1:0:0:0:
256,191,19027,1,0,1:0:0:0:
256,191,19427,1,4,1:0:0:0:
256,191,19627,1,0,1:0:0:0:
256,191,19827,1,8,1:0:0:0:
256,191,20027,1,8,1:0:0:0:
256,191,20127,1,8,1:0:0:0:
256,191,20227,1,0,1:0:0:0:
256,191,20427,1,0,1:0:0:0:
256,191,20627,1,8,1:0:0:0:
256,191,20727,1,8,1:0:0:0:
255,191,20827,1,0,1:0:0:0:
255,191,20927,1,0,1:0:0:0:
255,191,21027,1,8,1:0:0:0:
255,191,21227,1,0,1:0:0:0:
255,191,21427,1,8,1:0:0:0:
255,191,21527,1,0,1:0:0:0:
255,191,21627,1,8,1:0:0:0:
255,191,21827,1,0,1:0:0:0:
255,191,22027,1,0,1:0:0:0:
255,191,22227,1,8,1:0:0:0:
255,191,22627,1,0,1:0:0:0:
255,191,22827,1,0,1:0:0:0:
255,191,23027,1,8,1:0:0:0:
255,191,23227,1,0,1:0:0:0:
255,191,23327,1,0,1:0:0:0:
255,191,23427,1,8,1:0:0:0:
255,191,23627,1,8,1:0:0:0:
255,191,23827,1,0,1:0:0:0:
255,191,23927,1,8,1:0:0:0:
255,191,24027,1,0,1:0:0:0:
255,191,24127,1,0,1:0:0:0:
255,191,24227,1,8,1:0:0:0:
256,191,24427,1,8,1:0:0:0:
256,191,24627,1,0,1:0:0:0:
256,191,24727,1,8,1:0:0:0:
255,191,24827,1,0,1:0:0:0:
255,191,25027,1,12,1:0:0:0:
255,191,25827,1,0,1:0:0:0:
255,191,26027,1,8,1:0:0:0:
255,191,26127,1,0,1:0:0:0:
255,191,26227,1,8,1:0:0:0:
255,191,26327,1,8,1:0:0:0:
255,191,26427,1,0,1:0:0:0:
255,191,26627,1,8,1:0:0:0:
255,191,26827,1,0,1:0:0:0:
255,191,26927,1,0,1:0:0:0:
255,191,27027,1,8,1:0:0:0:
256,192,27127,1,8,1:0:0:0:
255,191,27227,1,0,1:0:0:0:
256,191,27427,1,8,1:0:0:0:
256,191,27627,1,0,1:0:0:0:
256,191,27727,1,0,1:0:0:0:
256,192,27827,1,8,1:0:0:0:
255,191,28027,1,8,1:0:0:0:
256,191,28227,1,0,1:0:0:0:
255,191,28427,1,8,1:0:0:0:
255,191,28527,1,0,1:0:0:0:
255,191,28627,1,8,1:0:0:0:
255,191,28727,1,0,1:0:0:0:
255,191,28827,1,8,1:0:0:0:
256,191,29027,1,4,1:0:0:0:
255,191,29227,1,8,1:0:0:0:
255,191,29427,1,0,1:0:0:0:
255,191,29527,1,0,1:0:0:0:
255,191,29627,1,8,1:0:0:0:
255,191,29727,1,8,1:0:0:0:
255,191,29827,1,0,1:0:0:0:
255,191,30027,1,0,1:0:0:0:
256,191,30227,1,8,1:0:0:0:
256,191,30327,1,0,1:0:0:0:
256,191,30427,1,0,1:0:0:0:
256,192,30627,1,8,1:0:0:0:
256,192,30827,1,0,1:0:0:0:
256,192,31027,1,8,1:0:0:0:
256,192,31127,1,0,1:0:0:0:
256,192,31227,1,8,1:0:0:0:
256,192,31327,1,8,1:0:0:0:
256,191,31427,1,0,1:0:0:0:
256,191,31627,1,0,1:0:0:0:
256,191,31827,1,0,1:0:0:0:
255,191,32227,1,8,1:0:0:0:
255,191,32427,1,0,1:0:0:0:
255,191,32527,1,0,1:0:0:0:
255,191,32627,1,8,1:0:0:0:
255,191,32727,1,8,1:0:0:0:
255,191,32827,1,0,1:0:0:0:
255,191,33027,1,8,1:0:0:0:
255,191,33227,1,0,1:0:0:0:
255,191,33427,1,8,1:0:0:0:
256,192,33527,1,8,1:0:0:0:
255,191,33627,1,0,1:0:0:0:
255,191,33727,1,0,1:0:0:0:
256,191,33827,1,8,1:0:0:0:
256,191,34027,1,0,1:0:0:0:
256,191,34127,1,0,1:0:0:0:
256,192,34227,1,8,1:0:0:0:
255,191,34427,1,8,1:0:0:0:
256,191,34627,1,0,1:0:0:0:
255,191,34827,1,8,1:0:0:0:
255,191,34927,1,0,1:0:0:0:
255,191,35027,1,8,1:0:0:0:
255,191,35127,1,8,1:0:0:0:
255,191,35227,1,0,1:0:0:0:
256,191,35427,1,4,1:0:0:0:
255,191,35627,1,8,1:0:0:0:
255,191,35827,1,0,1:0:0:0:
255,191,35927,1,0,1:0:0:0:
255,191,36027,1,8,1:0:0:0:
255,191,36127,1,8,1:0:0:0:
255,191,36227,1,0,1:0:0:0:
255,191,36427,1,0,1:0:0:0:
256,191,36627,1,8,1:0:0:0:
256,191,36727,1,8,1:0:0:0:
256,191,36827,1,0,1:0:0:0:
256,192,37027,1,8,1:0:0:0:
256,192,37227,1,0,1:0:0:0:
256,192,37427,1,8,1:0:0:0:
256,192,37527,1,8,1:0:0:0:
256,192,37627,1,0,1:0:0:0:
256,192,37727,1,0,1:0:0:0:
256,191,37827,1,8,1:0:0:0:
256,191,38027,1,0,1:0:0:0:
256,191,38227,1,8,1:0:0:0:
255,191,38627,1,0,1:0:0:0:
255,191,38827,1,8,1:0:0:0:
255,191,38927,1,0,1:0:0:0:
255,191,39027,1,8,1:0:0:0:
255,191,39127,1,8,1:0:0:0:
255,191,39227,1,0,1:0:0:0:
255,191,39427,1,8,1:0:0:0:
255,191,39627,1,0,1:0:0:0:
255,191,39727,1,0,1:0:0:0:
255,191,39827,1,8,1:0:0:0:
256,192,39927,1,8,1:0:0:0:
255,191,40027,1,0,1:0:0:0:
256,191,40227,1,8,1:0:0:0:
256,191,40427,1,0,1:0:0:0:
256,191,40527,1,0,1:0:0:0:
256,192,40627,1,8,1:0:0:0:
255,191,40827,1,8,1:0:0:0:
256,191,41027,1,0,1:0:0:0:
255,191,41227,1,8,1:0:0:0:
255,191,41327,1,0,1:0:0:0:
255,191,41427,1,8,1:0:0:0:
255,191,41527,1,0,1:0:0:0:
255,191,41627,1,8,1:0:0:0:
256,191,41827,1,0,1:0:0:0:
255,191,42027,1,8,1:0:0:0:
255,191,42227,1,0,1:0:0:0:
255,191,42327,1,0,1:0:0:0:
255,191,42427,1,8,1:0:0:0:
255,191,42527,1,8,1:0:0:0:
255,191,42627,1,0,1:0:0:0:
255,191,42827,1,0,1:0:0:0:
256,191,43027,1,8,1:0:0:0:
256,191,43127,1,0,1:0:0:0:
256,191,43227,1,0,1:0:0:0:
256,192,43427,1,8,1:0:0:0:
256,192,43627,1,0,1:0:0:0:
256,192,43827,1,8,1:0:0:0:
256,192,43927,1,0,1:0:0:0:
256,192,44027,1,8,1:0:0:0:
256,192,44127,1,8,1:0:0:0:
256,191,44227,1,0,1:0:0:0:
256,191,44427,1,0,1:0:0:0:
256,191,44627,1,8,1:0:0:0:
256,191,45027,1,0,1:0:0:0:
255,192,45227,1,8,1:0:0:0:
255,192,45327,1,0,1:0:0:0:
255,192,45527,1,0,1:0:0:0:
255,192,45627,1,8,1:0:0:0:
255,191,45727,1,8,1:0:0:0:
255,191,45827,1,0,1:0:0:0:
255,191,46027,1,8,1:0:0:0:
255,191,46227,1,0,1:0:0:0:
255,191,46327,1,0,1:0:0:0:
255,191,46427,1,8,1:0:0:0:
255,191,46627,1,0,1:0:0:0:
255,191,46827,1,8,1:0:0:0:
255,191,46927,1,0,1:0:0:0:
255,191,47027,1,8,1:0:0:0:
255,191,47127,1,8,1:0:0:0:
255,191,47227,1,0,1:0:0:0:
255,191,47427,1,8,1:0:0:0:
255,191,47627,1,0,1:0:0:0:
255,191,47727,1,0,1:0:0:0:
256,191,47827,1,8,1:0:0:0:
256,191,48027,1,8,1:0:0:0:
256,191,48227,1,0,1:0:0:0:
255,191,48427,1,8,1:0:0:0:
255,191,48527,1,8,1:0:0:0:
255,191,48627,1,0,1:0:0:0:
255,191,48727,1,0,1:0:0:0:
255,191,48827,1,8,1:0:0:0:
255,191,49027,1,0,1:0:0:0:
255,191,49127,1,0,1:0:0:0:
255,191,49227,1,0,1:0:0:0:
255,191,49427,1,8,1:0:0:0:
255,191,49527,1,8,1:0:0:0:
255,191,49627,1,0,1:0:0:0:
255,191,49827,1,8,1:0:0:0:
255,191,50027,1,0,1:0:0:0:
255,191,50127,1,0,1:0:0:0:
255,191,50227,1,8,1:0:0:0:
255,191,50327,1,8,1:0:0:0:
255,191,50427,1,0,1:0:0:0:
256,191,50627,1,12,1:0:0:0:
256,191,51427,1,4,1:0:0:0:
256,191,51827,1,8,1:0:0:0:
256,191,52227,1,0,1:0:0:0:
256,191,52427,1,0,1:0:0:0:
256,191,52627,1,8,1:0:0:0:
256,191,52827,1,0,1:0:0:0:
256,191,53027,1,8,1:0:0:0:
256,191,53227,1,8,1:0:0:0:
256,191,53427,1,0,1:0:0:0:
256,191,53627,1,8,1:0:0:0:
256,191,53827,1,0,1:0:0:0:
256,191,54027,1,0,1:0:0:0:
256,191,54227,1,8,1:0:0:0:
256,191,54627,1,8,1:0:0:0:
256,191,54827,1,8,1:0:0:0:
256,191,55027,1,0,1:0:0:0:
256,191,55227,1,8,1:0:0:0:
256,191,55427,1,0,1:0:0:0:
256,191,55627,1,0,1:0:0:0:
256,191,55827,1,8,1:0:0:0:
256,191,56227,1,8,1:0:0:0:
256,191,56427,1,8,1:0:0:0:
256,191,56627,1,0,1:0:0:0:
256,191,56827,1,0,1:0:0:0:
255,191,57027,1,8,1:0:0:0:
255,191,57227,1,0,1:0:0:0:
255,191,57427,1,8,1:0:0:0:
255,191,57627,1,0,1:0:0:0:
255,191,57827,1,8,1:0:0:0:
255,191,58027,1,8,1:0:0:0:
255,191,58227,1,0,1:0:0:0:
255,191,58427,1,0,1:0:0:0:
255,191,58627,1,8,1:0:0:0:
255,191,58827,1,0,1:0:0:0:
255,191,59027,1,8,1:0:0:0:
255,191,59427,1,0,1:0:0:0:
255,191,59627,1,0,1:0:0:0:
255,191,59827,1,8,1:0:0:0:
255,191,60027,1,8,1:0:0:0:
255,191,60227,1,0,1:0:0:0:
255,191,60427,1,8,1:0:0:0:
255,191,60627,1,0,1:0:0:0:
255,191,61027,1,0,1:0:0:0:
255,191,61227,1,8,1:0:0:0:
255,191,61427,1,8,1:0:0:0:
255,191,61627,1,8,1:0:0:0:
255,191,61827,1,0,1:0:0:0:
255,191,62027,1,8,1:0:0:0:
255,191,62227,1,0,1:0:0:0:
255,191,62627,1,8,1:0:0:0:
255,191,62827,1,8,1:0:0:0:
255,191,63027,1,0,1:0:0:0:
255,191,63227,1,0,1:0:0:0:
255,191,63427,1,8,1:0:0:0:
255,191,63627,1,0,1:0:0:0:
255,191,63827,1,8,1:0:0:0:
255,191,64027,1,8,1:0:0:0:
256,192,69827,12,0,70427,1:0:0:0:
256,192,70627,5,4,1:0:0:0:
255,191,70827,1,8,1:0:0:0:
255,191,70927,1,0,1:0:0:0:
255,191,71127,1,0,1:0:0:0:
255,191,71227,1,0,1:0:0:0:
255,191,71327,1,8,1:0:0:0:
255,191,71527,1,8,1:0:0:0:
255,191,71727,1,0,1:0:0:0:
255,191,71827,1,8,1:0:0:0:
255,191,72027,1,8,1:0:0:0:
255,191,72227,1,0,1:0:0:0:
255,191,72427,1,8,1:0:0:0:
255,191,72527,1,0,1:0:0:0:
255,191,72727,1,0,1:0:0:0:
255,191,72827,1,0,1:0:0:0:
255,191,72927,1,8,1:0:0:0:
255,191,73127,1,0,1:0:0:0:
255,191,73227,1,8,1:0:0:0:
255,191,73327,1,0,1:0:0:0:
255,191,73427,1,8,1:0:0:0:
255,191,73827,1,0,1:0:0:0:
255,191,74027,1,8,1:0:0:0:
255,191,74127,1,0,1:0:0:0:
255,191,74327,1,8,1:0:0:0:
255,191,74427,1,0,1:0:0:0:
255,191,74527,1,8,1:0:0:0:
255,191,74727,1,0,1:0:0:0:
255,191,74927,1,0,1:0:0:0:
255,191,75027,1,8,1:0:0:0:
255,191,75227,1,0,1:0:0:0:
255,191,75427,1,8,1:0:0:0:
255,191,75627,1,0,1:0:0:0:
255,191,75727,1,8,1:0:0:0:
256,191,75927,1,8,1:0:0:0:
255,191,76027,1,0,1:0:0:0:
255,191,76127,1,8,1:0:0:0:
256,191,76327,1,8,1:0:0:0:
256,191,76427,1,0,1:0:0:0:
256,191,76527,1,0,1:0:0:0:
255,191,76627,1,8,1:0:0:0:
255,191,77027,1,4,1:0:0:0:
256,191,77227,1,8,1:0:0:0:
256,191,77327,1,0,1:0:0:0:
256,191,77527,1,0,1:0:0:0:
256,191,77627,1,0,1:0:0:0:
256,191,77727,1,8,1:0:0:0:
256,191,77927,1,0,1:0:0:0:
256,191,78127,1,0,1:0:0:0:
256,191,78227,1,8,1:0:0:0:
256,191,78427,1,8,1:0:0:0:
256,192,78627,1,4,1:0:0:0:
256,191,78827,1,8,1:0:0:0:
256,191,78927,1,0,1:0:0:0:
255,191,79127,1,8,1:0:0:0:
255,191,79227,1,0,1:0:0:0:
255,191,79327,1,8,1:0:0:0:
255,191,79527,1,8,1:0:0:0:
255,191,79727,1,0,1:0:0:0:
255,191,79827,1,8,1:0:0:0:
255,191,79927,1,0,1:0:0:0:
255,191,80027,1,8,1:0:0:0:
255,191,80227,1,4,1:0:0:0:
256,191,80427,1,4,1:0:0:0:
256,192,80827,1,8,1:0:0:0:
256,191,81027,1,4,1:0:0:0:
256,191,81227,1,4,1:0:0:0:
255,191,81627,1,8,1:0:0:0:
255,192,81827,1,0,1:0:0:0:
255,192,81927,1,0,1:0:0:0:
255,192,82027,1,8,1:0:0:0:
255,192,82127,1,8,1:0:0:0:
255,192,82227,1,0,1:0:0:0:
255,192,82327,1,0,1:0:0:0:
255,192,82427,1,8,1:0:0:0:
255,192,82527,1,8,1:0:0:0:
256,192,83427,1,0,1:0:0:0:
255,192,83527,1,0,0:0:0:0:
255,191,83627,1,8,1:0:0:0:
255,191,83727,1,0,1:0:0:0:
255,191,83927,1,0,1:0:0:0:
255,191,84027,1,0,1:0:0:0:
255,191,84127,1,8,1:0:0:0:
255,191,84327,1,8,1:0:0:0:
255,191,84527,1,0,1:0:0:0:
255,191,84627,1,8,1:0:0:0:
255,191,84727,1,8,0:0:0:0:
255,191,84827,1,0,1:0:0:0:
255,191,85027,1,0,1:0:0:0:
255,191,85227,1,8,1:0:0:0:
255,191,85327,1,0,1:0:0:0:
255,191,85527,1,0,1:0:0:0:
255,191,85627,1,0,1:0:0:0:
255,191,85727,1,8,1:0:0:0:
255,191,85927,1,0,1:0:0:0:
255,191,86027,1,8,1:0:0:0:
255,191,86127,1,0,1:0:0:0:
255,191,86227,1,8,1:0:0:0:
256,192,86427,1,0,0:0:0:0:
256,192,86627,1,8,1:0:0:0:
255,191,86827,1,8,1:0:0:0:
255,191,86927,1,0,1:0:0:0:
255,191,87127,1,0,1:0:0:0:
255,191,87227,1,0,1:0:0:0:
255,191,87327,1,8,1:0:0:0:
255,191,87527,1,8,1:0:0:0:
255,191,87727,1,0,1:0:0:0:
255,191,87827,1,8,1:0:0:0:
255,191,87927,1,0,0:0:0:0:
255,191,88027,1,0,1:0:0:0:
255,191,88227,1,8,1:0:0:0:
255,191,88427,1,0,1:0:0:0:
255,191,88527,1,0,1:0:0:0:
255,191,88727,1,8,1:0:0:0:
255,191,88827,1,0,1:0:0:0:
255,191,88927,1,8,1:0:0:0:
255,191,89127,1,0,1:0:0:0:
255,191,89227,1,8,1:0:0:0:
255,191,89327,1,0,1:0:0:0:
255,191,89427,1,8,1:0:0:0:
256,192,89827,1,0,1:0:0:0:
255,192,89927,1,0,0:0:0:0:
255,191,90027,1,8,1:0:0:0:
255,191,90127,1,0,1:0:0:0:
255,191,90327,1,0,1:0:0:0:
255,191,90427,1,0,1:0:0:0:
255,191,90527,1,8,1:0:0:0:
255,191,90727,1,8,1:0:0:0:
255,191,90927,1,0,1:0:0:0:
255,191,91027,1,8,1:0:0:0:
255,191,91127,1,8,0:0:0:0:
255,191,91227,1,0,1:0:0:0:
255,191,91427,1,0,1:0:0:0:
255,191,91627,1,8,1:0:0:0:
255,191,91727,1,0,1:0:0:0:
255,191,91927,1,0,1:0:0:0:
255,191,92027,1,0,1:0:0:0:
255,191,92127,1,8,1:0:0:0:
255,191,92327,1,0,1:0:0:0:
255,191,92427,1,8,1:0:0:0:
255,191,92527,1,0,1:0:0:0:
255,191,92627,1,8,1:0:0:0:
256,192,92827,1,0,0:0:0:0:
256,192,93027,1,8,1:0:0:0:
255,191,93227,1,8,1:0:0:0:
255,191,93327,1,0,1:0:0:0:
255,191,93527,1,0,1:0:0:0:
255,191,93627,1,0,1:0:0:0:
255,191,93727,1,8,1:0:0:0:
255,191,93927,1,8,1:0:0:0:
255,191,94127,1,0,1:0:0:0:
255,191,94227,1,8,1:0:0:0:
255,191,94327,1,0,0:0:0:0:
255,191,94427,1,0,1:0:0:0:
255,191,94627,1,8,1:0:0:0:
255,191,94827,1,0,1:0:0:0:
255,191,94927,1,0,1:0:0:0:
255,191,95127,1,8,1:0:0:0:
255,191,95227,1,0,1:0:0:0:
255,191,95327,1,8,1:0:0:0:
255,192,95427,1,0,1:0:0:0:
255,192,95827,1,8,1:0:0:0:
256,192,96227,1,0,1:0:0:0:
255,192,96327,1,0,0:0:0:0:
255,191,96427,1,8,1:0:0:0:
255,191,96527,1,0,1:0:0:0:
255,191,96727,1,0,1:0:0:0:
255,191,96827,1,0,1:0:0:0:
255,191,96927,1,8,1:0:0:0:
255,191,97127,1,8,1:0:0:0:
255,191,97327,1,0,1:0:0:0:
255,191,97427,1,8,1:0:0:0:
255,191,97527,1,8,0:0:0:0:
255,191,97627,1,0,1:0:0:0:
255,191,97827,1,0,1:0:0:0:
255,191,98027,1,8,1:0:0:0:
255,191,98127,1,0,1:0:0:0:
255,191,98327,1,0,1:0:0:0:
255,191,98427,1,0,1:0:0:0:
255,191,98527,1,8,1:0:0:0:
255,191,98727,1,0,1:0:0:0:
255,191,98827,1,8,1:0:0:0:
255,191,98927,1,0,1:0:0:0:
255,191,99027,1,8,1:0:0:0:
256,192,99227,1,8,0:0:0:0:
256,191,99427,1,4,1:0:0:0:
256,191,99827,1,4,1:0:0:0:
256,191,100227,1,0,1:0:0:0:
256,191,100327,1,0,1:0:0:0:
256,191,100427,1,0,1:0:0:0:
256,191,100627,1,4,1:0:0:0:
256,191,101027,1,4,1:0:0:0:
255,191,101227,1,4,1:0:0:0:
255,191,101427,1,4,1:0:0:0:
255,191,101627,1,4,1:0:0:0:
255,191,101827,1,8,1:0:0:0:
255,191,101927,1,8,1:0:0:0:
255,191,102027,1,8,1:0:0:0:
255,191,102127,1,8,1:0:0:0:
255,191,102227,1,8,1:0:0:0:
255,191,102327,1,8,1:0:0:0:
255,191,102427,1,8,1:0:0:0:
256,192,102627,1,0,1:0:0:0:
255,192,102727,1,0,0:0:0:0:
255,191,102827,1,8,1:0:0:0:
255,191,102927,1,0,1:0:0:0:
255,191,103127,1,0,1:0:0:0:
255,191,103227,1,0,1:0:0:0:
255,191,103327,1,8,1:0:0:0:
255,191,103527,1,8,1:0:0:0:
255,191,103727,1,0,1:0:0:0:
255,191,103827,1,8,1:0:0:0:
255,191,103927,1,8,0:0:0:0:
255,191,104027,1,0,1:0:0:0:
255,191,104227,1,0,1:0:0:0:
255,191,104427,1,8,1:0:0:0:
255,191,104527,1,8,1:0:0:0:
255,191,104727,1,0,1:0:0:0:
255,191,104827,1,0,1:0:0:0:
255,191,104927,1,8,1:0:0:0:
255,191,105127,1,0,1:0:0:0:
255,191,105227,1,8,1:0:0:0:
255,191,105327,1,0,1:0:0:0:
255,191,105427,1,8,1:0:0:0:
256,192,105627,1,8,0:0:0:0:
256,191,105827,1,4,1:0:0:0:
256,191,106227,1,4,1:0:0:0:
256,191,106627,1,4,1:0:0:0:
256,191,106827,1,4,1:0:0:0:
256,191,107027,1,4,1:0:0:0:
256,191,107427,1,4,1:0:0:0:
256,191,107627,1,4,1:0:0:0:
256,191,107827,1,4,1:0:0:0:
256,191,108027,1,4,1:0:0:0:
255,191,108227,1,8,1:0:0:0:
256,191,108327,1,8,1:0:0:0:
256,191,108427,1,8,1:0:0:0:
255,191,108527,1,8,1:0:0:0:
256,191,109027,1,4,1:0:0:0:
256,191,109227,1,0,1:0:0:0:
256,191,109427,1,8,1:0:0:0:
256,191,109627,1,8,1:0:0:0:
256,191,109727,1,8,1:0:0:0:
256,191,109827,1,0,1:0:0:0:
255,192,110027,1,0,1:0:0:0:
255,192,110227,1,8,1:0:0:0:
255,192,110327,1,8,1:0:0:0:
255,192,110427,1,0,1:0:0:0:
255,192,110527,1,0,1:0:0:0:
255,191,110627,1,8,1:0:0:0:
255,191,110827,1,0,1:0:0:0:
255,191,111027,1,8,1:0:0:0:
255,191,111127,1,8,1:0:0:0:
255,191,111227,1,8,1:0:0:0:
255,191,111427,1,0,1:0:0:0:
255,191,111627,1,0,1:0:0:0:
255,191,111827,1,8,1:0:0:0:
255,191,112227,1,0,1:0:0:0:
255,191,112427,1,0,1:0:0:0:
255,191,112627,1,8,1:0:0:0:
255,191,112827,1,8,1:0:0:0:
255,191,112927,1,8,1:0:0:0:
255,191,113027,1,0,1:0:0:0:
255,191,113227,1,0,1:0:0:0:
255,191,113427,1,8,1:0:0:0:
255,191,113527,1,0,1:0:0:0:
256,191,113627,1,8,1:0:0:0:
256,191,113727,1,8,1:0:0:0:
255,191,113827,1,0,1:0:0:0:
256,191,114027,1,8,1:0:0:0:
255,191,114227,1,0,1:0:0:0:
255,191,114327,1,0,1:0:0:0:
255,191,114427,1,8,1:0:0:0:
255,191,114627,1,0,1:0:0:0:
256,191,114827,1,8,1:0:0:0:
256,191,115027,1,0,1:0:0:0:
256,191,115427,1,0,1:0:0:0:
256,191,115627,1,0,1:0:0:0:
256,191,115827,1,8,1:0:0:0:
256,191,116027,1,8,1:0:0:0:
256,191,116127,1,8,1:0:0:0:
256,191,116227,1,0,1:0:0:0:
256,191,116427,1,0,1:0:0:0:
256,191,116627,1,8,1:0:0:0:
256,191,116727,1,8,1:0:0:0:
255,191,116827,1,0,1:0:0:0:
255,191,116927,1,0,1:0:0:0:
255,191,117027,1,8,1:0:0:0:
255,191,117227,1,0,1:0:0:0:
255,191,117427,1,8,1:0:0:0:
255,191,117527,1,0,1:0:0:0:
255,191,117627,1,8,1:0:0:0:
255,191,117827,1,0,1:0:0:0:
255,191,118027,1,0,1:0:0:0:
255,191,118227,1,8,1:0:0:0:
256,191,118627,1,8,1:0:0:0:
256,191,118827,1,0,1:0:0:0:
256,191,119027,1,8,1:0:0:0:
256,191,119227,1,0,1:0:0:0:
256,191,119327,1,0,1:0:0:0:
256,191,119427,1,8,1:0:0:0:
256,191,119627,1,0,1:0:0:0:
256,191,119827,1,8,1:0:0:0:
256,191,119927,1,8,1:0:0:0:
255,191,120027,1,0,1:0:0:0:
255,191,120127,1,0,1:0:0:0:
255,191,120227,1,8,1:0:0:0:
255,191,120427,1,0,1:0:0:0:
255,191,120627,1,8,1:0:0:0:
255,191,120727,1,0,1:0:0:0:
255,191,120827,1,8,1:0:0:0:
255,191,121027,1,8,1:0:0:0:
256,191,121827,1,4,1:0:0:0:
