osu file format v14

[General]
AudioFilename: audio.mp3
AudioLeadIn: 0
PreviewTime: 83427
Countdown: 0
SampleSet: Normal
StackLeniency: 0.7
Mode: 1
LetterboxInBreaks: 0
WidescreenStoryboard: 1

[Editor]
DistanceSpacing: 1.05
BeatDivisor: 4
GridSize: 32
TimelineZoom: 3.499999

[Metadata]
Title:Hold Angel
TitleUnicode:Hold Angel
Artist:you
ArtistUnicode:you
Creator:Whulf
Version:Hell
Source:
Tags:speedcore 600 OVER!!! Psycho Filth Records Metzo liku the law the_law hivie nevqr never Electronic Instrumental fa featured artist mappers guild mg
BeatmapID:4468298
BeatmapSetID:1354083

[Difficulty]
HPDrainRate:5
CircleSize:2
OverallDifficulty:8
ApproachRate:10
SliderMultiplier:1.4
SliderTickRate:2

[Events]
//Background and Video events
0,0,"www.png",0,0
//Break Periods
2,64227,69377
//Storyboard Layer 0 (Background)
//Storyboard Layer 1 (Fail)
//Storyboard Layer 2 (Pass)
//Storyboard Layer 3 (Foreground)
//Storyboard Layer 4 (Overlay)
//Storyboard Sound Samples

[TimingPoints]
227,200,4,1,0,70,1,0
227,-133.333333333333,4,1,0,70,0,0
12227,-114.942528735632,4,1,0,80,0,0
13027,-125,4,1,0,75,0,0
25827,-100,4,1,0,100,0,0
50627,-100,4,1,0,100,0,0
51426,-101.509433962264,4,1,0,95,0,0
51626,-101.893939393939,4,1,0,95,0,0
51826,-102.281368821293,4,1,0,95,0,0
52026,-102.671755725191,4,1,0,95,0,0
52226,-103.065134099617,4,1,0,95,0,0
52426,-103.461538461538,4,1,0,95,0,0
52626,-103.861003861004,4,1,0,95,0,0
52826,-104.263565891473,4,1,0,95,0,0
53026,-104.669260700389,4,1,0,90,0,0
53226,-105.078125,4,1,0,90,0,0
53426,-105.490196078431,4,1,0,90,0,0
53626,-105.905511811024,4,1,0,90,0,0
53826,-106.324110671937,4,1,0,90,0,0
54026,-106.746031746032,4,1,0,90,0,0
54226,-107.171314741036,4,1,0,90,0,0
54426,-107.6,4,1,0,90,0,0
54626,-108.032128514056,4,1,0,85,0,0
54826,-108.467741935484,4,1,0,85,0,0
55026,-108.906882591093,4,1,0,85,0,0
55226,-109.349593495935,4,1,0,85,0,0
55426,-109.795918367347,4,1,0,85,0,0
55626,-110.245901639344,4,1,0,85,0,0
55826,-110.699588477366,4,1,0,85,0,0
56026,-111.157024793388,4,1,0,85,0,0
56226,-111.618257261411,4,1,0,80,0,0
56426,-112.083333333333,4,1,0,80,0,0
56626,-112.55230125523,4,1,0,80,0,0
56826,-113.025210084034,4,1,0,80,0,0
57026,-113.502109704641,4,1,0,80,0,0
57226,-113.983050847458,4,1,0,80,0,0
57426,-114.468085106383,4,1,0,80,0,0
57626,-114.957264957265,4,1,0,80,0,0
57826,-115.450643776824,4,1,0,75,0,0
58026,-115.948275862069,4,1,0,75,0,0
58226,-116.450216450216,4,1,0,75,0,0
58426,-116.95652173913,4,1,0,75,0,0
58626,-117.467248908297,4,1,0,75,0,0
58826,-117.982456140351,4,1,0,75,0,0
59026,-118.502202643172,4,1,0,75,0,0
59226,-119.026548672566,4,1,0,75,0,0
59426,-119.555555555556,4,1,0,70,0,0
59626,-120.089285714286,4,1,0,70,0,0
59826,-120.627802690583,4,1,0,70,0,0
60026,-121.171171171171,4,1,0,70,0,0
60226,-121.719457013575,4,1,0,70,0,0
60426,-122.272727272727,4,1,0,70,0,0
60626,-122.831050228311,4,1,0,70,0,0
60826,-123.394495412844,4,1,0,70,0,0
61026,-123.963133640553,4,1,0,65,0,0
61226,-124.537037037037,4,1,0,65,0,0
61426,-125.116279069767,4,1,0,65,0,0
61626,-125.700934579439,4,1,0,65,0,0
61826,-126.291079812207,4,1,0,65,0,0
62026,-126.88679245283,4,1,0,65,0,0
62226,-127.488151658768,4,1,0,65,0,0
62426,-128.095238095238,4,1,0,65,0,0
62626,-128.708133971292,4,1,0,60,0,0
62826,-129.326923076923,4,1,0,60,0,0
63026,-129.951690821256,4,1,0,60,0,0
63226,-130.582524271845,4,1,0,60,0,0
63426,-131.219512195122,4,1,0,60,0,0
63626,-131.862745098039,4,1,0,60,0,0
63826,-132.512315270936,4,1,0,60,0,0
64026,-133.168316831683,4,1,0,60,0,0
69827,-50,4,1,0,75,0,0
70627,-133.333333333333,4,1,0,70,0,0
76326,-133.333333333333,4,1,0,70,0,0
76426,-132.575757575758,4,1,0,70,0,0
76526,-131.826741996233,4,1,0,70,0,0
76626,-131.086142322097,4,1,0,70,0,0
76726,-130.353817504655,4,1,0,70,0,0
76826,-129.62962962963,4,1,0,70,0,0
76926,-128.913443830571,4,1,0,70,0,0
77026,-128.205128205128,4,1,0,75,0,0
77926,-128.205128205128,4,1,0,75,0,0
78026,-127.551020408163,4,1,0,75,0,0
78126,-126.903553299492,4,1,0,75,0,0
78226,-126.262626262626,4,1,0,75,0,0
78326,-125.628140703518,4,1,0,75,0,0
78426,-125,4,1,0,75,0,0
78526,-124.378109452736,4,1,0,75,0,0
78626,-123.762376237624,4,1,0,80,0,0
79526,-123.762376237624,4,1,0,80,0,0
79626,-123.112278397899,4,1,0,80,0,0
79726,-122.468974526453,4,1,0,80,0,0
79826,-121.832358674464,4,1,0,80,0,0
79926,-121.20232708468,4,1,0,80,0,0
80026,-120.578778135048,4,1,0,80,0,0
80126,-119.961612284069,4,1,0,80,0,0
80226,-119.350732017823,4,1,0,85,0,0
80427,-114.942528735632,4,1,0,90,0,0
80726,-114.942528735632,4,1,0,90,0,0
80826,-113.207547169811,4,1,0,90,0,0
80926,-111.524163568773,4,1,0,90,0,0
81026,-109.89010989011,4,1,0,95,0,0
81227,-106.382978723404,4,1,0,95,0,0
81826,-106.382978723404,4,1,0,95,0,0
81876,-105.960264900662,4,1,0,95,0,0
81926,-105.540897097625,4,1,0,95,0,0
81976,-105.124835742444,4,1,0,95,0,0
82026,-104.712041884817,4,1,0,95,0,0
82126,-103.896103896104,4,1,0,95,0,0
82226,-103.092783505155,4,1,0,95,0,0
82276,-102.695763799743,4,1,0,95,0,0
82326,-102.30179028133,4,1,0,95,0,0
82376,-101.910828025478,4,1,0,95,0,0
82426,-101.522842639594,4,1,0,95,0,0
82476,-101.137800252844,4,1,0,95,0,0
82526,-100.755667506297,4,1,0,95,0,0
82576,-100.376411543287,4,1,0,95,0,0
82626,-100,4,1,0,95,0,0
83427,-100,4,1,0,100,0,1
95427,-100,4,1,0,100,0,0
96227,-100,4,1,0,100,0,1
108627,-100,4,1,0,100,0,0
109027,-125,4,1,0,70,0,0

[HitObjects]
214,183,227,5,4,0:0:0:0:
205,160,427,1,0,0:0:0:0:
204,158,627,1,8,0:0:0:0:
204,158,827,1,8,0:0:0:0:
204,158,927,1,8,0:0:0:0:
108,151,1027,1,8,0:0:0:0:
205,160,1227,1,0,0:0:0:0:
108,151,1427,1,0,0:0:0:0:
190,135,1527,1,8,0:0:0:0:
220,106,1627,1,0,0:0:0:0:
181,92,1727,1,0,0:0:0:0:
220,106,1827,1,8,0:0:0:0:
242,100,2027,1,0,0:0:0:0:
288,81,2227,1,8,0:0:0:0:
278,98,2327,1,0,0:0:0:0:
288,81,2427,1,8,0:0:0:0:
157,55,2627,1,8,0:0:0:0:
157,55,2827,1,0,0:0:0:0:
157,55,3027,1,8,0:0:0:0:
157,55,3127,1,0,0:0:0:0:
157,55,3227,1,8,0:0:0:0:
157,55,3327,1,8,0:0:0:0:
281,102,3427,1,0,0:0:0:0:
281,102,3627,1,0,0:0:0:0:
281,102,3827,1,8,0:0:0:0:
281,102,4027,1,8,0:0:0:0:
281,102,4127,1,8,0:0:0:0:
257,80,4227,1,0,0:0:0:0:
254,80,4427,1,0,0:0:0:0:
191,75,4627,1,8,0:0:0:0:
197,71,4727,1,8,0:0:0:0:
197,71,4827,1,0,0:0:0:0:
191,75,4927,1,8,0:0:0:0:
191,75,5027,1,0,0:0:0:0:
191,75,5227,1,8,0:0:0:0:
191,75,5427,1,0,0:0:0:0:
188,78,5527,1,0,0:0:0:0:
194,80,5627,1,8,0:0:0:0:
195,151,5827,1,8,0:0:0:0:
271,176,6027,1,0,0:0:0:0:
356,80,6077,1,0,0:0:0:0:
256,118,6127,1,8,0:0:0:0:
256,118,6177,1,8,0:0:0:0:
221,52,6227,1,0,0:0:0:0:
221,52,6327,1,0,0:0:0:0:
221,52,6427,1,8,0:0:0:0:
221,52,6477,1,8,0:0:0:0:
221,52,6527,1,8,0:0:0:0:
221,52,6577,1,8,0:0:0:0:
221,52,6627,1,4,0:0:0:0:
205,178,6827,1,0,0:0:0:0:
205,178,7027,1,8,0:0:0:0:
205,178,7227,1,8,0:0:0:0:
205,178,7327,1,8,0:0:0:0:
205,178,7427,1,0,0:0:0:0:
257,217,7627,1,0,0:0:0:0:
257,217,7827,1,8,0:0:0:0:
257,217,7927,1,0,0:0:0:0:
221,144,8027,1,0,0:0:0:0:
257,217,8127,1,8,0:0:0:0:
257,217,8227,1,8,0:0:0:0:
221,144,8427,1,0,0:0:0:0:
221,144,8627,1,8,0:0:0:0:
221,144,8727,1,0,0:0:0:0:
221,144,8827,1,8,0:0:0:0:
175,89,9027,1,8,0:0:0:0:
175,89,9227,1,0,0:0:0:0:
261,88,9427,1,8,0:0:0:0:
261,88,9527,1,8,0:0:0:0:
272,67,9627,1,0,0:0:0:0:
272,67,9727,1,0,0:0:0:0:
272,67,9827,1,8,0:0:0:0:
272,67,10027,1,8,0:0:0:0:
272,67,10227,1,0,0:0:0:0:
272,67,10427,1,8,0:0:0:0:
272,67,10527,1,0,0:0:0:0:
272,67,10627,1,0,0:0:0:0:
272,67,10827,1,8,0:0:0:0:
412,270,11027,1,0,0:0:0:0:
412,270,11127,1,8,0:0:0:0:
412,270,11227,1,0,0:0:0:0:
412,270,11327,1,8,0:0:0:0:
283,167,11427,1,0,0:0:0:0:
177,60,11627,1,8,0:0:0:0:
177,60,11827,1,0,0:0:0:0:
177,60,11927,1,0,0:0:0:0:
177,60,12027,1,8,0:0:0:0:
357,169,12227,1,4,0:0:0:0:
380,189,13027,1,12,0:0:0:0:
354,175,13227,1,8,0:0:0:0:
354,175,13427,1,8,0:0:0:0:
354,175,13627,1,8,0:0:0:0:
354,175,13727,1,8,0:0:0:0:
354,175,13827,1,0,0:0:0:0:
214,237,14027,1,0,0:0:0:0:
214,237,14227,1,8,0:0:0:0:
214,237,14327,1,0,0:0:0:0:
223,232,14427,1,0,0:0:0:0:
224,231,14527,1,8,0:0:0:0:
219,89,14627,1,8,0:0:0:0:
219,89,14827,1,0,0:0:0:0:
219,89,15027,1,8,0:0:0:0:
111,123,15127,1,8,0:0:0:0:
111,123,15227,1,8,0:0:0:0:
111,123,15427,1,0,0:0:0:0:
111,123,15627,1,0,0:0:0:0:
111,123,15827,1,8,0:0:0:0:
111,123,15927,1,0,0:0:0:0:
111,123,16027,1,8,0:0:0:0:
111,123,16127,1,8,0:0:0:0:
124,111,16227,1,0,0:0:0:0:
124,111,16427,1,0,0:0:0:0:
124,111,16627,1,8,0:0:0:0:
124,111,16827,1,8,0:0:0:0:
124,109,16927,1,8,0:0:0:0:
124,111,17027,1,0,0:0:0:0:
124,111,17227,1,0,0:0:0:0:
124,111,17427,1,8,0:0:0:0:
124,111,17527,1,8,0:0:0:0:
305,112,17627,1,8,0:0:0:0:
305,112,17727,1,8,0:0:0:0:
236,73,17827,1,0,0:0:0:0:
274,91,18027,1,8,0:0:0:0:
165,60,18227,1,0,0:0:0:0:
165,60,18327,1,0,0:0:0:0:
165,60,18427,1,8,0:0:0:0:
165,60,18627,1,0,0:0:0:0:
350,113,18677,1,0,0:0:0:0:
359,110,18727,1,0,0:0:0:0:
350,113,18777,1,0,0:0:0:0:
298,115,18827,1,8,0:0:0:0:
312,111,18927,1,8,0:0:0:0:
315,111,19027,1,0,0:0:0:0:
314,111,19077,1,0,0:0:0:0:
316,110,19127,1,0,0:0:0:0:
308,110,19177,1,0,0:0:0:0:
313,104,19227,1,8,0:0:0:0:
313,104,19327,1,8,0:0:0:0:
288,113,19427,1,4,0:0:0:0:
388,159,19627,1,0,0:0:0:0:
388,159,19827,1,8,0:0:0:0:
388,159,20027,1,8,0:0:0:0:
388,159,20127,1,8,0:0:0:0:
388,159,20227,1,0,0:0:0:0:
388,159,20427,1,0,0:0:0:0:
388,159,20627,1,8,0:0:0:0:
388,159,20727,1,0,0:0:0:0:
148,111,20827,1,8,0:0:0:0:
148,111,20927,1,8,0:0:0:0:
148,111,21027,1,8,0:0:0:0:
148,111,21227,1,0,0:0:0:0:
148,111,21427,1,8,0:0:0:0:
153,106,21527,1,0,0:0:0:0:
155,105,21627,1,8,0:0:0:0:
158,104,21827,1,0,0:0:0:0:
158,104,22027,1,0,0:0:0:0:
158,104,22227,1,8,0:0:0:0:
153,106,22327,1,0,0:0:0:0:
155,105,22427,1,8,0:0:0:0:
158,104,22527,1,8,0:0:0:0:
158,104,22627,1,0,0:0:0:0:
158,104,22827,1,0,0:0:0:0:
158,104,23027,1,8,0:0:0:0:
155,105,23227,1,0,0:0:0:0:
158,104,23327,1,0,0:0:0:0:
158,104,23427,1,8,0:0:0:0:
158,104,23627,1,8,0:0:0:0:
158,104,23827,1,0,0:0:0:0:
161,84,23927,1,8,0:0:0:0:
161,84,24027,1,0,0:0:0:0:
161,84,24127,1,0,0:0:0:0:
163,84,24227,1,8,0:0:0:0:
258,110,24427,1,8,0:0:0:0:
258,110,24627,1,0,0:0:0:0:
258,110,24727,1,8,0:0:0:0:
194,24,24827,1,0,0:0:0:0:
194,24,25027,1,12,0:0:0:0:
231,187,25827,5,0,0:0:0:0:
231,187,25877,1,0,0:0:0:0:
231,187,25927,1,0,0:0:0:0:
184,148,25977,1,0,0:0:0:0:
231,187,26027,1,8,0:0:0:0:
184,148,26127,1,0,0:0:0:0:
184,148,26227,1,8,0:0:0:0:
184,148,26277,1,0,0:0:0:0:
184,148,26327,1,8,0:0:0:0:
184,148,26377,1,8,0:0:0:0:
184,148,26427,1,0,0:0:0:0:
184,148,26527,1,0,0:0:0:0:
184,148,26627,1,8,0:0:0:0:
184,148,26677,1,8,0:0:0:0:
184,148,26727,1,0,0:0:0:0:
184,148,26777,1,0,0:0:0:0:
184,148,26827,1,8,0:0:0:0:
184,148,26877,1,8,0:0:0:0:
184,148,26927,1,0,0:0:0:0:
184,148,26977,1,0,0:0:0:0:
184,148,27027,1,8,0:0:0:0:
184,148,27127,1,8,0:0:0:0:
184,148,27227,1,0,0:0:0:0:
422,202,27327,1,0,0:0:0:0:
422,202,27377,1,0,0:0:0:0:
287,157,27427,1,8,0:0:0:0:
332,186,27527,1,0,0:0:0:0:
332,186,27627,1,8,0:0:0:0:
332,186,27677,1,8,0:0:0:0:
291,169,27727,1,0,0:0:0:0:
318,209,27827,1,8,0:0:0:0:
317,207,27877,1,0,0:0:0:0:
314,205,27927,1,0,0:0:0:0:
317,206,27977,1,0,0:0:0:0:
314,205,28027,1,8,0:0:0:0:
244,172,28127,1,8,0:0:0:0:
299,160,28227,1,0,0:0:0:0:
232,172,28277,1,0,0:0:0:0:
232,172,28327,1,8,0:0:0:0:
232,172,28377,1,0,0:0:0:0:
232,172,28427,1,8,0:0:0:0:
232,172,28477,1,8,0:0:0:0:
214,166,28527,1,8,0:0:0:0:
219,163,28577,1,8,0:0:0:0:
208,68,28627,5,0,0:0:0:0:
208,68,28727,1,0,0:0:0:0:
197,81,28827,1,8,0:0:0:0:
227,99,28927,1,0,0:0:0:0:
433,135,28977,1,0,0:0:0:0:
267,57,29027,1,12,0:0:0:0:
123,129,29127,1,0,0:0:0:0:
123,129,29227,1,8,0:0:0:0:
123,129,29327,1,8,0:0:0:0:
196,106,29427,1,0,0:0:0:0:
123,129,29527,1,0,0:0:0:0:
206,116,29627,1,8,0:0:0:0:
206,116,29727,1,0,0:0:0:0:
206,116,29827,1,8,0:0:0:0:
206,115,29927,1,8,0:0:0:0:
206,115,30027,1,0,0:0:0:0:
206,115,30127,1,0,0:0:0:0:
261,132,30227,1,8,0:0:0:0:
261,132,30277,1,8,0:0:0:0:
261,132,30327,1,8,0:0:0:0:
266,127,30377,1,8,0:0:0:0:
269,124,30427,1,0,0:0:0:0:
382,266,30527,1,8,0:0:0:0:
382,266,30577,1,8,0:0:0:0:
363,254,30627,1,8,0:0:0:0:
361,253,30727,1,8,0:0:0:0:
361,253,30827,1,0,0:0:0:0:
361,253,30927,1,0,0:0:0:0:
360,253,31027,1,8,0:0:0:0:
360,253,31127,1,0,0:0:0:0:
360,253,31227,1,8,0:0:0:0:
360,253,31327,1,8,0:0:0:0:
318,120,31427,1,0,0:0:0:0:
318,120,31627,1,0,0:0:0:0:
318,120,31827,1,0,0:0:0:0:
328,123,32027,1,8,0:0:0:0:
329,123,32077,1,8,0:0:0:0:
329,123,32127,1,8,0:0:0:0:
231,187,32227,5,0,0:0:0:0:
231,187,32277,1,8,0:0:0:0:
231,187,32327,1,0,0:0:0:0:
184,148,32377,1,0,0:0:0:0:
231,187,32427,1,8,0:0:0:0:
184,148,32527,1,0,0:0:0:0:
184,148,32627,1,8,0:0:0:0:
184,148,32677,1,8,0:0:0:0:
184,148,32727,1,8,0:0:0:0:
184,148,32777,1,8,0:0:0:0:
184,148,32827,1,0,0:0:0:0:
184,148,32927,1,0,0:0:0:0:
184,148,33027,1,8,0:0:0:0:
326,147,33077,1,8,0:0:0:0:
184,148,33127,1,0,0:0:0:0:
184,148,33177,1,0,0:0:0:0:
184,148,33227,1,8,0:0:0:0:
326,147,33277,1,0,0:0:0:0:
184,148,33327,1,0,0:0:0:0:
184,148,33377,1,0,0:0:0:0:
184,148,33427,1,8,0:0:0:0:
184,148,33527,1,8,0:0:0:0:
184,148,33627,1,0,0:0:0:0:
422,202,33727,1,0,0:0:0:0:
242,121,33777,1,0,0:0:0:0:
287,157,33827,1,8,0:0:0:0:
332,186,33927,1,0,0:0:0:0:
332,186,34027,1,8,0:0:0:0:
242,121,34077,1,0,0:0:0:0:
220,102,34127,1,8,0:0:0:0:
225,66,34227,1,0,0:0:0:0:
220,102,34277,1,0,0:0:0:0:
225,66,34327,1,8,0:0:0:0:
224,66,34377,1,0,0:0:0:0:
200,26,34427,1,8,0:0:0:0:
200,26,34527,1,0,0:0:0:0:
200,26,34627,1,8,0:0:0:0:
200,26,34677,1,8,0:0:0:0:
200,26,34727,1,0,0:0:0:0:
200,26,34777,1,8,0:0:0:0:
200,26,34827,1,0,0:0:0:0:
200,26,34877,1,0,0:0:0:0:
200,26,34927,1,8,0:0:0:0:
219,163,34977,1,8,0:0:0:0:
208,68,35027,5,0,0:0:0:0:
208,68,35127,1,0,0:0:0:0:
197,81,35227,1,8,0:0:0:0:
227,99,35327,1,0,0:0:0:0:
433,135,35377,1,0,0:0:0:0:
267,57,35427,1,12,0:0:0:0:
331,135,35627,1,0,0:0:0:0:
331,135,35827,1,8,0:0:0:0:
276,121,36027,1,8,0:0:0:0:
331,135,36077,1,8,0:0:0:0:
331,135,36127,1,8,0:0:0:0:
276,121,36227,1,0,0:0:0:0:
276,121,36327,1,0,0:0:0:0:
276,121,36377,1,0,0:0:0:0:
276,121,36427,1,8,0:0:0:0:
207,38,36477,1,8,0:0:0:0:
207,38,36527,1,0,0:0:0:0:
188,50,36627,1,0,0:0:0:0:
188,50,36827,1,8,0:0:0:0:
188,50,36877,1,8,0:0:0:0:
188,50,36927,1,8,0:0:0:0:
188,50,36977,1,8,0:0:0:0:
188,50,37027,1,0,0:0:0:0:
188,50,37227,1,0,0:0:0:0:
188,50,37427,1,8,0:0:0:0:
188,50,37527,1,8,0:0:0:0:
188,50,37627,1,0,0:0:0:0:
78,147,37827,1,8,0:0:0:0:
78,147,37877,1,8,0:0:0:0:
78,147,37927,1,8,0:0:0:0:
254,103,38027,1,0,0:0:0:0:
246,97,38227,1,8,0:0:0:0:
246,97,38327,1,8,0:0:0:0:
246,97,38427,1,0,0:0:0:0:
332,230,38477,1,0,0:0:0:0:
332,230,38527,1,0,0:0:0:0:
260,170,38627,1,8,0:0:0:0:
260,170,38677,1,8,0:0:0:0:
260,170,38727,1,0,0:0:0:0:
253,162,38777,1,0,0:0:0:0:
253,162,38827,1,8,0:0:0:0:
253,162,38877,1,8,0:0:0:0:
253,162,38927,1,8,0:0:0:0:
254,162,38977,1,8,0:0:0:0:
254,162,39027,1,0,0:0:0:0:
254,162,39127,1,0,0:0:0:0:
254,162,39227,1,8,0:0:0:0:
145,46,39327,1,8,0:0:0:0:
145,46,39427,1,0,0:0:0:0:
145,46,39527,1,8,0:0:0:0:
145,46,39577,1,8,0:0:0:0:
145,46,39627,1,0,0:0:0:0:
145,46,39677,1,0,0:0:0:0:
145,46,39727,1,8,0:0:0:0:
145,46,39777,1,0,0:0:0:0:
145,46,39827,1,8,0:0:0:0:
145,46,39877,1,8,0:0:0:0:
145,46,39927,1,8,0:0:0:0:
145,46,39977,1,8,0:0:0:0:
145,46,40027,1,0,0:0:0:0:
193,44,40127,1,0,0:0:0:0:
193,44,40227,1,8,0:0:0:0:
193,44,40277,1,0,0:0:0:0:
193,44,40327,1,8,0:0:0:0:
193,44,40377,1,0,0:0:0:0:
183,42,40427,1,8,0:0:0:0:
182,42,40477,1,8,0:0:0:0:
182,42,40527,1,0,0:0:0:0:
182,41,40577,1,0,0:0:0:0:
145,46,40627,1,8,0:0:0:0:
145,46,40727,1,8,0:0:0:0:
145,46,40827,1,0,0:0:0:0:
154,41,40877,1,0,0:0:0:0:
153,41,40927,1,0,0:0:0:0:
154,41,40977,1,0,0:0:0:0:
188,118,41027,1,8,0:0:0:0:
188,118,41077,1,8,0:0:0:0:
188,118,41127,1,8,0:0:0:0:
188,118,41177,1,8,0:0:0:0:
188,118,41227,1,0,0:0:0:0:
262,143,41327,1,0,0:0:0:0:
236,141,41427,1,8,0:0:0:0:
236,141,41527,1,0,0:0:0:0:
236,141,41627,1,8,0:0:0:0:
236,141,41727,1,8,0:0:0:0:
234,136,41827,1,0,0:0:0:0:
234,135,41877,1,0,0:0:0:0:
240,134,41927,1,8,0:0:0:0:
242,135,41977,1,8,0:0:0:0:
244,135,42027,1,0,0:0:0:0:
245,135,42077,1,8,0:0:0:0:
250,135,42127,1,8,0:0:0:0:
246,135,42177,1,8,0:0:0:0:
250,135,42227,1,0,0:0:0:0:
250,135,42277,1,0,0:0:0:0:
192,84,42327,1,8,0:0:0:0:
192,84,42377,1,0,0:0:0:0:
192,84,42427,1,8,0:0:0:0:
208,102,42527,1,8,0:0:0:0:
208,102,42627,1,0,0:0:0:0:
171,130,42727,1,8,0:0:0:0:
300,62,42777,1,8,0:0:0:0:
329,210,42827,1,0,0:0:0:0:
329,210,42877,1,0,0:0:0:0:
171,130,42927,1,8,0:0:0:0:
300,62,42977,1,0,0:0:0:0:
171,130,43027,1,0,0:0:0:0:
292,67,43077,1,0,0:0:0:0:
292,67,43127,1,8,0:0:0:0:
279,71,43177,1,8,0:0:0:0:
279,71,43227,1,0,0:0:0:0:
179,130,43277,1,8,0:0:0:0:
179,130,43327,1,8,0:0:0:0:
279,72,43377,1,8,0:0:0:0:
279,72,43427,1,0,0:0:0:0:
227,77,43527,1,8,0:0:0:0:
227,77,43627,1,0,0:0:0:0:
259,169,43827,1,8,0:0:0:0:
259,169,43877,1,8,0:0:0:0:
259,169,43927,1,8,0:0:0:0:
259,169,43977,1,8,0:0:0:0:
259,169,44027,1,0,0:0:0:0:
259,169,44127,1,0,0:0:0:0:
259,169,44227,1,8,0:0:0:0:
164,197,44277,1,8,0:0:0:0:
164,197,44327,1,0,0:0:0:0:
164,197,44377,1,0,0:0:0:0:
164,197,44427,1,8,0:0:0:0:
164,197,44477,1,0,0:0:0:0:
164,197,44527,1,8,0:0:0:0:
351,172,44627,1,0,0:0:0:0:
351,172,44677,1,0,0:0:0:0:
351,172,44727,1,0,0:0:0:0:
351,172,44827,1,8,0:0:0:0:
351,172,44877,1,8,0:0:0:0:
351,172,44927,1,8,0:0:0:0:
351,172,44977,1,8,0:0:0:0:
351,172,45027,1,0,0:0:0:0:
351,172,45127,1,0,0:0:0:0:
230,199,45227,1,8,0:0:0:0:
230,199,45327,1,0,0:0:0:0:
230,199,45377,1,0,0:0:0:0:
230,199,45427,1,0,0:0:0:0:
230,199,45627,1,8,0:0:0:0:
188,143,45677,1,8,0:0:0:0:
188,143,45727,1,8,0:0:0:0:
188,143,45827,1,0,0:0:0:0:
188,143,45927,1,8,0:0:0:0:
188,143,45977,1,8,0:0:0:0:
188,143,46027,1,0,0:0:0:0:
188,143,46127,1,0,0:0:0:0:
195,139,46227,1,8,0:0:0:0:
197,138,46277,1,0,0:0:0:0:
202,135,46327,1,0,0:0:0:0:
198,138,46377,1,0,0:0:0:0:
202,135,46427,1,8,0:0:0:0:
204,132,46527,1,0,0:0:0:0:
204,132,46577,1,0,0:0:0:0:
194,103,46627,1,8,0:0:0:0:
229,118,46827,1,8,0:0:0:0:
229,118,46877,1,8,0:0:0:0:
230,118,46927,1,0,0:0:0:0:
226,93,46977,1,8,0:0:0:0:
226,93,47027,1,0,0:0:0:0:
229,94,47127,1,8,0:0:0:0:
229,94,47177,1,8,0:0:0:0:
229,94,47227,1,0,0:0:0:0:
230,118,47277,1,0,0:0:0:0:
238,115,47327,1,0,0:0:0:0:
231,118,47377,1,0,0:0:0:0:
240,114,47427,1,8,0:0:0:0:
240,114,47477,1,8,0:0:0:0:
239,115,47527,1,8,0:0:0:0:
240,114,47577,1,8,0:0:0:0:
239,115,47627,1,0,0:0:0:0:
241,115,47727,1,0,0:0:0:0:
281,68,47827,1,8,0:0:0:0:
281,68,47927,1,0,0:0:0:0:
281,68,48027,1,8,0:0:0:0:
281,68,48077,1,8,0:0:0:0:
281,68,48127,1,0,0:0:0:0:
281,68,48177,1,0,0:0:0:0:
281,68,48227,1,8,0:0:0:0:
281,68,48327,1,0,0:0:0:0:
281,68,48377,1,0,0:0:0:0:
163,60,48427,1,0,0:0:0:0:
230,74,48527,1,8,0:0:0:0:
230,74,48577,1,8,0:0:0:0:
230,74,48627,1,0,0:0:0:0:
230,74,48677,1,8,0:0:0:0:
230,74,48727,1,8,0:0:0:0:
230,74,48777,1,8,0:0:0:0:
230,74,48827,1,0,0:0:0:0:
230,74,48877,1,0,0:0:0:0:
230,74,48927,1,8,0:0:0:0:
230,74,48977,1,8,0:0:0:0:
230,74,49027,1,0,0:0:0:0:
230,74,49127,1,0,0:0:0:0:
117,38,49227,1,8,0:0:0:0:
230,74,49277,1,8,0:0:0:0:
230,74,49327,1,8,0:0:0:0:
117,38,49427,1,0,0:0:0:0:
117,38,49477,1,0,0:0:0:0:
117,38,49527,1,8,0:0:0:0:
117,38,49577,1,8,0:0:0:0:
117,38,49627,1,0,0:0:0:0:
117,38,49677,1,0,0:0:0:0:
117,38,49727,1,8,0:0:0:0:
117,38,49777,1,8,0:0:0:0:
117,38,49827,1,0,0:0:0:0:
117,38,49927,1,8,0:0:0:0:
117,38,49977,1,8,0:0:0:0:
161,78,50027,1,0,0:0:0:0:
161,78,50077,1,0,0:0:0:0:
161,78,50127,1,0,0:0:0:0:
165,71,50177,1,0,0:0:0:0:
165,71,50227,1,8,0:0:0:0:
164,71,50277,1,8,0:0:0:0:
164,71,50327,1,8,0:0:0:0:
169,64,50377,1,8,0:0:0:0:
169,64,50427,1,0,0:0:0:0:
196,65,50527,1,0,0:0:0:0:
410,165,50627,1,12,0:0:0:0:
390,152,51427,1,12,0:0:0:0:
299,150,51627,1,0,0:0:0:0:
299,150,51827,1,8,0:0:0:0:
299,150,52027,1,8,0:0:0:0:
299,150,52227,1,0,0:0:0:0:
299,150,52427,1,0,0:0:0:0:
299,150,52627,1,8,0:0:0:0:
299,150,52827,1,0,0:0:0:0:
299,150,53027,1,8,0:0:0:0:
299,150,53227,1,8,0:0:0:0:
299,150,53427,1,0,0:0:0:0:
299,150,53627,1,8,0:0:0:0:
299,150,53827,1,0,0:0:0:0:
299,150,54027,1,0,0:0:0:0:
299,150,54227,1,8,0:0:0:0:
299,150,54427,1,0,0:0:0:0:
299,150,54627,1,8,0:0:0:0:
299,150,54827,1,8,0:0:0:0:
299,150,55027,1,0,0:0:0:0:
299,150,55227,1,8,0:0:0:0:
299,150,55427,1,0,0:0:0:0:
299,150,55627,1,0,0:0:0:0:
299,150,55827,1,8,0:0:0:0:
299,150,56027,1,0,0:0:0:0:
299,150,56227,1,8,0:0:0:0:
299,150,56427,1,8,0:0:0:0:
299,150,56627,1,0,0:0:0:0:
299,150,56827,1,0,0:0:0:0:
217,151,57027,1,8,0:0:0:0:
217,151,57227,1,0,0:0:0:0:
217,151,57427,1,8,0:0:0:0:
217,151,57627,1,0,0:0:0:0:
217,151,57827,1,8,0:0:0:0:
217,151,58027,1,8,0:0:0:0:
217,151,58227,1,0,0:0:0:0:
217,151,58427,1,0,0:0:0:0:
217,151,58627,1,8,0:0:0:0:
217,151,58827,1,0,0:0:0:0:
217,151,59027,1,8,0:0:0:0:
217,151,59227,1,8,0:0:0:0:
217,151,59427,1,0,0:0:0:0:
217,151,59627,1,0,0:0:0:0:
217,151,59827,1,8,0:0:0:0:
217,151,60027,1,8,0:0:0:0:
217,151,60227,1,0,0:0:0:0:
217,151,60427,1,8,0:0:0:0:
100,139,60627,1,0,0:0:0:0:
55,146,60827,1,0,0:0:0:0:
63,144,61027,1,8,0:0:0:0:
63,144,61227,1,8,0:0:0:0:
63,144,61427,1,0,0:0:0:0:
63,144,61627,1,0,0:0:0:0:
63,144,61827,1,8,0:0:0:0:
63,144,62027,1,0,0:0:0:0:
63,144,62227,1,8,0:0:0:0:
63,144,62427,1,0,0:0:0:0:
63,144,62627,1,8,0:0:0:0:
63,144,62827,1,8,0:0:0:0:
63,144,63027,1,0,0:0:0:0:
63,144,63227,1,0,0:0:0:0:
63,144,63427,1,8,0:0:0:0:
63,144,63627,1,0,0:0:0:0:
155,151,63827,1,0,0:0:0:0:
155,151,64027,1,8,0:0:0:0:
131,246,69827,6,0,B|128:223|128:223|153:218|153:218|137:201|141:205|141:205|162:198|162:198|163:211|176:214|176:214|180:202|180:202|193:209|196:211|198:197|198:184|193:178|179:165|205:171|250:166|260:196|246:200|211:163|228:138|266:118|248:117|182:98|201:126|216:112|205:97|205:97|185:93|171:96|169:106|183:115|187:107|176:99|167:98|157:104|151:114|141:120|131:118|129:111|131:102|128:94|124:88|99:90|106:100|127:105|115:86|97:81|87:84|86:88|89:94|101:91|101:85|83:77|81:78|86:83|86:77|77:72|75:72|75:74|82:74|82:71|85:69|85:69|86:72|84:73|84:72|84:72|89:72|95:74|95:74|98:74|98:73|90:72|84:74|89:81|106:86|121:80|121:76|105:66|103:74|112:76|102:67|93:71|77:84|65:97|54:105|84:97|82:90|71:132|45:129|62:107|67:105|64:126|45:111|68:97|64:120|39:112|75:86|89:103|40:111|99:75|95:97|78:74|147:88|51:93|113:93|63:94|62:160|144:119|89:142|89:142|149:169|45:125|140:139|33:138|114:132|102:151|77:144|119:127|39:154|37:134|61:123|78:146|49:163|130:194|113:178|113:171|123:169|99:182|92:178|72:161|81:155|96:164|74:172|64:168|63:155|75:148|94:148|102:156|108:164|109:164|108:159|102:154|98:150|95:145|95:132|102:131|110:130|117:130|129:132|135:134|132:153|124:161|104:175|103:177,1,840
328,195,70627,5,4,0:0:0:0:
243,158,70827,1,8,0:0:0:0:
243,158,70927,1,0,0:0:0:0:
243,158,71127,1,0,0:0:0:0:
248,168,71227,1,0,0:0:0:0:
248,168,71327,1,8,0:0:0:0:
232,138,71527,1,8,0:0:0:0:
231,137,71627,1,0,0:0:0:0:
230,131,71727,1,0,0:0:0:0:
230,131,71827,1,8,0:0:0:0:
230,131,71927,1,8,0:0:0:0:
232,138,72027,1,0,0:0:0:0:
232,138,72127,1,8,0:0:0:0:
232,138,72227,1,0,0:0:0:0:
231,137,72427,1,8,0:0:0:0:
230,131,72527,1,0,0:0:0:0:
230,131,72727,1,0,0:0:0:0:
234,131,72827,1,0,0:0:0:0:
234,131,72927,1,8,0:0:0:0:
235,131,73127,1,0,0:0:0:0:
235,131,73227,1,8,0:0:0:0:
241,127,73327,1,0,0:0:0:0:
241,127,73427,1,8,0:0:0:0:
241,127,73527,1,8,0:0:0:0:
241,127,73627,1,0,0:0:0:0:
241,127,73727,1,0,0:0:0:0:
241,127,73827,1,8,0:0:0:0:
241,127,74027,1,8,0:0:0:0:
241,127,74127,1,0,0:0:0:0:
241,127,74327,1,8,0:0:0:0:
241,127,74427,1,0,0:0:0:0:
241,127,74527,1,8,0:0:0:0:
232,89,74727,1,0,0:0:0:0:
232,89,74827,1,0,0:0:0:0:
232,89,74927,1,0,0:0:0:0:
143,138,75027,1,8,0:0:0:0:
143,138,75127,1,8,0:0:0:0:
158,126,75227,1,8,0:0:0:0:
158,126,75327,1,0,0:0:0:0:
159,126,75427,1,8,0:0:0:0:
159,126,75627,1,0,0:0:0:0:
159,126,75727,1,8,0:0:0:0:
303,87,75927,1,8,0:0:0:0:
158,126,76027,1,0,0:0:0:0:
158,126,76127,1,8,0:0:0:0:
303,87,76327,1,8,0:0:0:0:
303,87,76427,1,0,0:0:0:0:
303,87,76527,1,0,0:0:0:0:
211,75,76627,1,8,0:0:0:0:
236,84,76727,1,8,0:0:0:0:
236,84,76827,1,0,0:0:0:0:
236,84,76927,1,8,0:0:0:0:
244,131,77027,1,4,0:0:0:0:
260,74,77227,1,8,0:0:0:0:
261,74,77327,1,0,0:0:0:0:
261,74,77527,1,0,0:0:0:0:
261,74,77627,1,0,0:0:0:0:
260,74,77727,1,8,0:0:0:0:
260,74,77927,1,0,0:0:0:0:
260,74,78027,1,8,0:0:0:0:
261,74,78127,1,0,0:0:0:0:
261,74,78227,1,8,0:0:0:0:
261,74,78327,1,8,0:0:0:0:
261,74,78427,1,0,0:0:0:0:
425,157,78527,1,8,0:0:0:0:
443,195,78627,1,4,0:0:0:0:
268,171,78827,1,8,0:0:0:0:
268,171,78927,1,0,0:0:0:0:
166,143,79127,1,8,0:0:0:0:
166,143,79227,1,0,0:0:0:0:
174,142,79327,1,8,0:0:0:0:
177,142,79527,1,8,0:0:0:0:
177,142,79627,1,8,0:0:0:0:
175,142,79727,1,0,0:0:0:0:
177,142,79827,1,8,0:0:0:0:
177,142,79927,1,0,0:0:0:0:
177,142,80027,1,8,0:0:0:0:
174,142,80127,1,8,0:0:0:0:
215,149,80227,1,4,0:0:0:0:
353,130,80427,1,4,0:0:0:0:
229,148,80727,1,0,0:0:0:0:
339,195,80827,1,8,0:0:0:0:
232,148,80927,1,8,0:0:0:0:
403,170,81027,1,4,0:0:0:0:
303,128,81227,1,4,0:0:0:0:
284,184,81527,1,0,0:0:0:0:
241,131,81627,1,8,0:0:0:0:
284,184,81727,1,8,0:0:0:0:
227,150,81827,1,0,0:0:0:0:
227,150,81877,1,0,0:0:0:0:
227,150,81927,1,0,0:0:0:0:
227,150,81977,1,0,0:0:0:0:
227,150,82027,1,8,0:0:0:0:
227,150,82127,1,8,0:0:0:0:
227,150,82227,1,0,0:0:0:0:
227,150,82277,1,8,0:0:0:0:
227,150,82327,1,0,0:0:0:0:
227,150,82377,1,0,0:0:0:0:
227,149,82427,1,8,0:0:0:0:
227,149,82477,1,8,0:0:0:0:
411,203,82527,1,0,0:0:0:0:
411,203,82577,1,0,0:0:0:0:
411,203,82627,1,8,0:0:0:0:
314,207,83427,1,4,0:0:0:0:
314,207,83527,1,0,0:0:0:0:
279,148,83627,1,8,0:0:0:0:
279,148,83677,1,8,0:0:0:0:
279,148,83727,1,0,0:0:0:0:
269,144,83827,1,0,0:0:0:0:
269,143,83927,1,8,0:0:0:0:
269,143,83977,1,0,0:0:0:0:
269,143,84027,1,0,0:0:0:0:
269,143,84127,1,8,0:0:0:0:
269,143,84227,1,0,0:0:0:0:
269,143,84327,1,8,0:0:0:0:
271,142,84377,1,0,0:0:0:0:
270,143,84427,1,0,0:0:0:0:
271,143,84477,1,0,0:0:0:0:
270,141,84527,1,8,0:0:0:0:
214,102,84627,1,0,0:0:0:0:
214,102,84677,1,0,0:0:0:0:
214,102,84727,1,8,0:0:0:0:
214,102,84777,1,8,0:0:0:0:
214,102,84827,1,0,0:0:0:0:
214,102,84877,1,0,0:0:0:0:
214,102,84927,1,8,0:0:0:0:
214,102,84977,1,8,0:0:0:0:
200,20,85027,1,0,0:0:0:0:
254,169,85127,1,0,0:0:0:0:
287,168,85227,1,8,0:0:0:0:
251,60,85277,1,0,0:0:0:0:
288,165,85327,1,8,0:0:0:0:
240,154,85427,1,8,0:0:0:0:
138,42,85527,1,0,0:0:0:0:
240,154,85577,1,0,0:0:0:0:
138,42,85627,1,0,0:0:0:0:
138,42,85727,1,8,0:0:0:0:
251,60,85827,1,0,0:0:0:0:
251,60,85877,1,0,0:0:0:0:
251,60,85927,1,0,0:0:0:0:
251,60,85977,1,0,0:0:0:0:
251,60,86027,1,8,0:0:0:0:
251,60,86077,1,8,0:0:0:0:
251,60,86127,1,0,0:0:0:0:
251,60,86177,1,0,0:0:0:0:
251,60,86227,1,8,0:0:0:0:
251,60,86277,1,0,0:0:0:0:
251,60,86327,1,0,0:0:0:0:
251,60,86377,1,0,0:0:0:0:
251,60,86427,1,8,0:0:0:0:
375,170,86477,1,8,0:0:0:0:
251,60,86527,1,8,0:0:0:0:
375,170,86577,1,8,0:0:0:0:
251,60,86627,1,0,0:0:0:0:
288,134,86727,1,0,0:0:0:0:
288,134,86827,1,8,0:0:0:0:
288,134,86877,1,8,0:0:0:0:
237,68,86927,1,0,0:0:0:0:
202,91,87027,1,8,0:0:0:0:
202,91,87127,1,0,0:0:0:0:
229,109,87177,1,0,0:0:0:0:
233,113,87227,1,0,0:0:0:0:
202,91,87327,1,8,0:0:0:0:
202,91,87427,1,0,0:0:0:0:
202,91,87527,1,8,0:0:0:0:
202,91,87577,1,8,0:0:0:0:
202,91,87627,1,0,0:0:0:0:
202,91,87677,1,8,0:0:0:0:
184,36,87727,1,0,0:0:0:0:
184,36,87827,1,8,0:0:0:0:
184,36,87877,1,8,0:0:0:0:
266,157,87927,1,0,0:0:0:0:
279,92,87977,1,0,0:0:0:0:
279,92,88027,1,8,0:0:0:0:
279,92,88077,1,0,0:0:0:0:
266,157,88127,1,8,0:0:0:0:
266,157,88227,1,0,0:0:0:0:
266,157,88277,1,0,0:0:0:0:
266,157,88327,1,0,0:0:0:0:
266,157,88377,1,0,0:0:0:0:
226,81,88427,1,8,0:0:0:0:
226,81,88477,1,8,0:0:0:0:
226,81,88527,1,0,0:0:0:0:
226,81,88577,1,0,0:0:0:0:
226,81,88627,1,8,0:0:0:0:
226,81,88677,1,0,0:0:0:0:
226,81,88727,1,0,0:0:0:0:
226,81,88777,1,0,0:0:0:0:
200,64,88827,1,8,0:0:0:0:
226,81,88877,1,8,0:0:0:0:
200,64,88927,1,0,0:0:0:0:
200,64,89027,1,8,0:0:0:0:
200,64,89077,1,8,0:0:0:0:
200,64,89127,1,8,0:0:0:0:
200,64,89177,1,8,0:0:0:0:
200,64,89227,1,0,0:0:0:0:
200,64,89277,1,0,0:0:0:0:
200,64,89327,1,8,0:0:0:0:
200,64,89377,1,8,0:0:0:0:
200,64,89427,1,0,0:0:0:0:
200,64,89527,1,0,0:0:0:0:
200,64,89627,1,8,0:0:0:0:
200,64,89727,1,8,0:0:0:0:
314,207,89827,1,4,0:0:0:0:
314,207,89927,1,8,0:0:0:0:
279,148,90027,1,0,0:0:0:0:
279,148,90077,1,0,0:0:0:0:
279,148,90127,1,8,0:0:0:0:
269,144,90227,1,0,0:0:0:0:
269,143,90327,1,8,0:0:0:0:
269,143,90377,1,8,0:0:0:0:
269,143,90427,1,0,0:0:0:0:
269,143,90527,1,8,0:0:0:0:
269,143,90627,1,0,0:0:0:0:
269,143,90727,1,8,0:0:0:0:
271,142,90777,1,8,0:0:0:0:
270,143,90827,1,0,0:0:0:0:
271,143,90877,1,0,0:0:0:0:
270,141,90927,1,8,0:0:0:0:
214,102,91027,1,0,0:0:0:0:
214,102,91077,1,0,0:0:0:0:
214,102,91127,1,0,0:0:0:0:
214,102,91177,1,0,0:0:0:0:
214,102,91227,1,8,0:0:0:0:
214,102,91277,1,0,0:0:0:0:
214,102,91327,1,8,0:0:0:0:
214,102,91377,1,8,0:0:0:0:
200,20,91427,1,0,0:0:0:0:
254,169,91527,1,0,0:0:0:0:
287,168,91627,1,8,0:0:0:0:
251,60,91677,1,8,0:0:0:0:
288,165,91727,1,8,0:0:0:0:
240,154,91827,1,0,0:0:0:0:
138,42,91927,1,8,0:0:0:0:
240,154,91977,1,8,0:0:0:0:
138,42,92027,1,0,0:0:0:0:
138,42,92127,1,8,0:0:0:0:
239,133,92227,1,0,0:0:0:0:
239,133,92277,1,0,0:0:0:0:
239,133,92327,1,8,0:0:0:0:
221,83,92377,1,0,0:0:0:0:
221,83,92427,1,8,0:0:0:0:
221,83,92477,1,8,0:0:0:0:
221,83,92527,1,8,0:0:0:0:
221,83,92577,1,8,0:0:0:0:
221,83,92627,1,0,0:0:0:0:
228,82,92677,1,0,0:0:0:0:
221,83,92727,1,8,0:0:0:0:
221,83,92777,1,8,0:0:0:0:
221,83,92827,1,0,0:0:0:0:
221,83,92877,1,8,0:0:0:0:
221,83,92927,1,8,0:0:0:0:
221,83,92977,1,8,0:0:0:0:
235,105,93027,1,0,0:0:0:0:
288,134,93127,1,0,0:0:0:0:
288,134,93227,1,8,0:0:0:0:
288,134,93277,1,0,0:0:0:0:
237,68,93327,1,8,0:0:0:0:
202,91,93427,1,8,0:0:0:0:
202,91,93527,1,0,0:0:0:0:
229,109,93577,1,0,0:0:0:0:
233,113,93627,1,0,0:0:0:0:
202,91,93727,1,8,0:0:0:0:
202,91,93827,1,0,0:0:0:0:
202,91,93927,1,8,0:0:0:0:
202,91,93977,1,8,0:0:0:0:
202,91,94027,1,8,0:0:0:0:
202,91,94077,1,8,0:0:0:0:
184,36,94127,1,0,0:0:0:0:
184,36,94227,1,8,0:0:0:0:
184,36,94277,1,0,0:0:0:0:
266,157,94327,1,0,0:0:0:0:
191,68,94377,1,0,0:0:0:0:
279,92,94427,1,8,0:0:0:0:
279,92,94477,1,8,0:0:0:0:
266,157,94527,1,0,0:0:0:0:
137,160,94627,1,8,0:0:0:0:
137,160,94677,1,8,0:0:0:0:
208,191,94727,1,8,0:0:0:0:
208,191,94777,1,8,0:0:0:0:
208,191,94827,1,0,0:0:0:0:
208,191,94877,1,0,0:0:0:0:
208,191,94927,1,8,0:0:0:0:
208,191,94977,1,8,0:0:0:0:
208,191,95027,1,0,0:0:0:0:
208,191,95077,1,8,0:0:0:0:
208,191,95127,1,8,0:0:0:0:
208,191,95177,1,8,0:0:0:0:
209,178,95227,1,0,0:0:0:0:
209,178,95277,1,0,0:0:0:0:
208,178,95327,1,0,0:0:0:0:
208,178,95377,1,0,0:0:0:0:
207,178,95427,1,8,0:0:0:0:
308,253,95627,1,0,0:0:0:0:
308,253,95677,1,0,0:0:0:0:
308,253,95727,1,0,0:0:0:0:
308,253,95827,1,8,0:0:0:0:
306,103,95927,1,0,0:0:0:0:
308,253,96027,1,8,0:0:0:0:
308,253,96077,1,8,0:0:0:0:
308,253,96127,1,8,0:0:0:0:
394,257,96227,1,0,0:0:0:0:
394,257,96327,1,0,0:0:0:0:
394,257,96427,1,8,0:0:0:0:
394,257,96477,1,8,0:0:0:0:
394,257,96527,1,8,0:0:0:0:
389,264,96577,1,8,0:0:0:0:
388,264,96627,1,0,0:0:0:0:
388,264,96727,1,8,0:0:0:0:
220,86,96827,1,0,0:0:0:0:
193,102,96927,1,8,0:0:0:0:
193,102,96977,1,8,0:0:0:0:
193,102,97027,1,0,0:0:0:0:
193,102,97127,1,0,0:0:0:0:
193,102,97227,1,8,0:0:0:0:
193,102,97277,1,0,0:0:0:0:
193,102,97327,1,0,0:0:0:0:
193,102,97427,1,8,0:0:0:0:
253,159,97477,1,0,0:0:0:0:
236,130,97527,1,8,0:0:0:0:
236,130,97577,1,8,0:0:0:0:
236,130,97627,1,0,0:0:0:0:
236,130,97727,1,0,0:0:0:0:
239,144,97827,1,8,0:0:0:0:
239,144,97927,1,0,0:0:0:0:
239,144,97977,1,0,0:0:0:0:
196,47,98027,1,8,0:0:0:0:
191,65,98127,1,8,0:0:0:0:
236,102,98227,1,0,0:0:0:0:
236,102,98277,1,8,0:0:0:0:
236,102,98327,1,8,0:0:0:0:
236,102,98377,1,8,0:0:0:0:
236,102,98427,1,0,0:0:0:0:
236,102,98527,1,8,0:0:0:0:
236,102,98577,1,8,0:0:0:0:
236,102,98627,1,0,0:0:0:0:
236,102,98677,1,0,0:0:0:0:
236,102,98727,1,8,0:0:0:0:
236,102,98777,1,8,0:0:0:0:
223,90,98827,1,0,0:0:0:0:
221,92,98927,1,0,0:0:0:0:
314,100,99027,1,8,0:0:0:0:
300,184,99127,1,0,0:0:0:0:
355,230,99177,1,8,0:0:0:0:
258,114,99227,1,0,0:0:0:0:
258,114,99277,1,0,0:0:0:0:
347,224,99327,1,8,0:0:0:0:
375,150,99427,1,4,0:0:0:0:
375,150,99827,1,4,0:0:0:0:
375,150,100227,1,4,0:0:0:0:
375,150,100327,1,4,0:0:0:0:
375,150,100427,1,4,0:0:0:0:
375,150,100627,1,4,0:0:0:0:
375,150,100927,1,4,0:0:0:0:
437,183,101027,1,4,0:0:0:0:
251,170,101227,1,4,0:0:0:0:
251,170,101427,1,4,0:0:0:0:
251,170,101627,1,4,0:0:0:0:
242,112,101827,1,8,0:0:0:0:
242,112,101877,1,8,0:0:0:0:
242,112,101927,1,0,0:0:0:0:
242,112,101977,1,0,0:0:0:0:
239,99,102027,1,8,0:0:0:0:
239,99,102077,1,0,0:0:0:0:
239,99,102127,1,0,0:0:0:0:
239,99,102177,1,0,0:0:0:0:
247,97,102227,1,8,0:0:0:0:
247,97,102277,1,8,0:0:0:0:
247,97,102327,1,8,0:0:0:0:
247,97,102377,1,8,0:0:0:0:
247,97,102427,1,0,0:0:0:0:
247,97,102477,1,8,0:0:0:0:
247,97,102527,1,0,0:0:0:0:
247,97,102577,1,0,0:0:0:0:
251,101,102627,1,8,0:0:0:0:
237,75,102727,1,0,0:0:0:0:
238,79,102827,1,8,0:0:0:0:
239,81,102877,1,8,0:0:0:0:
243,82,102927,1,8,0:0:0:0:
234,85,102977,1,8,0:0:0:0:
234,85,103027,1,0,0:0:0:0:
238,88,103127,1,0,0:0:0:0:
238,88,103227,1,8,0:0:0:0:
238,88,103277,1,0,0:0:0:0:
193,55,103327,1,8,0:0:0:0:
193,55,103427,1,0,0:0:0:0:
177,83,103527,1,0,0:0:0:0:
177,83,103627,1,8,0:0:0:0:
177,83,103677,1,8,0:0:0:0:
181,86,103727,1,0,0:0:0:0:
279,208,103827,1,8,0:0:0:0:
279,208,103877,1,8,0:0:0:0:
279,208,103927,1,0,0:0:0:0:
279,208,103977,1,8,0:0:0:0:
285,210,104027,1,0,0:0:0:0:
287,210,104077,1,0,0:0:0:0:
290,213,104127,1,8,0:0:0:0:
335,211,104177,1,8,0:0:0:0:
335,211,104227,1,0,0:0:0:0:
297,238,104327,1,8,0:0:0:0:
297,238,104427,1,0,0:0:0:0:
387,284,104477,1,0,0:0:0:0:
297,238,104527,1,0,0:0:0:0:
353,265,104627,1,8,0:0:0:0:
274,86,104677,1,8,0:0:0:0:
353,265,104727,1,0,0:0:0:0:
235,86,104777,1,8,0:0:0:0:
235,86,104827,1,0,0:0:0:0:
270,108,104927,1,8,0:0:0:0:
259,114,104977,1,8,0:0:0:0:
259,114,105027,1,0,0:0:0:0:
259,114,105077,1,8,0:0:0:0:
259,114,105127,1,8,0:0:0:0:
259,114,105177,1,8,0:0:0:0:
259,114,105227,1,0,0:0:0:0:
259,114,105327,1,0,0:0:0:0:
296,139,105427,1,8,0:0:0:0:
296,139,105477,1,8,0:0:0:0:
296,139,105527,1,0,0:0:0:0:
296,139,105577,1,0,0:0:0:0:
296,139,105627,1,8,0:0:0:0:
296,139,105727,1,8,0:0:0:0:
306,95,105827,1,4,0:0:0:0:
306,95,106227,1,4,0:0:0:0:
306,95,106627,1,4,0:0:0:0:
306,95,106827,1,4,0:0:0:0:
306,95,107027,1,4,0:0:0:0:
320,142,107427,1,4,0:0:0:0:
320,142,107627,1,4,0:0:0:0:
320,142,107827,1,4,0:0:0:0:
320,142,108027,1,4,0:0:0:0:
207,137,108227,1,8,0:0:0:0:
271,142,108277,1,8,0:0:0:0:
230,109,108327,1,8,0:0:0:0:
271,142,108377,1,8,0:0:0:0:
213,68,108427,1,0,0:0:0:0:
213,68,108477,1,0,0:0:0:0:
272,151,108527,1,0,0:0:0:0:
213,68,108577,1,0,0:0:0:0:
311,186,109027,1,4,0:0:0:0:
311,186,109227,1,0,0:0:0:0:
311,186,109427,1,8,0:0:0:0:
311,186,109627,1,8,0:0:0:0:
311,186,109727,1,8,0:0:0:0:
311,186,109827,1,0,0:0:0:0:
311,186,110027,1,0,0:0:0:0:
311,186,110227,1,8,0:0:0:0:
243,147,110327,1,0,0:0:0:0:
243,147,110427,1,8,0:0:0:0:
243,147,110527,1,8,0:0:0:0:
216,127,110627,1,8,0:0:0:0:
216,127,110827,1,0,0:0:0:0:
216,127,111027,1,8,0:0:0:0:
216,127,111127,1,0,0:0:0:0:
216,127,111227,1,8,0:0:0:0:
216,127,111427,1,0,0:0:0:0:
216,127,111627,1,0,0:0:0:0:
216,127,111827,1,8,0:0:0:0:
216,127,111927,1,8,0:0:0:0:
216,127,112027,1,8,0:0:0:0:
216,127,112127,1,8,0:0:0:0:
216,127,112227,1,0,0:0:0:0:
188,78,112427,1,0,0:0:0:0:
188,78,112627,1,8,0:0:0:0:
188,78,112827,1,8,0:0:0:0:
188,78,112927,1,8,0:0:0:0:
188,78,113027,1,0,0:0:0:0:
188,78,113227,1,0,0:0:0:0:
188,78,113427,1,8,0:0:0:0:
188,78,113527,1,0,0:0:0:0:
188,78,113627,1,8,0:0:0:0:
188,78,113727,1,8,0:0:0:0:
188,78,113827,1,0,0:0:0:0:
188,78,114027,1,0,0:0:0:0:
188,78,114227,1,8,0:0:0:0:
188,78,114327,1,0,0:0:0:0:
188,78,114427,1,8,0:0:0:0:
188,78,114627,1,8,0:0:0:0:
188,78,114827,1,0,0:0:0:0:
188,78,115027,1,8,0:0:0:0:
141,33,115227,1,8,0:0:0:0:
141,33,115427,1,0,0:0:0:0:
141,33,115627,1,0,0:0:0:0:
141,33,115827,1,8,0:0:0:0:
141,33,116027,1,8,0:0:0:0:
141,33,116127,1,8,0:0:0:0:
90,143,116227,1,0,0:0:0:0:
119,151,116427,1,0,0:0:0:0:
119,151,116627,1,8,0:0:0:0:
120,151,116727,1,0,0:0:0:0:
120,151,116827,1,8,0:0:0:0:
120,151,116927,1,8,0:0:0:0:
121,151,117027,1,0,0:0:0:0:
119,151,117227,1,0,0:0:0:0:
119,151,117427,1,8,0:0:0:0:
120,151,117527,1,0,0:0:0:0:
120,151,117627,1,8,0:0:0:0:
121,151,117827,1,8,0:0:0:0:
119,151,118027,1,0,0:0:0:0:
119,151,118227,1,8,0:0:0:0:
120,151,118327,1,0,0:0:0:0:
108,135,118427,1,0,0:0:0:0:
196,109,118527,1,8,0:0:0:0:
196,109,118627,1,0,0:0:0:0:
196,109,118827,1,0,0:0:0:0:
196,109,119027,1,8,0:0:0:0:
196,109,119227,1,8,0:0:0:0:
196,109,119327,1,8,0:0:0:0:
196,109,119427,1,0,0:0:0:0:
196,109,119627,1,0,0:0:0:0:
196,109,119827,1,8,0:0:0:0:
196,109,119927,1,0,0:0:0:0:
151,83,120027,1,8,0:0:0:0:
151,83,120127,1,8,0:0:0:0:
151,83,120227,1,0,0:0:0:0:
151,83,120427,1,0,0:0:0:0:
151,83,120627,1,8,0:0:0:0:
151,83,120727,1,0,0:0:0:0:
151,83,120827,1,8,0:0:0:0:
151,83,121027,1,8,0:0:0:0:
345,142,121827,1,4,0:0:0:0:
