osu file format v14

[General]
AudioFilename: audio.mp3
AudioLeadIn: 0
PreviewTime: 83427
Countdown: 0
SampleSet: Normal
StackLeniency: 0.7
Mode: 1
LetterboxInBreaks: 0
WidescreenStoryboard: 1

[Editor]
DistanceSpacing: 1.05
BeatDivisor: 6
GridSize: 32
TimelineZoom: 3.499999

[Metadata]
Title:Hold Angel
TitleUnicode:Hold Angel
Artist:you
ArtistUnicode:you
Creator:Whulf
Version:Heaven
Source:
Tags:speedcore 600 OVER!!! Psycho Filth Records Metzo liku the law the_law hivie nevqr never Electronic Instrumental fa featured artist mappers guild mg
BeatmapID:4068069
BeatmapSetID:1354083

[Difficulty]
HPDrainRate:4
CircleSize:2
OverallDifficulty:9
ApproachRate:10
SliderMultiplier:1.4
SliderTickRate:2

[Events]
//Background and Video events
0,0,"www.png",0,0
//Break Periods
2,64227,69377
//Storyboard Layer 0 (Background)
//Storyboard Layer 1 (Fail)
//Storyboard Layer 2 (Pass)
//Storyboard Layer 3 (Foreground)
//Storyboard Layer 4 (Overlay)
//Storyboard Sound Samples

[TimingPoints]
227,200,4,1,0,70,1,0
227,-133.333333333333,4,1,0,70,0,0
12227,-114.942528735632,4,1,0,80,0,0
13027,-125,4,1,0,75,0,0
25827,-100,4,1,0,100,0,0
50626,-100,4,1,0,100,0,0
51426,-101.509433962264,4,1,0,95,0,0
51626,-101.893939393939,4,1,0,95,0,0
51826,-102.281368821293,4,1,0,95,0,0
52026,-102.671755725191,4,1,0,95,0,0
52226,-103.065134099617,4,1,0,95,0,0
52426,-103.461538461538,4,1,0,95,0,0
52626,-103.861003861004,4,1,0,95,0,0
52826,-104.263565891473,4,1,0,95,0,0
53026,-104.669260700389,4,1,0,90,0,0
53226,-105.078125,4,1,0,90,0,0
53426,-105.490196078431,4,1,0,90,0,0
53626,-105.905511811024,4,1,0,90,0,0
53826,-106.324110671937,4,1,0,90,0,0
54026,-106.746031746032,4,1,0,90,0,0
54226,-107.171314741036,4,1,0,90,0,0
54426,-107.6,4,1,0,90,0,0
54626,-108.032128514056,4,1,0,85,0,0
54826,-108.467741935484,4,1,0,85,0,0
55026,-108.906882591093,4,1,0,85,0,0
55226,-109.349593495935,4,1,0,85,0,0
55426,-109.795918367347,4,1,0,85,0,0
55626,-110.245901639344,4,1,0,85,0,0
55826,-110.699588477366,4,1,0,85,0,0
56026,-111.157024793388,4,1,0,85,0,0
56226,-111.618257261411,4,1,0,80,0,0
56426,-112.083333333333,4,1,0,80,0,0
56626,-112.55230125523,4,1,0,80,0,0
56826,-113.025210084034,4,1,0,80,0,0
57026,-113.502109704641,4,1,0,80,0,0
57226,-113.983050847458,4,1,0,80,0,0
57426,-114.468085106383,4,1,0,80,0,0
57626,-114.957264957265,4,1,0,80,0,0
57826,-115.450643776824,4,1,0,75,0,0
58026,-115.948275862069,4,1,0,75,0,0
58226,-116.450216450216,4,1,0,75,0,0
58426,-116.95652173913,4,1,0,75,0,0
58626,-117.467248908297,4,1,0,75,0,0
58826,-117.982456140351,4,1,0,75,0,0
59026,-118.502202643172,4,1,0,75,0,0
59226,-119.026548672566,4,1,0,75,0,0
59426,-119.555555555556,4,1,0,70,0,0
59626,-120.089285714286,4,1,0,70,0,0
59826,-120.627802690583,4,1,0,70,0,0
60026,-121.171171171171,4,1,0,70,0,0
60226,-121.719457013575,4,1,0,70,0,0
60426,-122.272727272727,4,1,0,70,0,0
60626,-122.831050228311,4,1,0,70,0,0
60826,-123.394495412844,4,1,0,70,0,0
61026,-123.963133640553,4,1,0,65,0,0
61226,-124.537037037037,4,1,0,65,0,0
61426,-125.116279069767,4,1,0,65,0,0
61626,-125.700934579439,4,1,0,65,0,0
61826,-126.291079812207,4,1,0,65,0,0
62026,-126.88679245283,4,1,0,65,0,0
62226,-127.488151658768,4,1,0,65,0,0
62426,-128.095238095238,4,1,0,65,0,0
62626,-128.708133971292,4,1,0,60,0,0
62826,-129.326923076923,4,1,0,60,0,0
63026,-129.951690821256,4,1,0,60,0,0
63226,-130.582524271845,4,1,0,60,0,0
63426,-131.219512195122,4,1,0,60,0,0
63626,-131.862745098039,4,1,0,60,0,0
63826,-132.512315270936,4,1,0,60,0,0
64026,-133.168316831683,4,1,0,60,0,0
69827,-50,4,1,0,75,0,0
70627,-133.333333333333,4,1,0,70,0,0
76326,-133.333333333333,4,1,0,70,0,0
76426,-132.575757575758,4,1,0,70,0,0
76526,-131.826741996233,4,1,0,70,0,0
76626,-131.086142322097,4,1,0,70,0,0
76726,-130.353817504655,4,1,0,70,0,0
76826,-129.62962962963,4,1,0,70,0,0
76926,-128.913443830571,4,1,0,70,0,0
77026,-128.205128205128,4,1,0,75,0,0
77926,-128.205128205128,4,1,0,75,0,0
78026,-127.551020408163,4,1,0,75,0,0
78126,-126.903553299492,4,1,0,75,0,0
78226,-126.262626262626,4,1,0,75,0,0
78326,-125.628140703518,4,1,0,75,0,0
78426,-125,4,1,0,75,0,0
78526,-124.378109452736,4,1,0,75,0,0
78626,-123.762376237624,4,1,0,80,0,0
79526,-123.762376237624,4,1,0,80,0,0
79626,-123.112278397899,4,1,0,80,0,0
79726,-122.468974526453,4,1,0,80,0,0
79826,-121.832358674464,4,1,0,80,0,0
79926,-121.20232708468,4,1,0,80,0,0
80026,-120.578778135048,4,1,0,80,0,0
80126,-119.961612284069,4,1,0,80,0,0
80226,-119.350732017823,4,1,0,85,0,0
80427,-114.942528735632,4,1,0,90,0,0
80726,-114.942528735632,4,1,0,90,0,0
80826,-113.207547169811,4,1,0,90,0,0
80926,-111.524163568773,4,1,0,90,0,0
81026,-109.89010989011,4,1,0,95,0,0
81227,-106.382978723404,4,1,0,95,0,0
81826,-106.382978723404,4,1,0,95,0,0
81876,-105.960264900662,4,1,0,95,0,0
81926,-105.540897097625,4,1,0,95,0,0
81976,-105.124835742444,4,1,0,95,0,0
82026,-104.712041884817,4,1,0,95,0,0
82076,-104.302477183833,4,1,0,95,0,0
82126,-103.896103896104,4,1,0,95,0,0
82176,-103.492884864166,4,1,0,95,0,0
82226,-103.092783505155,4,1,0,95,0,0
82276,-102.695763799743,4,1,0,95,0,0
82326,-102.30179028133,4,1,0,95,0,0
82376,-101.910828025478,4,1,0,95,0,0
82426,-101.522842639594,4,1,0,95,0,0
82476,-101.137800252844,4,1,0,95,0,0
82526,-100.755667506297,4,1,0,95,0,0
82576,-100.376411543287,4,1,0,95,0,0
82626,-100,4,1,0,95,0,0
83427,-100,4,1,0,100,0,1
95427,-100,4,1,0,100,0,0
96227,-100,4,1,0,100,0,1
108627,-100,4,1,0,100,0,0
109027,-125,4,1,0,70,0,0

[HitObjects]
214,183,227,5,4,0:0:0:0:
205,160,427,1,0,0:0:0:0:
204,158,627,1,8,0:0:0:0:
204,158,827,1,8,0:0:0:0:
204,158,927,1,8,0:0:0:0:
108,151,1027,1,8,0:0:0:0:
205,160,1227,1,0,0:0:0:0:
108,151,1427,1,0,0:0:0:0:
190,135,1527,1,8,0:0:0:0:
220,106,1627,1,0,0:0:0:0:
181,92,1727,1,0,0:0:0:0:
220,106,1827,1,8,0:0:0:0:
242,100,2027,1,0,0:0:0:0:
288,81,2227,1,8,0:0:0:0:
278,98,2327,1,0,0:0:0:0:
288,81,2427,1,8,0:0:0:0:
157,55,2627,1,8,0:0:0:0:
157,55,2827,1,0,0:0:0:0:
157,55,3027,1,8,0:0:0:0:
157,55,3127,1,0,0:0:0:0:
157,55,3227,1,8,0:0:0:0:
157,55,3327,1,8,0:0:0:0:
281,102,3427,1,0,0:0:0:0:
281,102,3627,1,0,0:0:0:0:
281,102,3827,1,8,0:0:0:0:
281,102,4027,1,8,0:0:0:0:
281,102,4127,1,8,0:0:0:0:
257,80,4227,1,0,0:0:0:0:
254,80,4427,1,0,0:0:0:0:
191,75,4627,1,8,0:0:0:0:
197,71,4727,1,8,0:0:0:0:
197,71,4827,1,0,0:0:0:0:
191,75,4927,1,8,0:0:0:0:
191,75,5027,1,0,0:0:0:0:
191,75,5227,1,8,0:0:0:0:
191,75,5427,1,0,0:0:0:0:
188,78,5527,1,0,0:0:0:0:
194,80,5627,1,8,0:0:0:0:
195,151,5827,1,8,0:0:0:0:
271,176,6027,1,0,0:0:0:0:
356,80,6077,1,0,0:0:0:0:
256,118,6127,1,8,0:0:0:0:
256,118,6177,1,8,0:0:0:0:
221,52,6227,1,0,0:0:0:0:
221,52,6277,1,0,0:0:0:0:
221,52,6327,1,0,0:0:0:0:
221,52,6377,1,0,0:0:0:0:
221,52,6427,1,8,0:0:0:0:
221,52,6477,1,8,0:0:0:0:
221,52,6527,1,8,0:0:0:0:
221,52,6577,1,8,0:0:0:0:
221,52,6627,1,4,0:0:0:0:
205,178,6827,1,0,0:0:0:0:
205,178,7027,1,8,0:0:0:0:
205,178,7227,1,8,0:0:0:0:
205,178,7327,1,8,0:0:0:0:
205,178,7427,1,0,0:0:0:0:
257,217,7627,1,0,0:0:0:0:
257,217,7827,1,8,0:0:0:0:
257,217,7927,1,0,0:0:0:0:
221,144,8027,1,0,0:0:0:0:
257,217,8127,1,8,0:0:0:0:
257,217,8227,1,8,0:0:0:0:
221,144,8427,1,0,0:0:0:0:
221,144,8627,1,8,0:0:0:0:
221,144,8727,1,0,0:0:0:0:
221,144,8827,1,8,0:0:0:0:
175,89,9027,1,8,0:0:0:0:
175,89,9227,1,0,0:0:0:0:
261,88,9427,1,8,0:0:0:0:
261,88,9527,1,8,0:0:0:0:
272,67,9627,1,0,0:0:0:0:
272,67,9727,1,0,0:0:0:0:
272,67,9827,1,8,0:0:0:0:
272,67,10027,1,8,0:0:0:0:
272,67,10227,1,0,0:0:0:0:
272,67,10427,1,8,0:0:0:0:
272,67,10527,1,0,0:0:0:0:
272,67,10627,1,0,0:0:0:0:
272,67,10827,1,8,0:0:0:0:
412,270,11027,1,0,0:0:0:0:
412,270,11127,1,8,0:0:0:0:
412,270,11227,1,0,0:0:0:0:
412,270,11327,1,8,0:0:0:0:
283,167,11427,1,0,0:0:0:0:
177,60,11627,1,8,0:0:0:0:
177,60,11827,1,0,0:0:0:0:
177,60,11927,1,0,0:0:0:0:
177,60,12027,1,8,0:0:0:0:
357,169,12227,1,4,0:0:0:0:
380,189,13027,1,12,0:0:0:0:
354,175,13227,1,8,0:0:0:0:
354,175,13427,1,8,0:0:0:0:
354,175,13627,1,8,0:0:0:0:
354,175,13727,1,8,0:0:0:0:
354,175,13827,1,0,0:0:0:0:
214,237,14027,1,0,0:0:0:0:
214,237,14227,1,8,0:0:0:0:
214,237,14327,1,0,0:0:0:0:
223,232,14427,1,0,0:0:0:0:
224,231,14527,1,8,0:0:0:0:
219,89,14627,1,8,0:0:0:0:
219,89,14827,1,0,0:0:0:0:
219,89,15027,1,8,0:0:0:0:
111,123,15127,1,8,0:0:0:0:
111,123,15227,1,8,0:0:0:0:
111,123,15427,1,0,0:0:0:0:
111,123,15627,1,0,0:0:0:0:
111,123,15827,1,8,0:0:0:0:
111,123,15927,1,0,0:0:0:0:
111,123,16027,1,8,0:0:0:0:
111,123,16127,1,8,0:0:0:0:
124,111,16227,1,0,0:0:0:0:
124,111,16427,1,0,0:0:0:0:
124,111,16627,1,8,0:0:0:0:
124,111,16827,1,8,0:0:0:0:
124,109,16927,1,8,0:0:0:0:
124,111,17027,1,0,0:0:0:0:
124,111,17227,1,0,0:0:0:0:
124,111,17427,1,8,0:0:0:0:
124,111,17527,1,8,0:0:0:0:
305,112,17627,1,8,0:0:0:0:
305,112,17727,1,8,0:0:0:0:
236,73,17827,1,0,0:0:0:0:
274,91,18027,1,8,0:0:0:0:
165,60,18227,1,0,0:0:0:0:
165,60,18327,1,0,0:0:0:0:
165,60,18427,1,8,0:0:0:0:
165,60,18627,1,0,0:0:0:0:
350,113,18677,1,0,0:0:0:0:
359,110,18727,1,0,0:0:0:0:
350,113,18777,1,0,0:0:0:0:
298,115,18827,1,8,0:0:0:0:
298,115,18877,1,8,0:0:0:0:
312,111,18927,1,8,0:0:0:0:
298,115,18977,1,8,0:0:0:0:
315,111,19027,1,0,0:0:0:0:
314,111,19077,1,0,0:0:0:0:
316,110,19127,1,0,0:0:0:0:
308,110,19177,1,0,0:0:0:0:
313,104,19227,1,8,0:0:0:0:
288,113,19277,1,8,0:0:0:0:
313,104,19327,1,8,0:0:0:0:
313,104,19377,1,8,0:0:0:0:
288,113,19427,1,4,0:0:0:0:
388,159,19627,1,0,0:0:0:0:
388,159,19827,1,8,0:0:0:0:
388,159,20027,1,8,0:0:0:0:
388,159,20127,1,8,0:0:0:0:
388,159,20227,1,0,0:0:0:0:
388,159,20427,1,0,0:0:0:0:
388,159,20627,1,8,0:0:0:0:
388,159,20727,1,0,0:0:0:0:
148,111,20827,1,8,0:0:0:0:
148,111,20927,1,8,0:0:0:0:
148,111,21027,1,8,0:0:0:0:
148,111,21227,1,0,0:0:0:0:
148,111,21427,1,8,0:0:0:0:
153,106,21527,1,0,0:0:0:0:
155,105,21627,1,8,0:0:0:0:
158,104,21827,1,0,0:0:0:0:
158,104,22027,1,0,0:0:0:0:
158,104,22227,1,8,0:0:0:0:
153,106,22327,1,0,0:0:0:0:
155,105,22427,1,8,0:0:0:0:
158,104,22527,1,8,0:0:0:0:
158,104,22627,1,0,0:0:0:0:
158,104,22827,1,0,0:0:0:0:
158,104,23027,1,8,0:0:0:0:
155,105,23227,1,0,0:0:0:0:
158,104,23327,1,0,0:0:0:0:
158,104,23427,1,8,0:0:0:0:
158,104,23627,1,8,0:0:0:0:
158,104,23827,1,0,0:0:0:0:
161,84,23927,1,8,0:0:0:0:
161,84,24027,1,0,0:0:0:0:
161,84,24127,1,0,0:0:0:0:
163,84,24227,1,8,0:0:0:0:
258,110,24427,1,8,0:0:0:0:
258,110,24627,1,0,0:0:0:0:
258,110,24727,1,8,0:0:0:0:
194,24,24827,1,0,0:0:0:0:
194,24,25027,1,12,0:0:0:0:
235,103,25827,1,0,0:0:0:0:
235,103,25877,1,0,0:0:0:0:
263,33,25927,1,8,0:0:0:0:
263,33,25977,1,8,0:0:0:0:
263,33,26027,1,0,0:0:0:0:
263,33,26077,1,8,0:0:0:0:
263,33,26127,1,0,0:0:0:0:
263,33,26177,1,0,0:0:0:0:
166,43,26227,1,8,0:0:0:0:
166,43,26277,1,8,0:0:0:0:
166,43,26327,1,0,0:0:0:0:
166,43,26377,1,0,0:0:0:0:
166,43,26427,1,8,0:0:0:0:
166,43,26477,1,0,0:0:0:0:
166,43,26527,1,8,0:0:0:0:
166,43,26577,1,8,0:0:0:0:
166,43,26627,1,0,0:0:0:0:
166,43,26677,1,0,0:0:0:0:
166,43,26727,1,0,0:0:0:0:
166,43,26777,1,0,0:0:0:0:
166,43,26827,1,8,0:0:0:0:
166,43,26877,1,8,0:0:0:0:
166,43,26927,1,8,0:0:0:0:
166,43,26977,1,8,0:0:0:0:
173,42,27027,1,0,0:0:0:0:
173,42,27077,1,0,0:0:0:0:
174,42,27127,1,8,0:0:0:0:
174,42,27177,1,8,0:0:0:0:
174,42,27227,1,0,0:0:0:0:
174,42,27277,1,0,0:0:0:0:
175,42,27327,1,8,0:0:0:0:
175,42,27377,1,8,0:0:0:0:
177,42,27427,1,0,0:0:0:0:
177,42,27477,1,0,0:0:0:0:
179,42,27527,1,8,0:0:0:0:
180,42,27577,1,0,0:0:0:0:
180,42,27627,1,8,0:0:0:0:
181,42,27677,1,8,0:0:0:0:
199,66,27727,1,0,0:0:0:0:
199,65,27777,1,0,0:0:0:0:
199,65,27827,1,8,0:0:0:0:
199,65,27877,1,0,0:0:0:0:
201,65,27927,1,8,0:0:0:0:
260,51,27977,1,8,0:0:0:0:
209,63,28027,1,0,0:0:0:0:
260,51,28077,1,0,0:0:0:0:
260,51,28127,1,8,0:0:0:0:
260,51,28177,1,8,0:0:0:0:
260,51,28227,1,0,0:0:0:0:
260,51,28277,1,0,0:0:0:0:
260,51,28327,1,0,0:0:0:0:
260,51,28377,1,0,0:0:0:0:
260,51,28427,1,8,0:0:0:0:
260,51,28477,1,8,0:0:0:0:
260,51,28527,1,8,0:0:0:0:
260,51,28577,1,8,0:0:0:0:
260,51,28627,1,0,0:0:0:0:
260,51,28677,1,0,0:0:0:0:
415,276,28727,1,8,0:0:0:0:
415,276,28777,1,8,0:0:0:0:
415,276,28827,1,0,0:0:0:0:
415,276,28877,1,0,0:0:0:0:
260,51,28927,1,8,0:0:0:0:
260,51,28977,1,8,0:0:0:0:
260,51,29027,1,4,0:0:0:0:
233,113,29127,1,0,0:0:0:0:
210,163,29227,1,8,0:0:0:0:
210,163,29327,1,0,0:0:0:0:
241,64,29427,1,8,0:0:0:0:
241,64,29527,1,8,0:0:0:0:
241,64,29627,1,0,0:0:0:0:
241,64,29727,1,0,0:0:0:0:
241,64,29827,1,8,0:0:0:0:
241,64,29927,1,0,0:0:0:0:
241,64,30027,1,8,0:0:0:0:
241,64,30127,1,8,0:0:0:0:
188,180,30227,1,0,0:0:0:0:
233,144,30277,1,0,0:0:0:0:
263,109,30327,1,8,0:0:0:0:
192,192,30377,1,0,0:0:0:0:
263,109,30427,1,8,0:0:0:0:
330,95,30477,1,8,0:0:0:0:
330,95,30527,1,8,0:0:0:0:
330,95,30577,1,8,0:0:0:0:
224,121,30627,1,0,0:0:0:0:
223,121,30727,1,0,0:0:0:0:
312,105,30827,1,8,0:0:0:0:
312,105,30927,1,8,0:0:0:0:
312,105,31027,1,0,0:0:0:0:
312,105,31127,1,8,0:0:0:0:
312,105,31227,1,0,0:0:0:0:
312,105,31327,1,0,0:0:0:0:
312,105,31427,1,8,0:0:0:0:
315,115,31627,1,0,0:0:0:0:
314,115,31827,1,0,0:0:0:0:
334,226,32027,1,8,0:0:0:0:
245,108,32060,1,8,0:0:0:0:
430,328,32093,1,8,0:0:0:0:
194,110,32127,1,0,0:0:0:0:
194,110,32177,1,0,0:0:0:0:
190,215,32227,1,8,0:0:0:0:
190,215,32277,1,8,0:0:0:0:
190,215,32327,1,0,0:0:0:0:
190,215,32377,1,0,0:0:0:0:
190,215,32427,1,8,0:0:0:0:
190,215,32477,1,0,0:0:0:0:
190,215,32527,1,8,0:0:0:0:
190,215,32577,1,8,0:0:0:0:
190,215,32627,1,0,0:0:0:0:
190,215,32677,1,0,0:0:0:0:
190,215,32727,1,8,0:0:0:0:
190,215,32777,1,8,0:0:0:0:
190,215,32827,1,0,0:0:0:0:
190,215,32877,1,8,0:0:0:0:
190,215,32927,1,0,0:0:0:0:
190,215,32977,1,0,0:0:0:0:
190,215,33027,1,8,0:0:0:0:
190,215,33077,1,8,0:0:0:0:
190,215,33127,1,8,0:0:0:0:
196,213,33177,1,8,0:0:0:0:
196,213,33227,1,0,0:0:0:0:
196,213,33277,1,0,0:0:0:0:
196,213,33327,1,0,0:0:0:0:
196,213,33377,1,0,0:0:0:0:
197,213,33427,1,8,0:0:0:0:
197,213,33477,1,8,0:0:0:0:
197,213,33527,1,0,0:0:0:0:
197,213,33577,1,0,0:0:0:0:
198,212,33627,1,8,0:0:0:0:
198,212,33677,1,8,0:0:0:0:
199,211,33727,1,0,0:0:0:0:
199,211,33777,1,0,0:0:0:0:
199,211,33827,1,8,0:0:0:0:
199,211,33877,1,0,0:0:0:0:
199,211,33927,1,8,0:0:0:0:
199,211,33977,1,8,0:0:0:0:
196,213,34027,1,0,0:0:0:0:
196,213,34077,1,0,0:0:0:0:
196,213,34127,1,8,0:0:0:0:
196,213,34177,1,8,0:0:0:0:
196,213,34227,1,0,0:0:0:0:
197,213,34277,1,8,0:0:0:0:
197,213,34327,1,0,0:0:0:0:
197,213,34377,1,0,0:0:0:0:
197,213,34427,1,8,0:0:0:0:
198,212,34477,1,8,0:0:0:0:
198,212,34527,1,0,0:0:0:0:
199,211,34577,1,0,0:0:0:0:
199,211,34627,1,8,0:0:0:0:
199,211,34677,1,8,0:0:0:0:
199,211,34727,1,8,0:0:0:0:
199,211,34777,1,8,0:0:0:0:
199,211,34827,1,0,0:0:0:0:
203,211,34877,1,0,0:0:0:0:
204,211,34927,1,0,0:0:0:0:
205,211,34977,1,0,0:0:0:0:
205,211,35027,1,8,0:0:0:0:
206,211,35077,1,8,0:0:0:0:
206,211,35127,1,0,0:0:0:0:
206,211,35177,1,0,0:0:0:0:
206,211,35227,1,8,0:0:0:0:
206,211,35277,1,8,0:0:0:0:
206,211,35327,1,0,0:0:0:0:
206,211,35377,1,0,0:0:0:0:
206,211,35427,1,12,0:0:0:0:
145,137,35627,1,0,0:0:0:0:
224,109,35827,1,8,0:0:0:0:
242,233,36027,1,0,0:0:0:0:
257,178,36077,1,0,0:0:0:0:
257,178,36127,1,0,0:0:0:0:
254,190,36227,1,8,0:0:0:0:
239,211,36327,1,0,0:0:0:0:
171,160,36377,1,0,0:0:0:0:
224,110,36427,1,8,0:0:0:0:
224,110,36477,1,8,0:0:0:0:
224,110,36527,1,0,0:0:0:0:
245,166,36627,1,8,0:0:0:0:
205,70,36827,1,0,0:0:0:0:
143,105,36877,1,0,0:0:0:0:
324,101,36927,1,0,0:0:0:0:
324,101,36977,1,0,0:0:0:0:
324,101,37027,1,8,0:0:0:0:
324,101,37227,1,0,0:0:0:0:
324,101,37427,1,8,0:0:0:0:
306,107,37527,1,8,0:0:0:0:
306,107,37627,1,0,0:0:0:0:
306,107,37827,1,8,0:0:0:0:
312,218,37877,1,8,0:0:0:0:
312,218,37927,1,8,0:0:0:0:
312,218,37977,1,8,0:0:0:0:
236,149,38027,1,0,0:0:0:0:
306,107,38227,1,0,0:0:0:0:
454,215,38327,1,0,0:0:0:0:
306,107,38427,1,8,0:0:0:0:
446,209,38477,1,8,0:0:0:0:
446,209,38527,1,8,0:0:0:0:
366,151,38627,1,0,0:0:0:0:
366,151,38677,1,0,0:0:0:0:
366,151,38727,1,0,0:0:0:0:
366,151,38777,1,0,0:0:0:0:
366,151,38827,1,8,0:0:0:0:
366,151,38877,1,8,0:0:0:0:
166,120,38927,1,8,0:0:0:0:
175,120,38977,1,8,0:0:0:0:
405,246,39027,1,0,0:0:0:0:
405,246,39077,1,0,0:0:0:0:
405,246,39127,1,8,0:0:0:0:
405,246,39177,1,8,0:0:0:0:
405,246,39227,1,0,0:0:0:0:
405,246,39327,1,0,0:0:0:0:
405,246,39427,1,8,0:0:0:0:
235,78,39477,1,8,0:0:0:0:
210,70,39527,1,8,0:0:0:0:
210,69,39577,1,8,0:0:0:0:
210,69,39627,1,0,0:0:0:0:
210,69,39677,1,0,0:0:0:0:
231,89,39727,1,8,0:0:0:0:
231,89,39777,1,8,0:0:0:0:
231,89,39827,1,0,0:0:0:0:
188,40,39860,1,0,0:0:0:0:
188,40,39893,1,0,0:0:0:0:
157,88,39927,1,8,0:0:0:0:
157,88,39960,1,8,0:0:0:0:
157,88,39993,1,8,0:0:0:0:
157,88,40027,1,0,0:0:0:0:
157,88,40127,1,0,0:0:0:0:
382,71,40227,1,8,0:0:0:0:
382,71,40277,1,8,0:0:0:0:
382,71,40327,1,0,0:0:0:0:
382,71,40377,1,0,0:0:0:0:
388,70,40427,1,8,0:0:0:0:
388,70,40477,1,8,0:0:0:0:
390,70,40527,1,8,0:0:0:0:
390,70,40577,1,8,0:0:0:0:
390,70,40627,1,0,0:0:0:0:
390,70,40727,1,0,0:0:0:0:
374,77,40827,1,8,0:0:0:0:
368,79,40877,1,8,0:0:0:0:
368,79,40927,1,0,0:0:0:0:
368,79,40977,1,0,0:0:0:0:
278,79,41027,1,8,0:0:0:0:
278,79,41060,1,0,0:0:0:0:
278,79,41093,1,0,0:0:0:0:
234,28,41127,1,8,0:0:0:0:
278,79,41160,1,0,0:0:0:0:
234,28,41193,1,0,0:0:0:0:
234,28,41227,1,8,0:0:0:0:
304,89,41327,1,8,0:0:0:0:
305,89,41427,1,0,0:0:0:0:
307,89,41527,1,0,0:0:0:0:
307,89,41627,1,8,0:0:0:0:
307,89,41727,1,8,0:0:0:0:
307,89,41827,1,0,0:0:0:0:
215,69,41877,1,0,0:0:0:0:
307,89,41927,1,8,0:0:0:0:
146,38,41977,1,8,0:0:0:0:
146,38,42027,1,0,0:0:0:0:
146,38,42077,1,0,0:0:0:0:
128,160,42127,1,0,0:0:0:0:
160,160,42177,1,0,0:0:0:0:
304,140,42227,1,8,0:0:0:0:
304,140,42260,1,8,0:0:0:0:
304,140,42293,1,8,0:0:0:0:
304,140,42327,1,0,0:0:0:0:
383,86,42377,1,0,0:0:0:0:
152,84,42427,1,8,0:0:0:0:
237,40,42527,1,8,0:0:0:0:
237,41,42627,1,0,0:0:0:0:
269,43,42727,1,8,0:0:0:0:
269,43,42777,1,8,0:0:0:0:
269,43,42827,1,8,0:0:0:0:
316,93,42877,1,8,0:0:0:0:
316,93,42927,1,0,0:0:0:0:
316,93,42977,1,0,0:0:0:0:
316,93,43027,1,8,0:0:0:0:
316,93,43077,1,0,0:0:0:0:
316,93,43127,1,8,0:0:0:0:
316,93,43177,1,8,0:0:0:0:
316,93,43227,1,0,0:0:0:0:
377,88,43277,1,0,0:0:0:0:
377,88,43327,1,8,0:0:0:0:
377,88,43377,1,8,0:0:0:0:
377,88,43427,1,0,0:0:0:0:
332,195,43527,1,0,0:0:0:0:
332,195,43627,1,8,0:0:0:0:
332,195,43827,1,0,0:0:0:0:
270,98,43877,1,0,0:0:0:0:
270,98,43927,1,8,0:0:0:0:
121,47,43977,1,8,0:0:0:0:
121,47,44027,1,0,0:0:0:0:
170,111,44127,1,8,0:0:0:0:
258,98,44177,1,8,0:0:0:0:
170,111,44227,1,0,0:0:0:0:
270,98,44277,1,0,0:0:0:0:
270,98,44327,1,0,0:0:0:0:
270,98,44377,1,0,0:0:0:0:
270,98,44427,1,8,0:0:0:0:
270,98,44477,1,8,0:0:0:0:
239,84,44527,1,0,0:0:0:0:
236,87,44627,1,8,0:0:0:0:
228,82,44677,1,8,0:0:0:0:
223,84,44727,1,0,0:0:0:0:
276,36,44827,1,8,0:0:0:0:
276,42,44860,1,8,0:0:0:0:
276,42,44893,1,8,0:0:0:0:
253,78,44927,1,0,0:0:0:0:
253,78,44977,1,0,0:0:0:0:
253,78,45027,1,8,0:0:0:0:
213,87,45127,1,8,0:0:0:0:
213,86,45227,1,0,0:0:0:0:
166,61,45277,1,0,0:0:0:0:
174,64,45327,1,8,0:0:0:0:
220,89,45377,1,8,0:0:0:0:
220,89,45427,1,0,0:0:0:0:
288,195,45527,1,0,0:0:0:0:
356,118,45627,1,8,0:0:0:0:
363,120,45677,1,8,0:0:0:0:
363,120,45727,1,0,0:0:0:0:
183,124,45827,1,8,0:0:0:0:
183,124,45927,1,0,0:0:0:0:
236,106,45960,1,0,0:0:0:0:
234,104,45993,1,0,0:0:0:0:
232,104,46027,1,8,0:0:0:0:
245,82,46127,1,0,0:0:0:0:
242,82,46227,1,8,0:0:0:0:
316,89,46260,1,8,0:0:0:0:
316,89,46293,1,8,0:0:0:0:
316,89,46327,1,0,0:0:0:0:
134,128,46377,1,0,0:0:0:0:
238,157,46427,1,8,0:0:0:0:
268,107,46527,1,0,0:0:0:0:
268,107,46560,1,0,0:0:0:0:
268,107,46593,1,0,0:0:0:0:
267,105,46627,1,8,0:0:0:0:
188,64,46727,1,8,0:0:0:0:
188,64,46827,1,0,0:0:0:0:
188,64,46877,1,0,0:0:0:0:
188,64,46927,1,8,0:0:0:0:
188,64,46977,1,8,0:0:0:0:
188,64,47027,1,0,0:0:0:0:
337,68,47127,1,8,0:0:0:0:
337,68,47160,1,8,0:0:0:0:
337,68,47193,1,8,0:0:0:0:
337,68,47227,1,0,0:0:0:0:
292,55,47277,1,0,0:0:0:0:
292,55,47327,1,8,0:0:0:0:
292,55,47377,1,8,0:0:0:0:
252,71,47427,1,0,0:0:0:0:
252,71,47460,1,0,0:0:0:0:
59,153,47493,1,0,0:0:0:0:
252,71,47527,1,8,0:0:0:0:
252,71,47577,1,8,0:0:0:0:
252,71,47627,1,0,0:0:0:0:
200,102,47727,1,8,0:0:0:0:
200,102,47827,1,0,0:0:0:0:
200,102,47927,1,0,0:0:0:0:
261,89,48027,1,8,0:0:0:0:
261,89,48077,1,0,0:0:0:0:
261,89,48127,1,8,0:0:0:0:
262,89,48177,1,8,0:0:0:0:
262,89,48227,1,0,0:0:0:0:
262,89,48327,1,8,0:0:0:0:
262,89,48377,1,8,0:0:0:0:
192,45,48427,1,8,0:0:0:0:
192,45,48527,1,0,0:0:0:0:
250,41,48577,1,0,0:0:0:0:
285,51,48627,1,8,0:0:0:0:
291,46,48660,1,8,0:0:0:0:
298,44,48693,1,8,0:0:0:0:
377,42,48727,1,0,0:0:0:0:
346,77,48777,1,0,0:0:0:0:
314,44,48827,1,8,0:0:0:0:
317,40,48860,1,8,0:0:0:0:
326,37,48893,1,8,0:0:0:0:
326,37,48927,1,0,0:0:0:0:
264,60,48977,1,0,0:0:0:0:
270,60,49027,1,8,0:0:0:0:
377,42,49127,1,8,0:0:0:0:
377,42,49227,1,0,0:0:0:0:
472,13,49260,1,0,0:0:0:0:
454,36,49293,1,0,0:0:0:0:
431,53,49327,1,8,0:0:0:0:
395,50,49427,1,0,0:0:0:0:
400,48,49527,1,8,0:0:0:0:
237,40,49627,1,0,0:0:0:0:
239,40,49677,1,0,0:0:0:0:
274,40,49727,1,8,0:0:0:0:
270,39,49777,1,8,0:0:0:0:
276,40,49827,1,0,0:0:0:0:
254,46,49927,1,8,0:0:0:0:
257,45,49977,1,0,0:0:0:0:
348,55,50027,1,8,0:0:0:0:
348,55,50077,1,8,0:0:0:0:
348,55,50127,1,0,0:0:0:0:
348,55,50177,1,0,0:0:0:0:
348,55,50227,1,8,0:0:0:0:
348,55,50260,1,8,0:0:0:0:
205,88,50293,1,8,0:0:0:0:
283,62,50327,1,0,0:0:0:0:
283,62,50377,1,0,0:0:0:0:
283,62,50427,1,8,0:0:0:0:
168,36,50527,1,8,0:0:0:0:
181,40,50627,1,4,0:0:0:0:
390,152,51427,1,12,0:0:0:0:
299,150,51627,1,0,0:0:0:0:
299,150,51827,1,8,0:0:0:0:
299,150,52027,1,8,0:0:0:0:
299,150,52227,1,0,0:0:0:0:
299,150,52427,1,0,0:0:0:0:
299,150,52627,1,8,0:0:0:0:
299,150,52827,1,0,0:0:0:0:
299,150,53027,1,8,0:0:0:0:
299,150,53227,1,8,0:0:0:0:
299,150,53427,1,0,0:0:0:0:
299,150,53627,1,8,0:0:0:0:
299,150,53827,1,0,0:0:0:0:
299,150,54027,1,0,0:0:0:0:
299,150,54227,1,8,0:0:0:0:
299,150,54427,1,0,0:0:0:0:
299,150,54627,1,8,0:0:0:0:
299,150,54827,1,8,0:0:0:0:
299,150,55027,1,0,0:0:0:0:
299,150,55227,1,8,0:0:0:0:
299,150,55427,1,0,0:0:0:0:
299,150,55627,1,0,0:0:0:0:
299,150,55827,1,8,0:0:0:0:
299,150,56027,1,0,0:0:0:0:
299,150,56227,1,8,0:0:0:0:
299,150,56427,1,8,0:0:0:0:
299,150,56627,1,0,0:0:0:0:
299,150,56827,1,0,0:0:0:0:
217,151,57027,1,8,0:0:0:0:
217,151,57227,1,0,0:0:0:0:
217,151,57427,1,8,0:0:0:0:
217,151,57627,1,0,0:0:0:0:
217,151,57827,1,8,0:0:0:0:
217,151,58027,1,8,0:0:0:0:
217,151,58227,1,0,0:0:0:0:
217,151,58427,1,0,0:0:0:0:
217,151,58627,1,8,0:0:0:0:
217,151,58827,1,0,0:0:0:0:
217,151,59027,1,8,0:0:0:0:
217,151,59227,1,8,0:0:0:0:
217,151,59427,1,0,0:0:0:0:
217,151,59627,1,0,0:0:0:0:
217,151,59827,1,8,0:0:0:0:
217,151,60027,1,8,0:0:0:0:
217,151,60227,1,0,0:0:0:0:
217,151,60427,1,8,0:0:0:0:
100,139,60627,1,0,0:0:0:0:
55,146,60827,1,0,0:0:0:0:
63,144,61027,1,8,0:0:0:0:
63,144,61227,1,8,0:0:0:0:
63,144,61427,1,0,0:0:0:0:
63,144,61627,1,0,0:0:0:0:
63,144,61827,1,8,0:0:0:0:
63,144,62027,1,0,0:0:0:0:
63,144,62227,1,8,0:0:0:0:
63,144,62427,1,0,0:0:0:0:
63,144,62627,1,8,0:0:0:0:
63,144,62827,1,8,0:0:0:0:
63,144,63027,1,0,0:0:0:0:
63,144,63227,1,0,0:0:0:0:
63,144,63427,1,8,0:0:0:0:
63,144,63627,1,0,0:0:0:0:
155,151,63827,1,0,0:0:0:0:
155,151,64027,1,8,0:0:0:0:
131,246,69827,6,0,B|128:223|128:223|153:218|153:218|137:201|141:205|141:205|162:198|162:198|163:211|176:214|176:214|180:202|180:202|193:209|196:211|198:197|198:184|193:178|179:165|205:171|250:166|260:196|246:200|211:163|228:138|266:118|248:117|182:98|201:126|216:112|205:97|205:97|185:93|171:96|169:106|183:115|187:107|176:99|167:98|157:104|151:114|141:120|131:118|129:111|131:102|128:94|124:88|99:90|106:100|127:105|115:86|97:81|87:84|86:88|89:94|101:91|101:85|83:77|81:78|86:83|86:77|77:72|75:72|75:74|82:74|82:71|85:69|85:69|86:72|84:73|84:72|84:72|89:72|95:74|95:74|98:74|98:73|90:72|84:74|89:81|106:86|121:80|121:76|105:66|103:74|112:76|102:67|93:71|77:84|65:97|54:105|84:97|82:90|71:132|45:129|62:107|67:105|64:126|45:111|68:97|64:120|39:112|75:86|89:103|40:111|99:75|95:97|78:74|147:88|51:93|113:93|63:94|62:160|144:119|89:142|89:142|149:169|45:125|140:139|33:138|114:132|102:151|77:144|119:127|39:154|37:134|61:123|78:146|49:163|130:194|113:178|113:171|123:169|99:182|92:178|72:161|81:155|96:164|74:172|64:168|63:155|75:148|94:148|102:156|108:164|109:164|108:159|102:154|98:150|95:145|95:132|102:131|110:130|117:130|129:132|135:134|132:153|124:161|104:175|103:177,1,840
328,195,70627,5,4,0:0:0:0:
243,158,70827,1,8,0:0:0:0:
243,158,70927,1,0,0:0:0:0:
243,158,71127,1,0,0:0:0:0:
248,168,71227,1,0,0:0:0:0:
248,168,71327,1,8,0:0:0:0:
232,138,71527,1,8,0:0:0:0:
231,137,71627,1,0,0:0:0:0:
230,131,71727,1,0,0:0:0:0:
230,131,71827,1,8,0:0:0:0:
230,131,71927,1,8,0:0:0:0:
232,138,72027,1,0,0:0:0:0:
232,138,72127,1,8,0:0:0:0:
232,138,72227,1,0,0:0:0:0:
231,137,72427,1,8,0:0:0:0:
230,131,72527,1,0,0:0:0:0:
230,131,72727,1,0,0:0:0:0:
234,131,72827,1,0,0:0:0:0:
234,131,72927,1,8,0:0:0:0:
235,131,73127,1,0,0:0:0:0:
235,131,73227,1,8,0:0:0:0:
241,127,73327,1,0,0:0:0:0:
241,127,73427,1,8,0:0:0:0:
241,127,73527,1,8,0:0:0:0:
241,127,73627,1,0,0:0:0:0:
241,127,73727,1,0,0:0:0:0:
241,127,73827,1,8,0:0:0:0:
241,127,74027,1,8,0:0:0:0:
241,127,74127,1,0,0:0:0:0:
241,127,74327,1,8,0:0:0:0:
241,127,74427,1,0,0:0:0:0:
241,127,74527,1,8,0:0:0:0:
232,89,74727,1,0,0:0:0:0:
232,89,74827,1,0,0:0:0:0:
232,89,74927,1,0,0:0:0:0:
143,138,75027,1,8,0:0:0:0:
143,138,75127,1,8,0:0:0:0:
158,126,75227,1,8,0:0:0:0:
158,126,75327,1,0,0:0:0:0:
159,126,75427,1,8,0:0:0:0:
159,126,75627,1,0,0:0:0:0:
159,126,75727,1,8,0:0:0:0:
303,87,75927,1,8,0:0:0:0:
158,126,76027,1,0,0:0:0:0:
158,126,76127,1,8,0:0:0:0:
303,87,76327,1,8,0:0:0:0:
303,87,76427,1,0,0:0:0:0:
303,87,76527,1,0,0:0:0:0:
211,75,76627,1,8,0:0:0:0:
236,84,76727,1,8,0:0:0:0:
236,84,76827,1,0,0:0:0:0:
236,84,76927,1,8,0:0:0:0:
244,131,77027,1,4,0:0:0:0:
260,74,77227,1,8,0:0:0:0:
261,74,77327,1,0,0:0:0:0:
261,74,77527,1,0,0:0:0:0:
261,74,77627,1,0,0:0:0:0:
260,74,77727,1,8,0:0:0:0:
260,74,77927,1,0,0:0:0:0:
260,74,78027,1,8,0:0:0:0:
261,74,78127,1,0,0:0:0:0:
261,74,78227,1,8,0:0:0:0:
261,74,78327,1,8,0:0:0:0:
261,74,78427,1,0,0:0:0:0:
425,157,78527,1,8,0:0:0:0:
443,195,78627,1,4,0:0:0:0:
268,171,78827,1,8,0:0:0:0:
268,171,78927,1,0,0:0:0:0:
166,143,79127,1,8,0:0:0:0:
166,143,79227,1,0,0:0:0:0:
174,142,79327,1,8,0:0:0:0:
177,142,79527,1,8,0:0:0:0:
177,142,79627,1,8,0:0:0:0:
175,142,79727,1,0,0:0:0:0:
177,142,79827,1,8,0:0:0:0:
177,142,79927,1,0,0:0:0:0:
177,142,80027,1,8,0:0:0:0:
174,142,80127,1,8,0:0:0:0:
215,149,80227,1,4,0:0:0:0:
353,130,80427,1,4,0:0:0:0:
229,148,80727,1,0,0:0:0:0:
339,195,80827,1,8,0:0:0:0:
232,148,80927,1,8,0:0:0:0:
403,170,81027,1,4,0:0:0:0:
303,128,81227,1,4,0:0:0:0:
284,184,81527,1,0,0:0:0:0:
241,131,81627,1,8,0:0:0:0:
284,184,81727,1,8,0:0:0:0:
286,127,81827,1,0,0:0:0:0:
292,128,81877,1,0,0:0:0:0:
286,127,81927,1,0,0:0:0:0:
290,128,81977,1,0,0:0:0:0:
292,137,82027,1,8,0:0:0:0:
292,127,82077,1,8,0:0:0:0:
296,127,82127,1,8,0:0:0:0:
293,137,82177,1,8,0:0:0:0:
228,40,82227,1,0,0:0:0:0:
228,40,82277,1,8,0:0:0:0:
228,40,82327,1,0,0:0:0:0:
228,40,82377,1,0,0:0:0:0:
228,40,82427,1,8,0:0:0:0:
228,40,82477,1,8,0:0:0:0:
228,40,82527,1,0,0:0:0:0:
126,19,82577,1,0,0:0:0:0:
228,40,82627,1,8,0:0:0:0:
323,206,83427,1,4,0:0:0:0:
307,163,83527,1,0,0:0:0:0:
307,163,83627,1,8,0:0:0:0:
358,188,83677,1,8,0:0:0:0:
358,188,83727,1,0,0:0:0:0:
307,163,83827,1,0,0:0:0:0:
307,163,83927,1,8,0:0:0:0:
201,26,83977,1,8,0:0:0:0:
307,163,84027,1,0,0:0:0:0:
201,26,84077,1,0,0:0:0:0:
201,26,84127,1,8,0:0:0:0:
250,71,84227,1,8,0:0:0:0:
245,50,84327,1,0,0:0:0:0:
194,31,84377,1,0,0:0:0:0:
245,50,84427,1,8,0:0:0:0:
150,26,84477,1,0,0:0:0:0:
299,164,84527,1,8,0:0:0:0:
324,238,84577,1,8,0:0:0:0:
211,69,84627,1,0,0:0:0:0:
211,69,84677,1,0,0:0:0:0:
334,166,84727,1,0,0:0:0:0:
154,132,84777,1,0,0:0:0:0:
173,96,84827,1,8,0:0:0:0:
173,96,84877,1,8,0:0:0:0:
173,96,84927,1,8,0:0:0:0:
192,100,84977,1,8,0:0:0:0:
192,100,85027,1,0,0:0:0:0:
284,217,85127,1,0,0:0:0:0:
284,217,85227,1,8,0:0:0:0:
234,148,85277,1,8,0:0:0:0:
284,217,85327,1,0,0:0:0:0:
284,217,85427,1,8,0:0:0:0:
284,217,85527,1,0,0:0:0:0:
284,217,85577,1,0,0:0:0:0:
284,217,85627,1,8,0:0:0:0:
245,77,85677,1,8,0:0:0:0:
284,217,85727,1,0,0:0:0:0:
250,55,85827,1,8,0:0:0:0:
386,186,85877,1,8,0:0:0:0:
357,174,85927,1,0,0:0:0:0:
250,55,85977,1,0,0:0:0:0:
250,55,86027,1,8,0:0:0:0:
250,55,86077,1,0,0:0:0:0:
250,55,86127,1,8,0:0:0:0:
250,55,86177,1,8,0:0:0:0:
250,55,86227,1,0,0:0:0:0:
250,55,86260,1,0,0:0:0:0:
250,55,86293,1,0,0:0:0:0:
192,113,86327,1,8,0:0:0:0:
227,103,86377,1,8,0:0:0:0:
198,44,86427,1,0,0:0:0:0:
198,44,86460,1,0,0:0:0:0:
198,44,86493,1,0,0:0:0:0:
210,95,86527,1,8,0:0:0:0:
227,106,86577,1,8,0:0:0:0:
227,106,86627,1,0,0:0:0:0:
138,173,86727,1,0,0:0:0:0:
138,173,86827,1,8,0:0:0:0:
231,159,86877,1,8,0:0:0:0:
138,173,86927,1,8,0:0:0:0:
138,173,87027,1,0,0:0:0:0:
138,173,87127,1,8,0:0:0:0:
225,151,87177,1,8,0:0:0:0:
198,44,87227,1,0,0:0:0:0:
305,62,87277,1,0,0:0:0:0:
198,44,87327,1,8,0:0:0:0:
248,63,87427,1,8,0:0:0:0:
305,62,87527,1,0,0:0:0:0:
245,70,87577,1,0,0:0:0:0:
245,70,87627,1,8,0:0:0:0:
245,70,87677,1,0,0:0:0:0:
245,70,87727,1,8,0:0:0:0:
245,70,87777,1,8,0:0:0:0:
245,70,87827,1,0,0:0:0:0:
339,108,87877,1,0,0:0:0:0:
339,108,87927,1,8,0:0:0:0:
339,108,87977,1,8,0:0:0:0:
339,108,88027,1,0,0:0:0:0:
335,250,88077,1,0,0:0:0:0:
165,48,88127,1,8,0:0:0:0:
165,48,88227,1,0,0:0:0:0:
165,48,88277,1,0,0:0:0:0:
165,48,88327,1,8,0:0:0:0:
165,48,88377,1,8,0:0:0:0:
165,48,88427,1,0,0:0:0:0:
165,48,88477,1,8,0:0:0:0:
165,48,88527,1,0,0:0:0:0:
165,48,88577,1,0,0:0:0:0:
254,123,88627,1,8,0:0:0:0:
260,120,88677,1,8,0:0:0:0:
123,137,88727,1,0,0:0:0:0:
123,137,88777,1,8,0:0:0:0:
123,137,88827,1,0,0:0:0:0:
123,137,88877,1,0,0:0:0:0:
209,120,88927,1,0,0:0:0:0:
209,120,88977,1,0,0:0:0:0:
246,46,89027,1,8,0:0:0:0:
246,46,89060,1,8,0:0:0:0:
246,46,89093,1,8,0:0:0:0:
394,70,89127,1,0,0:0:0:0:
394,70,89177,1,0,0:0:0:0:
218,42,89227,1,8,0:0:0:0:
223,40,89260,1,8,0:0:0:0:
224,39,89293,1,8,0:0:0:0:
224,39,89327,1,0,0:0:0:0:
123,137,89377,1,0,0:0:0:0:
365,262,89427,1,8,0:0:0:0:
365,262,89527,1,8,0:0:0:0:
365,262,89627,1,0,0:0:0:0:
279,146,89677,1,0,0:0:0:0:
142,109,89727,1,8,0:0:0:0:
230,152,89827,1,4,0:0:0:0:
276,50,89927,1,0,0:0:0:0:
276,50,90027,1,8,0:0:0:0:
276,50,90077,1,8,0:0:0:0:
276,50,90127,1,0,0:0:0:0:
276,50,90227,1,0,0:0:0:0:
215,51,90327,1,8,0:0:0:0:
258,125,90377,1,8,0:0:0:0:
215,51,90427,1,0,0:0:0:0:
231,162,90477,1,0,0:0:0:0:
161,158,90527,1,8,0:0:0:0:
161,158,90627,1,0,0:0:0:0:
216,176,90727,1,8,0:0:0:0:
216,176,90777,1,8,0:0:0:0:
309,155,90827,1,0,0:0:0:0:
216,176,90877,1,8,0:0:0:0:
216,176,90927,1,0,0:0:0:0:
216,176,90977,1,0,0:0:0:0:
216,176,91027,1,8,0:0:0:0:
216,176,91077,1,8,0:0:0:0:
216,176,91127,1,8,0:0:0:0:
216,176,91177,1,8,0:0:0:0:
216,176,91227,1,0,0:0:0:0:
216,176,91277,1,0,0:0:0:0:
216,176,91327,1,8,0:0:0:0:
216,176,91377,1,8,0:0:0:0:
216,176,91427,1,0,0:0:0:0:
216,176,91527,1,0,0:0:0:0:
261,182,91627,1,8,0:0:0:0:
261,182,91677,1,8,0:0:0:0:
271,182,91727,1,0,0:0:0:0:
363,255,91827,1,0,0:0:0:0:
235,51,91927,1,8,0:0:0:0:
316,70,91977,1,8,0:0:0:0:
210,48,92027,1,0,0:0:0:0:
214,77,92077,1,8,0:0:0:0:
316,70,92127,1,0,0:0:0:0:
259,96,92227,1,8,0:0:0:0:
259,96,92277,1,8,0:0:0:0:
259,96,92327,1,0,0:0:0:0:
259,96,92377,1,0,0:0:0:0:
259,96,92427,1,8,0:0:0:0:
259,96,92477,1,0,0:0:0:0:
259,96,92527,1,8,0:0:0:0:
259,96,92577,1,8,0:0:0:0:
259,96,92627,1,0,0:0:0:0:
174,38,92660,1,0,0:0:0:0:
174,38,92693,1,0,0:0:0:0:
174,38,92727,1,8,0:0:0:0:
214,56,92777,1,8,0:0:0:0:
281,87,92827,1,0,0:0:0:0:
281,88,92860,1,0,0:0:0:0:
281,88,92893,1,0,0:0:0:0:
281,88,92927,1,8,0:0:0:0:
281,88,92977,1,8,0:0:0:0:
224,170,93027,1,0,0:0:0:0:
323,137,93127,1,0,0:0:0:0:
323,137,93227,1,8,0:0:0:0:
338,128,93277,1,8,0:0:0:0:
336,128,93327,1,8,0:0:0:0:
336,128,93427,1,0,0:0:0:0:
179,54,93527,1,8,0:0:0:0:
179,54,93577,1,8,0:0:0:0:
179,54,93627,1,0,0:0:0:0:
179,54,93677,1,0,0:0:0:0:
179,54,93727,1,8,0:0:0:0:
179,54,93827,1,0,0:0:0:0:
185,62,93927,1,8,0:0:0:0:
185,62,93977,1,8,0:0:0:0:
185,62,94027,1,0,0:0:0:0:
185,62,94127,1,0,0:0:0:0:
277,77,94227,1,8,0:0:0:0:
326,60,94277,1,8,0:0:0:0:
277,77,94327,1,8,0:0:0:0:
277,77,94377,1,8,0:0:0:0:
277,77,94427,1,0,0:0:0:0:
277,77,94477,1,0,0:0:0:0:
284,75,94527,1,8,0:0:0:0:
284,75,94627,1,0,0:0:0:0:
284,74,94677,1,0,0:0:0:0:
284,73,94727,1,8,0:0:0:0:
284,73,94777,1,0,0:0:0:0:
284,73,94827,1,8,0:0:0:0:
284,73,94877,1,8,0:0:0:0:
284,73,94927,1,0,0:0:0:0:
284,73,94977,1,0,0:0:0:0:
284,73,95027,1,8,0:0:0:0:
284,73,95077,1,8,0:0:0:0:
284,73,95127,1,8,0:0:0:0:
284,73,95177,1,8,0:0:0:0:
232,80,95227,1,0,0:0:0:0:
232,80,95277,1,0,0:0:0:0:
232,80,95327,1,0,0:0:0:0:
232,80,95377,1,0,0:0:0:0:
232,80,95427,1,8,0:0:0:0:
321,204,95577,1,0,0:0:0:0:
283,187,95627,1,0,0:0:0:0:
131,162,95677,1,8,0:0:0:0:
290,184,95727,1,8,0:0:0:0:
131,162,95777,1,0,0:0:0:0:
208,109,95827,5,8,0:0:0:0:
183,65,95927,1,8,0:0:0:0:
183,65,96027,1,0,0:0:0:0:
183,65,96077,1,0,0:0:0:0:
183,65,96127,1,8,0:0:0:0:
183,65,96177,1,8,0:0:0:0:
183,65,96227,1,0,0:0:0:0:
237,222,96327,1,8,0:0:0:0:
270,198,96427,1,0,0:0:0:0:
270,198,96477,1,0,0:0:0:0:
270,198,96527,1,8,0:0:0:0:
178,54,96627,1,0,0:0:0:0:
270,198,96727,1,8,0:0:0:0:
202,156,96777,1,8,0:0:0:0:
202,156,96827,1,0,0:0:0:0:
202,156,96877,1,0,0:0:0:0:
234,87,96927,1,8,0:0:0:0:
234,87,96977,1,8,0:0:0:0:
22,144,97027,1,0,0:0:0:0:
138,49,97127,1,8,0:0:0:0:
261,91,97227,1,0,0:0:0:0:
261,91,97277,1,0,0:0:0:0:
261,91,97327,1,0,0:0:0:0:
261,91,97377,1,0,0:0:0:0:
217,46,97427,1,8,0:0:0:0:
241,60,97477,1,8,0:0:0:0:
241,60,97527,1,0,0:0:0:0:
241,60,97577,1,8,0:0:0:0:
241,60,97627,1,0,0:0:0:0:
241,60,97677,1,0,0:0:0:0:
332,80,97727,1,0,0:0:0:0:
332,80,97777,1,0,0:0:0:0:
181,80,97827,1,8,0:0:0:0:
181,80,97877,1,8,0:0:0:0:
149,87,97927,1,0,0:0:0:0:
149,87,98027,1,8,0:0:0:0:
190,223,98077,1,0,0:0:0:0:
190,223,98127,1,0,0:0:0:0:
270,164,98177,1,0,0:0:0:0:
276,109,98227,1,8,0:0:0:0:
276,109,98327,1,0,0:0:0:0:
258,216,98377,1,0,0:0:0:0:
276,109,98427,1,8,0:0:0:0:
276,109,98477,1,8,0:0:0:0:
276,109,98527,1,0,0:0:0:0:
252,92,98577,1,8,0:0:0:0:
252,92,98627,1,0,0:0:0:0:
227,82,98727,1,8,0:0:0:0:
227,82,98777,1,8,0:0:0:0:
227,82,98827,1,0,0:0:0:0:
239,82,98877,1,0,0:0:0:0:
219,80,98927,1,8,0:0:0:0:
185,55,98977,1,8,0:0:0:0:
185,55,99027,1,0,0:0:0:0:
185,55,99077,1,0,0:0:0:0:
231,112,99127,1,0,0:0:0:0:
231,112,99177,1,0,0:0:0:0:
176,32,99227,1,8,0:0:0:0:
176,32,99277,1,0,0:0:0:0:
180,175,99327,1,8,0:0:0:0:
281,194,99377,1,8,0:0:0:0:
375,150,99427,1,4,0:0:0:0:
375,150,99827,1,4,0:0:0:0:
375,150,100227,1,4,0:0:0:0:
375,150,100327,1,4,0:0:0:0:
375,150,100427,1,4,0:0:0:0:
375,150,100627,1,4,0:0:0:0:
375,150,100927,1,4,0:0:0:0:
437,183,101027,1,4,0:0:0:0:
251,170,101227,1,4,0:0:0:0:
251,170,101427,1,4,0:0:0:0:
251,170,101627,1,4,0:0:0:0:
311,133,101827,1,8,0:0:0:0:
311,133,101860,1,8,0:0:0:0:
360,53,101893,1,8,0:0:0:0:
232,70,101927,1,0,0:0:0:0:
232,70,101977,1,0,0:0:0:0:
378,80,102027,1,8,0:0:0:0:
378,80,102060,1,8,0:0:0:0:
265,119,102093,1,0,0:0:0:0:
265,119,102127,1,0,0:0:0:0:
231,129,102160,1,8,0:0:0:0:
231,129,102193,1,8,0:0:0:0:
369,126,102227,1,0,0:0:0:0:
369,126,102277,1,0,0:0:0:0:
162,77,102327,1,8,0:0:0:0:
162,77,102377,1,8,0:0:0:0:
351,78,102427,1,0,0:0:0:0:
351,78,102460,1,0,0:0:0:0:
351,78,102493,1,0,0:0:0:0:
351,78,102527,1,8,0:0:0:0:
167,131,102577,1,8,0:0:0:0:
163,66,102627,1,0,0:0:0:0:
210,157,102727,1,8,0:0:0:0:
210,157,102827,1,0,0:0:0:0:
210,157,102877,1,0,0:0:0:0:
165,106,102927,5,8,0:0:0:0:
268,149,102977,1,8,0:0:0:0:
165,106,103027,1,0,0:0:0:0:
179,76,103127,1,8,0:0:0:0:
268,104,103177,1,8,0:0:0:0:
178,71,103227,1,0,0:0:0:0:
181,71,103327,1,8,0:0:0:0:
177,62,103427,5,0,0:0:0:0:
299,120,103527,1,8,0:0:0:0:
299,120,103577,1,8,0:0:0:0:
304,73,103627,1,8,0:0:0:0:
304,73,103677,1,8,0:0:0:0:
304,73,103727,1,0,0:0:0:0:
304,73,103777,1,0,0:0:0:0:
307,84,103827,1,8,0:0:0:0:
197,48,103877,1,0,0:0:0:0:
199,48,103927,1,8,0:0:0:0:
199,48,103977,1,8,0:0:0:0:
199,48,104027,1,0,0:0:0:0:
199,48,104077,1,0,0:0:0:0:
199,48,104127,1,8,0:0:0:0:
199,48,104177,1,0,0:0:0:0:
199,48,104227,1,8,0:0:0:0:
199,48,104277,1,8,0:0:0:0:
197,48,104327,1,0,0:0:0:0:
149,87,104427,1,8,0:0:0:0:
193,49,104477,1,8,0:0:0:0:
193,49,104527,1,0,0:0:0:0:
270,164,104577,1,0,0:0:0:0:
276,109,104627,1,8,0:0:0:0:
276,109,104727,1,0,0:0:0:0:
276,109,104777,1,0,0:0:0:0:
276,109,104827,1,8,0:0:0:0:
276,109,104877,1,8,0:0:0:0:
276,109,104927,1,0,0:0:0:0:
283,107,104977,1,0,0:0:0:0:
283,107,105027,1,8,0:0:0:0:
283,108,105127,1,0,0:0:0:0:
250,93,105177,1,0,0:0:0:0:
252,89,105227,1,8,0:0:0:0:
239,82,105277,1,0,0:0:0:0:
219,80,105327,1,0,0:0:0:0:
247,104,105377,1,0,0:0:0:0:
208,146,105427,1,8,0:0:0:0:
112,157,105477,1,8,0:0:0:0:
231,112,105527,1,0,0:0:0:0:
231,112,105577,1,0,0:0:0:0:
176,32,105627,1,8,0:0:0:0:
176,32,105677,1,0,0:0:0:0:
180,175,105727,1,8,0:0:0:0:
281,194,105777,1,8,0:0:0:0:
375,150,105827,1,4,0:0:0:0:
431,138,106227,1,4,0:0:0:0:
237,60,106627,1,4,0:0:0:0:
237,60,106827,1,4,0:0:0:0:
237,60,107027,1,4,0:0:0:0:
214,124,107427,1,4,0:0:0:0:
214,124,107627,1,4,0:0:0:0:
214,124,107827,1,4,0:0:0:0:
214,124,108027,1,4,0:0:0:0:
172,78,108227,1,8,0:0:0:0:
172,78,108260,1,8,0:0:0:0:
172,78,108293,1,8,0:0:0:0:
172,78,108327,1,0,0:0:0:0:
283,79,108377,1,0,0:0:0:0:
205,31,108427,1,8,0:0:0:0:
205,31,108460,1,8,0:0:0:0:
210,23,108493,1,8,0:0:0:0:
210,18,108527,1,0,0:0:0:0:
402,98,108577,1,0,0:0:0:0:
311,186,109027,1,4,0:0:0:0:
311,186,109227,1,0,0:0:0:0:
311,186,109427,1,8,0:0:0:0:
311,186,109627,1,8,0:0:0:0:
311,186,109727,1,8,0:0:0:0:
311,186,109827,1,0,0:0:0:0:
311,186,110027,1,0,0:0:0:0:
311,186,110227,1,8,0:0:0:0:
243,147,110327,1,0,0:0:0:0:
243,147,110427,1,8,0:0:0:0:
243,147,110527,1,8,0:0:0:0:
216,127,110627,1,8,0:0:0:0:
216,127,110827,1,0,0:0:0:0:
216,127,111027,1,8,0:0:0:0:
216,127,111127,1,0,0:0:0:0:
216,127,111227,1,8,0:0:0:0:
216,127,111427,1,0,0:0:0:0:
216,127,111627,1,0,0:0:0:0:
216,127,111827,1,8,0:0:0:0:
216,127,111927,1,8,0:0:0:0:
216,127,112027,1,8,0:0:0:0:
216,127,112127,1,8,0:0:0:0:
216,127,112227,1,0,0:0:0:0:
188,78,112427,1,0,0:0:0:0:
188,78,112627,1,8,0:0:0:0:
188,78,112827,1,8,0:0:0:0:
188,78,112927,1,8,0:0:0:0:
188,78,113027,1,0,0:0:0:0:
188,78,113227,1,0,0:0:0:0:
188,78,113427,1,8,0:0:0:0:
188,78,113527,1,0,0:0:0:0:
188,78,113627,1,8,0:0:0:0:
188,78,113727,1,8,0:0:0:0:
188,78,113827,1,0,0:0:0:0:
188,78,114027,1,0,0:0:0:0:
188,78,114227,1,8,0:0:0:0:
188,78,114327,1,0,0:0:0:0:
188,78,114427,1,8,0:0:0:0:
188,78,114627,1,8,0:0:0:0:
188,78,114827,1,0,0:0:0:0:
188,78,115027,1,8,0:0:0:0:
141,33,115227,1,8,0:0:0:0:
141,33,115427,1,0,0:0:0:0:
141,33,115627,1,0,0:0:0:0:
141,33,115827,1,8,0:0:0:0:
141,33,116027,1,8,0:0:0:0:
141,33,116127,1,8,0:0:0:0:
90,143,116227,1,0,0:0:0:0:
119,151,116427,1,0,0:0:0:0:
119,151,116627,1,8,0:0:0:0:
120,151,116727,1,0,0:0:0:0:
120,151,116827,1,8,0:0:0:0:
120,151,116927,1,8,0:0:0:0:
121,151,117027,1,0,0:0:0:0:
119,151,117227,1,0,0:0:0:0:
119,151,117427,1,8,0:0:0:0:
120,151,117527,1,0,0:0:0:0:
120,151,117627,1,8,0:0:0:0:
121,151,117827,1,8,0:0:0:0:
119,151,118027,1,0,0:0:0:0:
119,151,118227,1,8,0:0:0:0:
120,151,118327,1,0,0:0:0:0:
108,135,118427,1,0,0:0:0:0:
196,109,118527,1,8,0:0:0:0:
196,109,118627,1,0,0:0:0:0:
196,109,118827,1,0,0:0:0:0:
196,109,119027,1,8,0:0:0:0:
196,109,119227,1,8,0:0:0:0:
196,109,119327,1,8,0:0:0:0:
196,109,119427,1,0,0:0:0:0:
196,109,119627,1,0,0:0:0:0:
196,109,119827,1,8,0:0:0:0:
196,109,119927,1,0,0:0:0:0:
151,83,120027,1,8,0:0:0:0:
151,83,120127,1,8,0:0:0:0:
151,83,120227,1,0,0:0:0:0:
151,83,120427,1,0,0:0:0:0:
151,83,120627,1,8,0:0:0:0:
151,83,120727,1,0,0:0:0:0:
151,83,120827,1,8,0:0:0:0:
151,83,121027,1,8,0:0:0:0:
345,142,121827,1,4,0:0:0:0:
