osu file format v14

[General]
AudioFilename: audio.mp3
AudioLeadIn: 0
PreviewTime: 64227
Countdown: 0
SampleSet: Soft
StackLeniency: 0.4
Mode: 0
LetterboxInBreaks: 0
WidescreenStoryboard: 0

[Editor]
Bookmarks: 13027
DistanceSpacing: 1.1
BeatDivisor: 4
GridSize: 4
TimelineZoom: 5.699997

[Metadata]
Title:Hold Angel
TitleUnicode:Hold Angel
Artist:you
ArtistUnicode:you
Creator:Deppyforce
Version:Normal
Source:
Tags:600 bpm speedcore rsi deathstream derandom_otaku akitoshi corinn snownino_
BeatmapID:1237287
BeatmapSetID:580695

[Difficulty]
HPDrainRate:4.5
CircleSize:3.3
OverallDifficulty:5
ApproachRate:5.5
SliderMultiplier:0.800000005960464
SliderTickRate:1

[Events]
//Background and Video events
0,0,"d.jpg",0,0
//Break Periods
2,64226,68702
//Storyboard Layer 0 (Background)
//Storyboard Layer 1 (Fail)
//Storyboard Layer 2 (Pass)
//Storyboard Layer 3 (Foreground)
//Storyboard Sound Samples

[TimingPoints]
227,200,4,2,1,60,1,0
12227,-100,4,2,88,60,0,0
12239,-100,4,2,88,20,0,0
13027,-100,4,2,88,50,0,0
18627,-100,4,2,1,40,0,0
19427,-100,4,2,88,50,0,0
22627,-100,4,2,0,50,0,0
25027,-100,4,2,88,60,0,0
25039,-100,4,2,88,20,0,0
25627,-100,4,2,99,60,0,0
25827,-100,4,2,1,60,0,0
29027,-100,4,2,2,60,0,0
30227,-100,4,2,1,60,0,0
30627,-100,4,2,2,60,0,0
31427,-100,4,2,88,80,0,0
31477,-100,4,2,2,60,0,0
31627,-100,4,2,88,80,0,0
31677,-100,4,2,2,60,0,0
31827,-100,4,2,88,80,0,0
31877,-100,4,2,2,60,0,0
32027,-100,4,2,1,60,0,0
35427,-100,4,2,2,60,0,0
35527,-100,4,2,1,60,0,0
35627,-100,4,2,2,60,0,0
35727,-100,4,2,1,60,0,0
35827,-100,4,2,2,60,0,0
35927,-100,4,2,1,60,0,0
36127,-100,4,2,2,60,0,0
36327,-100,4,2,1,60,0,0
36527,-100,4,2,2,60,0,0
36727,-100,4,2,1,60,0,0
37027,-100,4,2,2,60,0,0
37127,-100,4,2,1,60,0,0
37227,-100,4,2,2,60,0,0
37327,-100,4,2,1,60,0,0
37427,-100,4,2,2,60,0,0
37827,-100,4,2,88,80,0,0
38027,-100,4,2,1,60,0,0
39227,-100,4,2,2,60,0,0
39427,-100,4,2,1,60,0,0
40027,-100,4,2,2,60,0,0
40227,-100,4,2,1,60,0,0
40627,-100,4,2,2,60,0,0
40827,-100,4,2,1,60,0,0
41227,-100,4,2,2,60,0,0
41827,-100,4,2,1,60,0,0
42427,-100,4,2,2,60,0,0
42727,-100,4,2,1,60,0,0
43427,-100,4,2,2,60,0,0
43727,-100,4,2,1,60,0,0
44027,-100,4,2,2,60,0,0
44227,-100,4,2,1,60,0,0
44527,-100,4,2,2,60,0,0
44627,-100,4,2,1,60,0,0
44727,-100,4,2,2,60,0,0
44827,-100,4,2,1,60,0,0
45027,-100,4,2,2,60,0,0
45427,-100,4,2,1,60,0,0
45727,-100,4,2,2,60,0,0
45827,-100,4,2,1,60,0,0
46027,-100,4,2,2,60,0,0
46127,-100,4,2,1,60,0,0
46427,-100,4,2,2,60,0,0
46527,-100,4,2,1,60,0,0
46627,-100,4,2,2,60,0,0
46727,-100,4,2,1,60,0,0
47027,-100,4,2,2,60,0,0
47127,-100,4,2,1,60,0,0
47627,-100,4,2,2,60,0,0
48027,-100,4,2,1,60,0,0
48227,-100,4,2,2,60,0,0
48327,-100,4,2,1,60,0,0
48427,-100,4,2,2,60,0,0
48527,-100,4,2,1,60,0,0
49027,-100,4,2,2,60,0,0
49227,-100,4,2,1,60,0,0
49327,-100,4,2,2,60,0,0
49427,-100,4,2,1,60,0,0
49527,-100,4,2,2,60,0,0
49727,-100,4,2,1,60,0,0
49827,-100,4,2,2,60,0,0
49927,-100,4,2,1,60,0,0
50427,-100,4,2,2,60,0,0
50627,-100,4,2,88,80,0,0
51427,-111.111111111111,4,2,0,40,0,0
69827,-105.263157894737,4,1,0,70,0,0
70627,-100,4,2,88,50,0,0
77027,-100,4,2,88,60,0,0
77227,-100,4,3,1,25,0,0
77827,-100,4,3,1,30,0,0
78627,-100,4,2,88,60,0,0
78827,-100,4,3,1,35,0,0
79427,-100,4,3,1,40,0,0
80227,-100,4,2,88,70,0,0
80627,-100,4,3,1,45,0,0
81027,-100,4,2,88,70,0,0
81427,-100,4,3,1,50,0,0
81827,-100,4,2,1,60,0,0
82627,-100,4,2,1,60,0,0
82802,-100,4,2,1,10,0,0
83427,-95.2380952380952,4,2,2,60,0,1
84627,-95.2380952380952,4,2,1,60,0,1
85027,-95.2380952380952,4,2,2,60,0,1
85827,-95.2380952380952,4,2,1,60,0,1
86627,-95.2380952380952,4,2,2,60,0,1
88227,-95.2380952380952,4,2,1,60,0,1
89427,-95.2380952380952,4,2,1,80,0,1
89827,-95.2380952380952,4,2,2,60,0,1
91027,-95.2380952380952,4,2,1,60,0,1
91427,-95.2380952380952,4,2,2,60,0,1
92227,-95.2380952380952,4,2,1,60,0,1
93027,-95.2380952380952,4,2,2,60,0,1
94627,-95.2380952380952,4,2,1,60,0,1
95427,-100,4,1,0,70,0,0
95827,-100,4,2,1,60,0,0
96227,-95.2380952380952,4,2,2,60,0,1
99427,-100,4,2,88,70,0,0
101827,-100,4,2,2,60,0,0
101927,-100,4,2,1,60,0,0
102627,-95.2380952380952,4,2,2,60,0,1
105827,-100,4,2,88,80,0,0
108227,-100,4,2,2,60,0,0
109027,-100,4,2,99,50,0,0
121827,-100,4,2,0,50,0,0

[Colours]
Combo1 : 101,97,126
Combo2 : 55,95,123

[HitObjects]
30,135,13027,6,0,B|107:114|107:114|189:125,1,160.000001192093,6|0,0:0|0:0,0:0:0:0:
252,182,13627,1,2,0:0:0:0:
327,136,13827,2,0,L|418:132,2,80.0000005960464,2|0|0,0:0|0:0|0:0,0:0:0:0:
168,214,14627,6,0,P|191:288|154:357,1,160.000001192093,2|2,0:0|0:0,0:0:0:0:
65,363,15227,1,2,0:0:0:0:
91,279,15427,2,0,L|250:293,1,160.000001192093,2|0,0:0|0:0,0:0:0:0:
301,366,16027,1,2,0:0:0:0:
374,315,16227,6,0,B|409:287|409:287|441:176,1,160.000001192093,2|0,0:0|0:0,0:0:0:0:
401,98,16827,1,2,0:0:0:0:
454,28,17027,2,0,P|478:58|488:97,2,80.0000005960464,2|0|0,0:0|0:0|0:0,0:0:0:0:
284,79,17827,6,0,P|205:81|133:48,1,160.000001192093,0|0,0:0|0:0,0:0:0:0:
58,95,18427,1,2,0:0:0:0:
28,177,18627,2,0,L|31:265,2,80.0000005960464,14|12|12,0:0|0:0|0:0,0:0:0:0:
114,161,19227,1,12,0:0:0:0:
200,169,19427,6,0,P|191:247|217:322,1,160.000001192093,6|0,0:0|0:0,0:0:0:0:
297,361,20027,1,2,0:0:0:0:
371,314,20227,2,0,L|453:319,2,80.0000005960464,2|0|0,0:0|0:0|0:0,0:0:0:0:
197,346,21027,6,0,L|37:352,1,160.000001192093,2|2,0:0|0:0,0:0:0:0:
0,271,21627,1,2,0:0:0:0:
33,189,21827,2,0,L|192:195,1,160.000001192093,2|0,0:0|0:0,0:0:0:0:
281,201,22427,1,2,0:0:0:0:
366,181,22627,6,0,P|318:121|241:122,1,160.000001192093,6|0,0:0|0:0,0:0:0:0:
192,195,23227,1,2,0:0:0:0:
232,273,23427,2,0,L|227:355,2,80.0000005960464,2|0|0,0:0|0:0|0:0,0:0:0:0:
84,368,24227,6,0,P|108:293|107:213,1,160.000001192093,4|0,0:0|0:0,0:0:0:0:
75,131,24827,1,2,0:0:0:0:
14,68,25027,6,0,P|113:25|154:125,1,240.000001788139,6|4,0:0|0:1,0:1:0:0:
75,131,25827,6,0,L|154:126,1,80.0000005960464,6|4,0:0|0:0,0:0:0:0:
241,110,26227,2,0,L|320:114,1,80.0000005960464,4|6,0:0|0:0,0:0:0:0:
400,75,26627,2,0,P|425:44|440:7,2,80.0000005960464,14|12|12,0:0|0:0|0:0,0:0:0:0:
435,247,27427,6,0,L|430:329,1,80.0000005960464,6|4,0:0|0:0,0:0:0:0:
341,319,27827,2,0,L|336:239,1,80.0000005960464,6|6,0:0|0:0,0:0:0:0:
392,170,28227,2,0,P|430:159|469:165,2,80.0000005960464,14|12|12,0:0|0:0|0:0,0:0:0:0:
323,114,28827,1,14,0:0:0:0:
266,183,29027,6,0,P|189:199|114:174,2,160.000001192093,6|6|6,0:0|0:0|0:0,0:0:0:0:
314,13,30227,1,14,0:0:0:0:
392,170,30627,2,0,L|386:330,2,160.000001192093,6|6|14,0:0|0:0|0:0,0:0:0:0:
299,20,31827,1,14,0:0:0:0:
238,83,32027,1,8,0:0:0:0:
238,83,32227,6,0,P|195:78|158:79,1,80.0000005960464,6|4,0:0|0:0,0:0:0:0:
98,144,32627,2,0,P|93:187|94:223,1,80.0000005960464,4|6,0:0|0:0,0:0:0:0:
159,284,33027,2,0,P|202:289|238:287,2,80.0000005960464,14|12|12,0:0|0:0|0:0,0:0:0:0:
280,156,33827,6,0,P|323:151|359:152,1,80.0000005960464,6|4,0:0|0:0,0:0:0:0:
420,217,34227,2,0,P|425:260|423:296,1,80.0000005960464,6|6,0:0|0:0,0:0:0:0:
359,357,34627,2,0,P|316:362|279:360,2,80.0000005960464,14|12|12,0:0|0:0|0:0,0:0:0:0:
443,326,35227,1,14,0:0:0:0:
512,270,35427,6,0,B|503:191|503:191|513:112,2,160.000001192093,6|6|6,0:0|0:0|0:0,0:0:0:0:
432,112,36627,1,6,0:0:0:0:
274,192,37027,2,0,B|233:197|195:187|195:187|157:175|115:180,2,160.000001192093,14|6|14,0:0|0:0|0:0,0:0:0:0:
486,34,38427,1,8,0:0:0:0:
486,34,38627,6,0,L|406:31,1,80.0000005960464,6|12,0:0|0:0,0:0:0:0:
345,95,39027,2,0,L|265:97,1,80.0000005960464,12|6,0:0|0:0,0:0:0:0:
186,56,39427,1,6,0:0:0:0:
139,130,39627,2,0,P|99:121|59:120,2,80.0000005960464,4|12|4,0:0|0:0|0:0,0:0:0:0:
217,171,40227,6,0,L|211:337,1,160.000001192093,6|6,0:0|0:0,0:0:0:0:
131,367,40827,1,6,0:0:0:0:
45,347,41027,2,0,B|32:307|32:307|34:268,2,80.0000005960464,14|12|4,0:0|0:0|0:0,0:0:0:0:
221,356,41827,6,0,P|290:318|369:313,2,160.000001192093,6|12|6,0:0|0:0|0:0,0:0:0:0:
167,286,42827,2,0,L|167:206,2,80.0000005960464,12|14|12,0:0|0:0|0:0,0:0:0:0:
131,367,43427,6,0,B|83:344|78:286|78:286|78:227,2,160.000001192093,6|14|6,0:0|0:0|0:0,0:0:0:0:
380,279,44827,1,12,0:0:0:0:
380,279,45027,6,0,L|370:200,1,80.0000005960464,14|4,0:0|0:0,0:0:0:0:
455,177,45427,2,0,L|465:98,1,80.0000005960464,0|6,0:0|0:0,0:0:0:0:
410,28,45827,1,6,0:0:0:0:
328,60,46027,2,0,P|288:65|248:61,2,80.0000005960464,12|12|12,0:0|0:0|0:0,0:0:0:0:
356,143,46627,6,0,P|280:163|218:213,1,160.000001192093,14|6,0:0|0:0,0:0:0:0:
184,294,47227,1,14,0:0:0:0:
232,367,47427,2,0,L|313:367,2,80.0000005960464,14|6|4,0:0|0:0|0:0,0:0:0:0:
143,375,48027,1,6,0:0:0:0:
59,346,48227,6,0,B|41:307|41:307|45:190,1,160.000001192093,6|12,0:0|0:0,0:0:0:0:
106,126,48827,1,14,0:0:0:0:
194,124,49027,2,0,L|204:205,2,80.0000005960464,14|12|6,0:0|0:0|0:0,0:0:0:0:
346,34,49827,6,0,P|385:29|425:34,1,80.0000005960464,14|12,0:0|0:0,0:0:0:0:
480,102,50227,2,0,P|450:128|428:162,1,80.0000005960464,14|12,0:0|0:0,0:0:0:0:
444,248,50627,1,14,0:0:0:0:
256,192,50727,12,6,51427,0:0:0:0:
60,348,53027,5,2,0:0:0:0:
177,296,54627,5,2,0:0:0:0:
208,171,56227,5,2,0:0:0:0:
299,260,57827,5,2,0:0:0:0:
177,296,59427,5,2,0:0:0:0:
58,248,61027,5,2,0:0:0:0:
23,127,62627,6,0,B|89:154|89:154|156:125|156:125|196:263|196:263|245:209|245:209|392:216,1,503.999988374233,2|0,0:0|0:0,0:0:0:0:
266,65,69827,6,0,B|304:131|304:131|284:175|304:236|362:252,1,227.999995610475,2|0,0:2|2:0,0:0:0:0:
448,235,70627,6,0,L|453:358,2,120.00000089407,2|2|0,0:0|0:0|0:0,0:0:0:0:
366,339,71527,2,0,P|269:360|173:335,1,200.000001490116,2|2,0:0|0:0,0:0:0:0:
125,261,72227,6,0,B|84:251|84:251|7:266,2,120.00000089407,2|2|0,0:0|0:0|0:0,0:0:0:0:
256,279,73127,2,0,B|265:219|257:173|257:173|244:121|253:80,1,200.000001490116,2|0,0:0|0:0,0:0:0:0:
326,30,73827,6,0,L|446:37,2,120.00000089407,2|2|0,0:0|0:0|0:0,0:0:0:0:
193,19,74727,2,0,B|134:29|72:14|72:14|92:51|88:89,1,200.000001490116,2|0,0:0|0:0,0:0:0:0:
35,159,75427,6,0,P|28:218|39:277,2,120.00000089407,2|2|0,0:0|0:0|0:0,0:0:0:0:
165,134,76327,2,0,B|179:212|179:212|157:291|157:291|276:278,1,280.000002086162,2|4,0:0|0:0,0:0:0:0:
256,192,77127,12,2,82627,0:0:0:0:
275,278,83427,6,0,B|193:300|193:300|169:333,1,125.999997093558,6|6,0:0|0:0,0:0:0:0:
77,322,83927,2,0,L|73:238,1,83.9999980623722,4|6,0:0|0:0,0:0:0:0:
17,160,84327,2,0,P|75:141|133:163,1,125.999997093558,6|6,0:0|0:0,0:0:0:0:
314,205,85027,6,0,L|439:200,2,125.999997093558,6|6|4,0:0|0:0|0:0,0:0:0:0:
232,161,85827,2,0,P|224:119|229:76,1,83.9999980623722,4|4,0:0|0:0,0:0:0:0:
290,9,86227,1,14,0:0:0:0:
458,80,86627,6,0,B|468:120|468:120|439:199,1,125.999997093558,6|6,0:0|0:0,0:0:0:0:
397,282,87127,2,0,P|394:323|404:364,1,83.9999980623722,4|6,0:0|0:0,0:0:0:0:
311,347,87527,2,0,L|168:353,1,125.999997093558,6|6,0:0|0:0,0:0:0:0:
103,308,88027,1,4,0:0:0:0:
144,226,88227,6,0,P|155:164|142:102,2,125.999997093558,6|6|4,0:0|0:0|0:0,0:0:0:0:
228,264,89027,1,12,0:0:0:0:
379,32,89627,1,2,0:0:0:0:
379,32,89827,6,0,L|253:38,1,125.999997093558,6|6,0:0|0:0,0:0:0:0:
250,130,90327,2,0,L|333:133,1,83.9999980623722,4|6,0:0|0:0,0:0:0:0:
424,112,90727,2,0,P|426:175|454:231,1,125.999997093558,6|6,0:0|0:0,0:0:0:0:
306,343,91427,6,0,P|364:319|426:314,2,125.999997093558,6|6|4,0:0|0:0|0:0,0:0:0:0:
256,264,92227,2,0,B|261:222|261:222|256:180,1,83.9999980623722,4|4,0:0|0:0,0:0:0:0:
220,94,92627,1,14,0:0:0:0:
63,192,93027,6,0,B|54:231|63:255|63:255|74:280|63:315,1,125.999997093558,6|6,0:0|0:0,0:0:0:0:
136,371,93527,2,0,L|221:365,1,83.9999980623722,4|6,0:0|0:0,0:0:0:0:
306,343,93927,2,0,B|390:346|390:346|428:326,1,125.999997093558,6|6,0:0|0:0,0:0:0:0:
484,253,94427,1,4,0:0:0:0:
461,163,94627,6,0,P|425:182|400:215,2,83.9999980623722,6|4|4,0:0|0:0|0:0,0:0:0:0:
497,77,95227,2,0,L|413:74,1,83.9999980623722,4|2,0:0|0:2,0:0:0:0:
165,168,96027,1,8,0:0:0:0:
165,168,96227,6,0,L|174:340,1,167.999996124744,6|14,0:0|0:0,0:0:0:0:
83,314,96827,1,4,0:0:0:0:
22,241,97027,2,0,P|17:200|19:158,2,83.9999980623722,14|4|6,0:0|0:0|0:0,0:0:0:0:
150,375,97827,6,0,P|217:324|299:311,1,167.999996124744,6|14,0:0|0:0,0:0:0:0:
383,348,98427,1,12,0:0:0:0:
428,268,98627,2,0,L|513:273,2,83.9999980623722,14|12|6,0:0|0:0|0:0,0:0:0:0:
341,233,99227,1,4,0:0:0:0:
285,161,99427,6,0,B|276:81|276:81|306:7,1,160.000001192093,12|12,0:0|0:0,0:0:0:0:
139,65,100227,2,0,L|60:60,2,80.0000005960464,8|8|12,0:0|0:0|0:0,0:0:0:0:
216,223,101027,2,0,B|246:297|246:297|237:376,1,160.000001192093,12|12,0:0|0:0,0:0:0:0:
325,371,101627,1,8,0:0:0:0:
331,283,101827,1,14,0:0:0:0:
491,28,102627,6,0,P|408:37|326:22,1,167.999996124744,6|14,0:0|0:0,0:0:0:0:
256,83,103227,1,4,0:0:0:0:
294,166,103427,2,0,L|379:163,2,83.9999980623722,14|4|6,0:0|0:0|0:0,0:0:0:0:
241,343,104227,6,0,L|156:340,1,83.9999980623722,6|4,0:0|0:0,0:0:0:0:
123,253,104627,2,0,B|206:239|206:239|246:248,2,125.999997093558,14|4|12,0:0|0:0|0:0,0:0:0:0:
61,183,105427,2,0,P|53:141|57:100,1,83.9999980623722,6|4,0:0|0:0,0:0:0:0:
98,22,105827,6,0,B|170:17|170:17|185:25|185:25|255:21,1,160.000001192093,12|12,0:0|0:0,0:0:0:0:
422,75,106627,2,0,L|501:79,2,80.0000005960464,12|8|12,0:0|0:0|0:0,0:0:0:0:
297,198,107427,2,0,L|217:202,1,80.0000005960464,12|8,0:0|0:0,0:0:0:0:
210,114,107827,2,0,L|289:109,1,80.0000005960464,12|8,0:0|0:0,0:0:0:0:
368,148,108227,2,0,B|430:200|430:200|430:279,1,160.000001192093,10|0,0:0|0:0,0:0:0:0:
255,284,109027,6,0,P|176:294|97:284,1,160.000001192093,6|0,1:2|0:0,0:0:0:0:
34,223,109627,1,2,0:0:0:0:
21,135,109827,2,0,L|28:45,2,80.0000005960464,10|0|0,0:0|0:0|0:0,0:0:0:0:
18,311,110627,6,0,P|97:321|177:310,1,160.000001192093,2|2,1:2|1:2,0:0:0:0:
245,255,111227,1,2,0:0:0:0:
325,289,111427,2,0,P|323:328|331:367,1,80.0000005960464,10|0,0:0|1:2,0:0:0:0:
419,356,111827,2,0,P|421:316|413:277,1,80.0000005960464,0|2,0:0|1:2,0:0:0:0:
483,223,112227,6,0,L|488:63,1,160.000001192093,2|0,1:2|0:0,0:0:0:0:
406,29,112827,1,2,0:0:0:0:
382,113,113027,2,0,L|384:193,2,80.0000005960464,10|0|0,0:0|0:0|1:2,0:0:0:0:
218,47,113827,6,0,B|174:37|174:37|61:54,1,160.000001192093,0|0,1:2|0:0,0:0:0:0:
21,135,114427,1,2,1:2:0:0:
65,210,114627,2,0,L|59:289,2,80.0000005960464,10|0|2,0:0|0:0|0:0,0:0:0:0:
148,180,115227,1,0,0:0:0:0:
227,218,115427,6,0,P|269:151|339:114,1,160.000001192093,2|0,1:2|0:0,0:0:0:0:
383,192,116027,1,2,0:0:0:0:
448,250,116227,2,0,L|448:333,2,80.0000005960464,10|0|0,0:0|0:0|0:0,0:0:0:0:
295,339,117027,6,0,P|215:345|138:325,1,160.000001192093,2|2,1:2|1:2,0:0:0:0:
66,377,117627,1,2,0:0:0:0:
58,289,117827,2,0,B|53:248|53:248|59:209,1,80.0000005960464,10|2,0:0|1:2,0:0:0:0:
140,243,118227,2,0,B|146:204|146:204|141:163,1,80.0000005960464,0|2,0:0|1:2,0:0:0:0:
111,80,118627,6,0,L|270:76,1,160.000001192093,2|0,1:2|0:0,0:0:0:0:
328,143,119227,1,2,0:0:0:0:
413,121,119427,2,0,L|492:119,2,80.0000005960464,10|0|0,0:0|0:0|1:0,0:0:0:0:
297,256,120227,6,0,B|219:233|219:233|140:243,1,160.000001192093,0|0,1:0|0:0,0:0:0:0:
118,328,120827,1,2,1:2:0:0:
196,367,121027,2,0,P|235:371|275:365,1,80.0000005960464,10|0,0:0|0:0,0:0:0:0:
353,324,121427,2,0,P|392:319|432:325,1,80.0000005960464,0|0,0:0|0:0,0:0:0:0:
512,363,121827,5,4,0:0:0:0:
