osu file format v14

[General]
AudioFilename: audio.mp3
AudioLeadIn: 0
PreviewTime: 64227
Countdown: 0
SampleSet: Soft
StackLeniency: 0.4
Mode: 0
LetterboxInBreaks: 0
WidescreenStoryboard: 0

[Editor]
Bookmarks: 13027
DistanceSpacing: 0.5
BeatDivisor: 8
GridSize: 32
TimelineZoom: 5.699997

[Metadata]
Title:Hold Angel
TitleUnicode:Hold Angel
Artist:you
ArtistUnicode:you
Creator:Deppyforce
Version:My Angel Deppyforce
Source:
Tags:600 bpm speedcore rsi deathstream derandom_otaku akitoshi corinn snownino_
BeatmapID:1229400
BeatmapSetID:580695

[Difficulty]
HPDrainRate:4.7
CircleSize:2.5
OverallDifficulty:10
ApproachRate:10
SliderMultiplier:2.7
SliderTickRate:1

[Events]
//Background and Video events
0,0,"d.jpg",0,0
//Break Periods
2,64227,69377
//Storyboard Layer 0 (Background)
//Storyboard Layer 1 (Fail)
//Storyboard Layer 2 (Pass)
//Storyboard Layer 3 (Foreground)
//Storyboard Sound Samples

[TimingPoints]
227,200,4,2,1,60,1,0
12227,-100,4,2,88,60,0,0
12239,-100,4,2,88,20,0,0
13027,-100,4,2,88,50,0,0
18627,-100,4,2,1,40,0,0
19427,-100,4,2,88,50,0,0
22627,-100,4,2,0,50,0,0
25027,-100,4,2,88,60,0,0
25039,-100,4,2,88,20,0,0
25627,-100,4,2,99,60,0,0
25827,-90.9090909090909,4,2,1,60,0,0
29027,-90.9090909090909,4,2,2,60,0,0
30227,-90.9090909090909,4,2,1,60,0,0
30627,-90.9090909090909,4,2,2,60,0,0
31427,-90.9090909090909,4,2,88,80,0,0
31477,-90.9090909090909,4,2,2,60,0,0
31627,-90.9090909090909,4,2,88,80,0,0
31677,-90.9090909090909,4,2,2,60,0,0
31827,-90.9090909090909,4,2,88,80,0,0
31877,-90.9090909090909,4,2,2,60,0,0
32027,-90.9090909090909,4,2,1,60,0,0
35427,-90.9090909090909,4,2,2,60,0,0
35527,-90.9090909090909,4,2,1,60,0,0
35627,-90.9090909090909,4,2,2,60,0,0
35727,-90.9090909090909,4,2,1,60,0,0
35827,-90.9090909090909,4,2,2,60,0,0
35927,-90.9090909090909,4,2,1,60,0,0
36127,-90.9090909090909,4,2,2,60,0,0
36327,-90.9090909090909,4,2,1,60,0,0
36527,-90.9090909090909,4,2,2,60,0,0
36727,-90.9090909090909,4,2,1,60,0,0
37027,-90.9090909090909,4,2,2,60,0,0
37127,-90.9090909090909,4,2,1,60,0,0
37227,-90.9090909090909,4,2,2,60,0,0
37327,-90.9090909090909,4,2,1,60,0,0
37427,-90.9090909090909,4,2,2,60,0,0
37827,-181.818181818182,4,2,88,80,0,0
38027,-181.818181818182,4,2,1,60,0,0
38427,-90.9090909090909,4,2,1,60,0,0
39227,-90.9090909090909,4,2,2,60,0,0
39427,-90.9090909090909,4,2,1,60,0,0
40027,-90.9090909090909,4,2,2,60,0,0
40227,-90.9090909090909,4,2,1,60,0,0
40627,-90.9090909090909,4,2,2,60,0,0
40827,-90.9090909090909,4,2,1,60,0,0
41227,-90.9090909090909,4,2,2,60,0,0
41827,-90.9090909090909,4,2,1,60,0,0
42427,-90.9090909090909,4,2,2,60,0,0
42727,-90.9090909090909,4,2,1,60,0,0
43427,-90.9090909090909,4,2,2,60,0,0
43727,-90.9090909090909,4,2,1,60,0,0
44027,-90.9090909090909,4,2,2,60,0,0
44227,-90.9090909090909,4,2,1,60,0,0
44527,-90.9090909090909,4,2,2,60,0,0
44627,-90.9090909090909,4,2,1,60,0,0
44727,-90.9090909090909,4,2,2,60,0,0
44827,-90.9090909090909,4,2,1,60,0,0
45027,-90.9090909090909,4,2,2,60,0,0
45427,-90.9090909090909,4,2,1,60,0,0
45727,-90.9090909090909,4,2,2,60,0,0
45827,-90.9090909090909,4,2,1,60,0,0
46027,-90.9090909090909,4,2,2,60,0,0
46127,-90.9090909090909,4,2,1,60,0,0
46427,-90.9090909090909,4,2,2,60,0,0
46527,-90.9090909090909,4,2,1,60,0,0
46627,-90.9090909090909,4,2,2,60,0,0
46727,-90.9090909090909,4,2,1,60,0,0
47027,-90.9090909090909,4,2,2,60,0,0
47127,-90.9090909090909,4,2,1,60,0,0
47627,-90.9090909090909,4,2,2,60,0,0
48027,-90.9090909090909,4,2,1,60,0,0
48227,-90.9090909090909,4,2,2,60,0,0
48327,-90.9090909090909,4,2,1,60,0,0
48427,-90.9090909090909,4,2,2,60,0,0
48527,-90.9090909090909,4,2,1,60,0,0
49027,-90.9090909090909,4,2,2,60,0,0
49227,-90.9090909090909,4,2,1,60,0,0
49327,-90.9090909090909,4,2,2,60,0,0
49427,-90.9090909090909,4,2,1,60,0,0
49527,-90.9090909090909,4,2,2,60,0,0
49727,-90.9090909090909,4,2,1,60,0,0
49827,-90.9090909090909,4,2,2,60,0,0
49927,-90.9090909090909,4,2,1,60,0,0
50427,-90.9090909090909,4,2,2,60,0,0
50627,-90.9090909090909,4,2,88,80,0,0
51427,-400,4,2,0,40,0,0
69827,-200,4,1,0,70,0,0
70627,-111.111111111111,4,2,88,50,0,0
77027,-111.111111111111,4,2,88,60,0,0
77227,-111.111111111111,4,3,1,25,0,0
77827,-111.111111111111,4,3,1,30,0,0
78627,-111.111111111111,4,2,88,60,0,0
78827,-111.111111111111,4,3,1,35,0,0
79427,-111.111111111111,4,3,1,40,0,0
80227,-111.111111111111,4,2,88,70,0,0
80627,-111.111111111111,4,3,1,45,0,0
81027,-111.111111111111,4,2,88,70,0,0
81427,-111.111111111111,4,3,1,50,0,0
81827,-111.111111111111,4,2,1,60,0,0
82627,-400,4,2,1,60,0,0
82802,-400,4,2,1,10,0,0
83427,-83.3333333333333,4,2,2,60,0,1
84627,-83.3333333333333,4,2,1,60,0,1
85027,-83.3333333333333,4,2,2,60,0,1
85827,-83.3333333333333,4,2,1,60,0,1
86627,-83.3333333333333,4,2,2,60,0,1
88227,-83.3333333333333,4,2,1,60,0,1
89427,-83.3333333333333,4,2,1,80,0,1
89827,-83.3333333333333,4,2,2,60,0,1
91027,-83.3333333333333,4,2,1,60,0,1
91427,-83.3333333333333,4,2,2,60,0,1
92227,-83.3333333333333,4,2,1,60,0,1
93027,-83.3333333333333,4,2,2,60,0,1
94627,-83.3333333333333,4,2,1,60,0,1
95427,-133.333333333333,4,1,0,70,0,0
95827,-133.333333333333,4,2,1,60,0,0
96227,-83.3333333333333,4,2,2,60,0,1
99427,-90.9090909090909,4,2,88,70,0,0
101827,-90.9090909090909,4,2,2,60,0,0
101927,-90.9090909090909,4,2,1,60,0,0
102627,-83.3333333333333,4,2,2,60,0,1
105827,-90.9090909090909,4,2,88,80,0,0
108227,-90.9090909090909,4,2,2,60,0,0
109027,-100,4,2,99,50,0,0
121827,-100,4,2,0,50,0,0

[Colours]
Combo1 : 101,97,126
Combo2 : 55,95,123

[HitObjects]
383,341,12227,6,0,L|363:343,63,16.875,4|0|0|0|0|0|0|0|0|0|0|0|0|0|0|0|0|0|0|0|0|0|0|0|0|0|0|0|0|0|0|0|0|0|0|0|0|0|0|0|0|0|0|0|0|0|0|0|0|0|0|0|0|0|0|0|0|0|0|0|0|0|0|0,0:0|0:0|0:0|0:0|0:0|0:0|0:0|0:0|0:0|0:0|0:0|0:0|0:0|0:0|0:0|0:0|0:0|0:0|0:0|0:0|0:0|0:0|0:0|0:0|0:0|0:0|0:0|0:0|0:0|0:0|0:0|0:0|0:0|0:0|0:0|0:0|0:0|0:0|0:0|0:0|0:0|0:0|0:0|0:0|0:0|0:0|0:0|0:0|0:0|0:0|0:0|0:0|0:0|0:0|0:0|0:0|0:0|0:0|0:0|0:0|0:0|0:0|0:0|0:0,0:0:0:0:
353,257,13027,6,0,L|213:270,1,135,6|0,0:0|0:0,0:0:0:0:
418,142,13227,2,0,L|496:252,1,135,0|0,0:0|0:0,0:0:0:0:
285,143,13427,2,0,L|341:20,1,135,0|0,0:0|0:0,0:0:0:0:
207,306,13627,1,2,0:0:0:0:
207,306,13727,1,2,0:0:0:0:
207,306,13827,6,0,P|165:253|106:221,1,135,2|0,0:0|0:0,0:0:0:0:
353,257,14027,2,0,P|384:197|437:156,1,135,0|0,0:0|0:0,0:0:0:0:
123,39,14227,1,0,0:0:0:0:
152,172,14327,1,2,0:0:0:0:
285,143,14427,1,0,0:0:0:0:
255,10,14527,1,2,0:0:0:0:
17,164,14627,6,0,L|152:172,1,135,2|0,0:0|0:0,0:0:0:0:
353,257,14827,2,0,L|218:249,1,135,0|0,0:0|0:0,0:0:0:0:
7,378,15027,1,2,0:0:0:0:
7,378,15127,1,0,0:0:0:0:
7,378,15227,2,0,P|41:313|51:247,1,135,2|0,0:0|0:0,0:0:0:0:
16,31,15427,6,0,P|6:103|19:169,1,135,2|0,0:0|0:0,0:0:0:0:
142,304,15627,2,0,P|157:238|152:171,1,135,0|0,0:0|0:0,0:0:0:0:
380,122,15827,1,0,0:0:0:0:
353,257,15927,1,2,0:0:0:0:
220,228,16027,1,2,0:0:0:0:
250,95,16127,1,0,0:0:0:0:
454,209,16227,6,0,P|465:275|436:334,1,135,2|0,0:0|0:0,0:0:0:0:
336,23,16427,2,0,P|401:12|460:41,1,135,0|0,0:0|0:0,0:0:0:0:
149,141,16627,2,0,P|138:75|167:16,1,135,0|0,0:0|0:0,0:0:0:0:
267,328,16827,1,2,0:0:0:0:
267,328,16927,1,2,0:0:0:0:
267,328,17027,6,0,B|199:338|199:338|140:309,1,135,2|0,0:0|0:0,0:0:0:0:
361,163,17227,2,0,B|429:153|429:153|488:182,1,135,0|0,0:0|0:0,0:0:0:0:
220,228,17427,1,0,0:0:0:0:
167,16,17527,1,2,0:0:0:0:
224,191,17627,1,0,0:0:0:0:
162,52,17727,1,2,0:0:0:0:
5,324,17827,6,0,L|143:308,1,135,0|0,0:0|0:0,0:0:0:0:
354,212,18027,2,0,L|219:227,1,135,2|0,0:0|0:0,0:0:0:0:
14,192,18227,1,0,0:0:0:0:
139,308,18327,1,2,0:0:0:0:
359,176,18427,2,0,L|224:191,1,135,2|0,0:0|0:0,0:0:0:0:
469,337,18627,5,14,0:0:0:0:
456,336,18677,1,8,0:0:0:0:
444,336,18727,1,12,0:0:0:0:
431,335,18777,1,8,0:0:0:0:
419,335,18827,1,12,0:0:0:0:
406,334,18877,1,8,0:0:0:0:
393,333,18927,1,12,0:0:0:0:
381,333,18977,1,8,0:0:0:0:
368,332,19027,1,12,0:0:0:0:
355,332,19077,1,8,0:0:0:0:
343,331,19127,1,12,0:0:0:0:
330,331,19177,1,8,0:0:0:0:
317,330,19227,1,12,0:0:0:0:
305,330,19277,1,8,0:0:0:0:
292,329,19327,1,12,0:0:0:0:
279,329,19377,1,8,0:0:0:0:
266,328,19427,6,0,P|322:290|355:232,1,135,6|0,0:0|0:0,0:0:0:0:
170,312,19627,2,0,P|188:247|176:182,1,135,0|0,0:0|0:0,0:0:0:0:
85,362,19827,2,0,P|57:300|6:258,1,135,0|0,0:0|0:0,0:0:0:0:
55,43,20027,1,2,0:0:0:0:
176,141,20127,1,2,0:0:0:0:
55,43,20227,6,0,L|76:186,1,135,2|0,0:0|0:0,0:0:0:0:
282,146,20427,2,0,L|301:12,1,135,0|0,0:0|0:0,0:0:0:0:
493,153,20627,1,0,0:0:0:0:
370,213,20727,1,2,0:0:0:0:
405,86,20827,1,0,0:0:0:0:
282,146,20927,1,2,0:0:0:0:
484,362,21027,6,0,P|452:268|370:213,1,202.5,2|0,0:0|0:0,0:0:0:0:
273,193,21227,2,0,L|266:328,1,135,0|0,0:0|0:0,0:0:0:0:
55,228,21427,2,0,P|87:133|169:78,1,202.5,2|0,0:0|0:0,0:0:0:0:
266,58,21627,2,0,L|273:192,1,135,2|0,0:0|0:0,0:0:0:0:
192,360,21827,6,0,L|304:285,1,135,2|0,0:0|0:0,0:0:0:0:
490,273,22027,2,0,L|370:213,1,135,0|0,0:0|0:0,0:0:0:0:
160,338,22227,1,0,0:0:0:0:
225,218,22327,1,2,0:0:0:0:
198,87,22427,1,2,0:0:0:0:
89,4,22527,1,0,0:0:0:0:
234,83,22627,6,0,P|299:65|366:68,1,135,6|0,0:0|0:0,0:0:0:0:
225,218,22827,2,0,P|160:235|93:232,1,135,0|0,0:0|0:0,0:0:0:0:
366,68,23027,2,0,P|430:50|497:53,1,135,0|0,0:0|0:0,0:0:0:0:
357,204,23227,1,2,0:0:0:0:
357,204,23327,1,2,0:0:0:0:
357,204,23427,6,0,P|292:221|225:218,1,135,2|0,0:0|0:0,0:0:0:0:
475,141,23627,2,0,P|493:205|490:273,1,135,0|0,0:0|0:0,0:0:0:0:
366,68,23827,1,0,0:0:0:0:
357,204,23927,1,2,0:0:0:0:
281,317,24027,1,0,0:0:0:0:
158,376,24127,1,2,0:0:0:0:
37,190,24227,6,0,L|238:174,1,202.5,4|0,0:0|0:0,0:0:0:0:
357,204,24427,2,0,L|498:193,1,135,2|0,0:0|0:0,0:0:0:0:
221,121,24627,2,0,L|20:137,1,202.5,0|0,0:0|0:0,0:0:0:0:
13,293,24827,2,0,L|154:282,1,135,2|0,0:0|0:0,0:0:0:0:
356,324,25027,6,0,L|354:344,10,16.875,6|0|0|0|0|0|0|0|0|0|0,0:0|0:0|0:0|0:0|0:0|0:0|0:0|0:0|0:0|0:0|0:0,0:0:0:0:
440,257,25177,2,0,L|442:277,20,16.875,0|0|0|0|0|0|0|0|0|0|0|0|0|0|0|0|0|0|0|0|0,0:0|0:0|0:0|0:0|0:0|0:0|0:0|0:0|0:0|0:0|0:0|0:0|0:0|0:0|0:0|0:0|0:0|0:0|0:0|0:0|0:0,0:0:0:0:
445,363,25627,5,4,0:1:0:0:
508,58,25827,5,6,0:0:0:0:
480,78,25877,1,0,0:0:0:0:
449,92,25927,1,4,0:0:0:0:
417,101,25977,1,0,0:0:0:0:
383,104,26027,1,4,0:0:0:0:
350,101,26077,1,0,0:0:0:0:
317,93,26127,1,4,0:0:0:0:
286,78,26177,1,0,0:0:0:0:
259,59,26227,1,4,0:0:0:0:
287,39,26277,1,0,0:0:0:0:
318,25,26327,1,4,0:0:0:0:
350,16,26377,1,0,0:0:0:0:
384,13,26427,1,6,0:0:0:0:
417,16,26477,1,0,0:0:0:0:
450,24,26527,1,6,0:0:0:0:
481,39,26577,1,0,0:0:0:0:
508,58,26627,6,0,L|504:96,7,37.1250011329651,14|0|8|0|12|0|8|0,0:0|0:0|0:0|0:0|0:0|0:0|0:0|0:0,0:0:0:0:
417,101,26827,2,0,L|412:138,7,37.1250011329651,12|0|8|0|12|0|8|0,0:0|0:0|0:0|0:0|0:0|0:0|0:0|0:0,0:0:0:0:
325,143,27027,6,0,L|320:180,1,37.1250011329651,12|0,0:0|0:0,0:0:0:0:
282,142,27077,2,0,L|290:178,1,37.1250011329651,8|0,0:0|0:0,0:0:0:0:
241,155,27127,2,0,L|261:185,1,37.1250011329651,14|0,0:0|0:0,0:0:0:0:
207,181,27177,2,0,L|237:202,1,37.1250011329651,8|0,0:0|0:0,0:0:0:0:
184,218,27227,2,0,L|219:228,1,37.1250011329651,12|0,0:0|0:0,0:0:0:0:
175,259,27277,2,0,L|212:256,1,37.1250011329651,8|0,0:0|0:0,0:0:0:0:
181,302,27327,2,0,L|215:286,1,37.1250011329651,14|0,0:0|0:0,0:0:0:0:
201,340,27377,2,0,L|227:314,1,37.1250011329651,8|0,0:0|0:0,0:0:0:0:
318,276,27427,5,6,0:0:0:0:
318,276,27477,1,0,0:0:0:0:
318,276,27527,2,0,L|391:279,1,74.2500022659302,4|0,0:0|0:0,0:0:0:0:
208,138,27627,1,4,0:0:0:0:
208,138,27677,1,0,0:0:0:0:
208,138,27727,2,0,L|282:142,1,74.2500022659302,4|0,0:0|0:0,0:0:0:0:
101,255,27827,6,0,L|175:259,1,74.2500022659302,6|0,0:0|0:0,0:0:0:0:
234,90,27927,2,0,L|308:93,1,74.2500022659302,4|0,0:0|0:0,0:0:0:0:
107,298,28027,2,0,L|181:302,1,74.2500022659302,6|0,0:0|0:0,0:0:0:0:
3,122,28127,2,0,L|77:125,1,74.2500022659302,4|0,0:0|0:0,0:0:0:0:
276,46,28227,6,0,L|280:3,1,37.1250011329651,14|0,0:0|0:0,0:0:0:0:
309,93,28277,2,0,L|320:51,1,37.1250011329651,8|0,0:0|0:0,0:0:0:0:
333,145,28327,2,0,L|351:105,1,37.1250011329651,12|0,0:0|0:0,0:0:0:0:
348,200,28377,2,0,L|372:164,1,37.1250011329651,8|0,0:0|0:0,0:0:0:0:
353,257,28427,2,0,L|383:226,1,37.1250011329651,12|0,0:0|0:0,0:0:0:0:
352,257,28477,2,0,L|382:226,1,37.1250011329651,8|0,0:0|0:0,0:0:0:0:
348,313,28527,2,0,L|383:288,1,37.1250011329651,12|0,0:0|0:0,0:0:0:0:
333,369,28577,2,0,L|372:350,1,37.1250011329651,8|0,0:0|0:0,0:0:0:0:
473,301,28627,6,0,L|464:266,3,37.1250011329651,12|0|8|0,0:0|0:0|0:0|0:0,0:0:0:0:
498,177,28727,2,0,L|488:141,3,37.1250011329651,14|0|8|0,0:0|0:0|0:0|0:0,0:0:0:0:
397,172,28827,2,0,L|388:137,3,37.1250011329651,14|0|8|0,0:0|0:0|0:0|0:0,0:0:0:0:
422,48,28927,2,0,L|412:13,3,37.1250011329651,12|0|8|0,0:0|0:0|0:0|0:0,0:0:0:0:
309,93,29027,6,0,P|236:77|163:87,1,148.50000453186,6|4,0:0|0:0,0:0:0:0:
101,255,29227,1,4,0:0:0:0:
47,83,29327,1,4,0:0:0:0:
107,298,29427,1,6,0:0:0:0:
163,86,29527,1,4,0:0:0:0:
193,336,29627,1,6,0:0:0:0:
186,144,29727,1,6,0:0:0:0:
291,333,29827,6,0,P|364:338|436:320,1,148.50000453186,6|4,0:0|0:0,0:0:0:0:
193,336,30027,2,0,P|119:330|47:348,1,148.50000453186,4|4,0:0|0:0,0:0:0:0:
238,241,30227,5,14,0:0:0:0:
261,201,30277,1,8,0:0:0:0:
302,181,30327,1,12,0:0:0:0:
347,188,30377,1,8,0:0:0:0:
381,219,30427,1,14,0:0:0:0:
391,264,30477,1,8,0:0:0:0:
374,306,30527,1,12,0:0:0:0:
336,332,30577,1,8,0:0:0:0:
291,333,30627,5,6,0:0:0:0:
427,136,30727,1,4,0:0:0:0:
238,241,30827,1,4,0:0:0:0:
480,231,30927,1,4,0:0:0:0:
186,144,31027,1,6,0:0:0:0:
383,280,31127,1,4,0:0:0:0:
281,91,31227,1,4,0:0:0:0:
291,333,31327,1,6,0:0:0:0:
376,38,31427,6,0,L|451:29,1,74.2500022659302,14|0,0:0|0:0,0:0:0:0:
91,197,31627,2,0,L|16:188,1,74.2500022659302,12|0,0:0|0:0,0:0:0:0:
439,377,31827,2,0,L|514:368,1,74.2500022659302,14|0,0:0|0:0,0:0:0:0:
281,92,32027,6,0,L|298:125,1,37.1250011329651,8|0,0:0|0:0,0:0:0:0:
244,86,32077,2,0,L|261:119,1,37.1250011329651,8|0,0:0|0:0,0:0:0:0:
207,82,32127,2,0,L|224:115,1,37.1250011329651,8|0,0:0|0:0,0:0:0:0:
170,78,32177,2,0,L|187:111,1,37.1250011329651,8|0,0:0|0:0,0:0:0:0:
133,72,32227,5,6,0:0:0:0:
165,55,32277,1,0,0:0:0:0:
201,47,32327,1,4,0:0:0:0:
238,50,32377,1,0,0:0:0:0:
273,63,32427,1,4,0:0:0:0:
303,85,32477,1,0,0:0:0:0:
325,114,32527,1,4,0:0:0:0:
338,149,32577,1,0,0:0:0:0:
341,186,32627,1,4,0:0:0:0:
333,222,32677,1,0,0:0:0:0:
316,254,32727,1,4,0:0:0:0:
290,281,32777,1,0,0:0:0:0:
258,299,32827,1,6,0:0:0:0:
222,308,32877,1,0,0:0:0:0:
185,306,32927,1,6,0:0:0:0:
150,294,32977,1,0,0:0:0:0:
120,272,33027,6,0,L|101:233,7,37.1250011329651,14|0|8|0|12|0|8|0,0:0|0:0|0:0|0:0|0:0|0:0|0:0|0:0,0:0:0:0:
218,213,33227,2,0,L|228:170,7,37.1250011329651,12|0|8|0|12|0|8|0,0:0|0:0|0:0|0:0|0:0|0:0|0:0|0:0,0:0:0:0:
333,222,33427,2,0,L|368:195,7,37.1250011329651,12|0|8|0|14|0|8|0,0:0|0:0|0:0|0:0|0:0|0:0|0:0|0:0,0:0:0:0:
430,292,33627,2,0,L|474:294,7,37.1250011329651,12|0|8|0|14|0|8|0,0:0|0:0|0:0|0:0|0:0|0:0|0:0|0:0,0:0:0:0:
325,366,33827,5,6,0:0:0:0:
321,328,33877,1,0,0:0:0:0:
318,291,33927,1,4,0:0:0:0:
316,254,33977,1,0,0:0:0:0:
313,217,34027,1,4,0:0:0:0:
309,180,34077,1,0,0:0:0:0:
307,143,34127,1,4,0:0:0:0:
304,106,34177,1,0,0:0:0:0:
302,70,34227,5,6,0:0:0:0:
265,69,34277,1,0,0:0:0:0:
232,85,34327,1,4,0:0:0:0:
210,115,34377,1,0,0:0:0:0:
204,151,34427,1,6,0:0:0:0:
215,186,34477,1,0,0:0:0:0:
241,212,34527,1,4,0:0:0:0:
276,223,34577,1,0,0:0:0:0:
313,217,34627,6,0,L|348:190,7,37.1250011329651,14|0|8|0|12|0|8|0,0:0|0:0|0:0|0:0|0:0|0:0|0:0|0:0,0:0:0:0:
178,272,34827,2,0,L|213:245,7,37.1250011329651,12|0|8|0|12|0|8|0,0:0|0:0|0:0|0:0|0:0|0:0|0:0|0:0,0:0:0:0:
43,327,35027,6,0,L|78:300,1,37.1250011329651,12|0,0:0|0:0,0:0:0:0:
22,287,35077,2,0,L|62:268,1,37.1250011329651,8|0,0:0|0:0,0:0:0:0:
9,246,35127,2,0,L|52:233,1,37.1250011329651,14|0,0:0|0:0,0:0:0:0:
4,202,35177,2,0,L|47:197,1,37.1250011329651,8|0,0:0|0:0,0:0:0:0:
6,158,35227,2,0,L|50:161,1,37.1250011329651,14|0,0:0|0:0,0:0:0:0:
15,115,35277,2,0,L|58:126,1,37.1250011329651,8|0,0:0|0:0,0:0:0:0:
32,75,35327,2,0,L|73:92,1,37.1250011329651,12|0,0:0|0:0,0:0:0:0:
56,38,35377,2,0,L|93:62,1,37.1250011329651,8|0,0:0|0:0,0:0:0:0:
159,112,35427,6,0,P|232:123|304:105,1,148.50000453186,6|4,0:0|0:0,0:0:0:0:
288,246,35577,1,0,0:0:0:0:
288,246,35627,2,0,P|333:188|355:117,1,148.50000453186,4|8,0:0|0:0,0:0:0:0:
468,201,35777,1,0,0:0:0:0:
468,201,35827,2,0,P|440:132|390:78,1,148.50000453186,6|12,0:0|0:0,0:0:0:0:
288,246,35977,1,8,0:0:0:0:
303,292,36027,1,14,0:0:0:0:
329,334,36077,1,8,0:0:0:0:
365,368,36127,1,14,0:0:0:0:
310,146,36227,5,6,0:0:0:0:
219,349,36327,1,12,0:0:0:0:
211,294,36377,1,8,0:0:0:0:
186,244,36427,1,14,0:0:0:0:
146,206,36477,1,8,0:0:0:0:
96,182,36527,1,12,0:0:0:0:
71,366,36627,2,0,L|219:349,1,148.50000453186,6|4,0:0|0:0,0:0:0:0:
435,228,36827,1,14,0:0:0:0:
398,232,36877,1,8,0:0:0:0:
361,236,36927,1,12,0:0:0:0:
324,241,36977,1,8,0:0:0:0:
287,245,37027,5,14,0:0:0:0:
428,118,37127,2,0,L|452:47,2,74.2500022659302,4|0|4,0:0|0:0|0:0,0:0:0:0:
485,321,37327,1,4,0:0:0:0:
485,321,37377,1,0,0:0:0:0:
485,321,37427,1,6,0:0:0:0:
261,148,37527,1,4,0:0:0:0:
435,228,37627,1,4,0:0:0:0:
219,349,37727,1,0,0:0:0:0:
428,118,37827,6,0,B|403:188|403:188|261:148,1,222.750006797791,14|0,0:0|0:0,0:0:0:0:
428,118,38427,6,0,P|360:72|397:145,1,222.750006797791,8|8,0:0|0:0,0:0:0:0:
309,42,38627,5,6,0:0:0:0:
277,39,38677,1,0,0:0:0:0:
245,41,38727,1,4,0:0:0:0:
214,47,38777,1,0,0:0:0:0:
184,57,38827,2,0,L|171:22,1,37.1250011329651,12|0,0:0|0:0,0:0:0:0:
156,72,38877,2,0,L|137:39,1,37.1250011329651,8|0,0:0|0:0,0:0:0:0:
129,90,38927,2,0,L|104:61,1,37.1250011329651,12|0,0:0|0:0,0:0:0:0:
107,113,38977,2,0,L|78:89,1,37.1250011329651,8|0,0:0|0:0,0:0:0:0:
88,139,39027,2,0,L|55:120,1,37.1250011329651,12|0,0:0|0:0,0:0:0:0:
69,163,39077,1,0,0:0:0:0:
57,193,39127,1,4,0:0:0:0:
48,223,39177,1,0,0:0:0:0:
44,254,39227,2,0,P|47:291|62:325,1,74.2500022659302,6|0,0:0|0:0,0:0:0:0:
261,148,39327,2,0,P|224:151|190:166,1,74.2500022659302,6|0,0:0|0:0,0:0:0:0:
258,373,39427,5,6,0:0:0:0:
258,373,39477,1,0,0:0:0:0:
258,373,39527,2,0,L|342:376,1,74.2500022659302,4|0,0:0|0:0,0:0:0:0:
435,311,39627,1,4,0:0:0:0:
435,311,39677,1,0,0:0:0:0:
435,311,39727,2,0,L|438:227,1,74.2500022659302,4|0,0:0|0:0,0:0:0:0:
327,227,39827,1,12,0:0:0:0:
328,264,39877,1,8,0:0:0:0:
329,301,39927,1,14,0:0:0:0:
330,338,39977,1,8,0:0:0:0:
332,375,40027,1,4,0:0:0:0:
191,220,40127,1,6,0:0:0:0:
36,366,40227,5,6,0:0:0:0:
39,329,40277,1,0,0:0:0:0:
41,292,40327,1,4,0:0:0:0:
44,254,40377,1,0,0:0:0:0:
46,217,40427,1,4,0:0:0:0:
48,180,40477,1,0,0:0:0:0:
51,143,40527,1,4,0:0:0:0:
53,106,40577,1,0,0:0:0:0:
55,69,40627,1,6,0:0:0:0:
191,220,40727,1,4,0:0:0:0:
254,27,40827,5,6,0:0:0:0:
278,54,40877,1,0,0:0:0:0:
310,74,40927,1,4,0:0:0:0:
345,84,40977,1,0,0:0:0:0:
382,85,41027,2,0,L|386:48,7,37.1250011329651,14|0|8|0|12|0|8|0,0:0|0:0|0:0|0:0|0:0|0:0|0:0|0:0,0:0:0:0:
456,149,41227,5,12,0:0:0:0:
191,220,41327,1,4,0:0:0:0:
456,203,41427,1,4,0:0:0:0:
228,258,41527,1,6,0:0:0:0:
456,257,41627,1,6,0:0:0:0:
262,296,41727,1,4,0:0:0:0:
382,85,41827,6,0,L|427:70,1,37.1250011329651,6|0,0:0|0:0,0:0:0:0:
345,84,41877,2,0,L|386:61,1,37.1250011329651,0|0,0:0|0:0,0:0:0:0:
308,89,41927,2,0,L|345:59,1,37.1250011329651,4|0,0:0|0:0,0:0:0:0:
272,100,41977,2,0,L|303:64,1,37.1250011329651,0|0,0:0|0:0,0:0:0:0:
239,118,42027,2,0,L|263:77,1,37.1250011329651,4|0,0:0|0:0,0:0:0:0:
210,141,42077,2,0,L|227:96,1,37.1250011329651,0|0,0:0|0:0,0:0:0:0:
184,168,42127,2,0,L|193:121,1,37.1250011329651,4|0,0:0|0:0,0:0:0:0:
164,200,42177,2,0,L|165:152,1,37.1250011329651,0|0,0:0|0:0,0:0:0:0:
150,235,42227,2,0,L|143:188,4,37.1250011329651,12|0|8|0|12,0:0|0:0|0:0|0:0|0:0,0:0:0:0:
169,334,42377,1,0,0:0:0:0:
169,334,42427,1,6,0:0:0:0:
322,199,42527,1,6,0:0:0:0:
71,145,42627,6,0,P|40:211|46:285,1,148.50000453186,6|12,0:0|0:0,0:0:0:0:
41,303,42752,2,0,L|77:296,10,37.1250011329651,0|8|0|12|0|8|0|12|0|8|0,0:0|0:0|0:0|0:0|0:0|0:0|0:0|0:0|0:0|0:0|0:0,0:0:0:0:
169,334,43027,2,0,L|205:327,10,37.1250011329651,14|0|8|0|12|0|8|0|12|0|0,0:0|0:0|0:0|0:0|0:0|0:0|0:0|0:0|0:0|0:0|0:0,0:0:0:0:
297,365,43327,1,4,0:0:0:0:
297,365,43377,1,0,0:0:0:0:
297,364,43427,6,0,P|346:310|410:271,1,148.50000453186,6|4,0:0|0:0,0:0:0:0:
205,327,43627,2,0,P|142:287|93:231,1,148.50000453186,4|0,0:0|0:0,0:0:0:0:
77,190,43777,1,0,0:0:0:0:
71,145,43827,2,0,L|77:108,10,37.1250011329651,14|0|8|0|12|0|8|0|12|0|0,0:0|0:0|0:0|0:0|0:0|0:0|0:0|0:0|0:0|0:0|0:0,0:0:0:0:
20,284,44127,1,4,0:0:0:0:
162,74,44227,6,0,B|161:74|165:74|160:38,1,37.1250011329651,6|0,0:0|0:0,0:0:0:0:
162,74,44277,2,0,B|161:73|164:76|186:47,1,37.1250011329651,0|0,0:0|0:0,0:0:0:0:
162,74,44327,2,0,L|243:67,1,74.2500022659302,4|0,0:0|0:0,0:0:0:0:
167,225,44427,1,4,0:0:0:0:
167,225,44477,1,0,0:0:0:0:
167,225,44527,2,0,L|93:231,1,74.2500022659302,4|0,0:0|0:0,0:0:0:0:
324,111,44627,2,0,L|371:53,2,74.2500022659302,6|0|4,0:0|0:0|0:0,0:0:0:0:
294,326,44827,2,0,L|296:363,7,37.1250011329651,12|0|8|0|12|0|8|0,0:0|0:0|0:0|0:0|0:0|0:0|0:0|0:0,0:0:0:0:
266,229,45027,6,0,P|339:236|389:289,1,148.50000453186,14|4,0:0|0:0,0:0:0:0:
166,373,45227,1,4,0:0:0:0:
166,373,45277,1,0,0:0:0:0:
166,373,45327,2,0,L|166:224,1,148.50000453186,4|0,0:0|0:0,0:0:0:0:
388,288,45527,1,4,0:0:0:0:
220,139,45627,1,6,0:0:0:0:
185,126,45677,1,0,0:0:0:0:
147,126,45727,1,6,0:0:0:0:
294,326,45827,6,0,B|295:329|324:333|367:327,1,74.2500022659302,6|0,0:0|0:0,0:0:0:0:
388,288,45927,2,0,L|391:251,4,37.1250011329651,12|0|8|0|12,0:0|0:0|0:0|0:0|0:0,0:0:0:0:
166,224,46127,1,4,0:0:0:0:
166,224,46177,1,0,0:0:0:0:
166,224,46227,2,0,L|162:260,8,37.1250011329651,12|0|8|0|14|0|8|0|12,0:0|0:0|0:0|0:0|0:0|0:0|0:0|0:0|0:0,0:0:0:0:
325,111,46527,6,0,B|324:111|327:110|327:146,1,37.1250011329651,14|0,0:0|0:0,0:0:0:0:
325,111,46577,2,0,B|324:112|326:108|352:134,1,37.1250011329651,8|0,0:0|0:0,0:0:0:0:
325,111,46628,6,0,P|397:99|468:118,1,148.50000453186,14|4,0:0|0:0,0:0:0:0:
216,176,46827,1,4,0:0:0:0:
220,139,46877,1,0,0:0:0:0:
223,102,46927,1,4,0:0:0:0:
226,65,46977,1,0,0:0:0:0:
230,29,47027,1,6,0:0:0:0:
330,250,47127,2,0,L|366:253,3,37.1250011329651,12|0|8|0,0:0|0:0|0:0|0:0,0:0:0:0:
253,180,47227,5,14,0:0:0:0:
216,176,47277,1,0,0:0:0:0:
179,173,47327,1,4,0:0:0:0:
142,170,47377,1,8,0:0:0:0:
106,165,47427,5,14,0:0:0:0:
82,216,47477,1,8,0:0:0:0:
78,271,47527,1,12,0:0:0:0:
94,324,47577,1,8,0:0:0:0:
128,368,47627,6,0,P|201:368|264:331,1,148.50000453186,6|4,0:0|0:0,0:0:0:0:
325,111,47827,1,4,0:0:0:0:
367,347,47927,1,6,0:0:0:0:
424,195,48027,1,6,0:0:0:0:
424,195,48077,1,0,0:0:0:0:
424,195,48127,1,4,0:0:0:0:
424,195,48177,1,0,0:0:0:0:
424,195,48227,5,6,0:0:0:0:
204,317,48327,1,4,0:0:0:0:
204,317,48377,1,0,0:0:0:0:
203,317,48427,2,0,P|202:243|178:172,1,148.50000453186,4|4,0:0|0:0,0:0:0:0:
101,121,48577,1,0,0:0:0:0:
101,121,48627,2,0,L|65:124,4,37.1250011329651,12|0|8|0|12,0:0|0:0|0:0|0:0|0:0,0:0:0:0:
223,78,48777,1,0,0:0:0:0:
223,78,48827,2,0,L|187:81,7,37.1250011329651,14|0|0|0|14|0|0|0,0:0|0:0|0:0|0:0|0:0|0:0|0:0|0:0,0:0:0:0:
325,110,49027,5,14,0:0:0:0:
295,287,49127,1,4,0:0:0:0:
348,78,49227,2,0,L|352:38,4,37.1250011329651,12|0|8|0|4,0:0|0:0|0:0|0:0|0:0,0:0:0:0:
383,331,49427,2,0,P|419:268|423:194,1,148.50000453186,6|4,0:0|0:0,0:0:0:0:
157,328,49627,2,0,P|231:323|295:287,1,148.50000453186,4|8,0:0|0:0,0:0:0:0:
315,255,49777,1,8,0:0:0:0:
323,219,49827,5,14,0:0:0:0:
101,121,49927,1,4,0:0:0:0:
80,152,49977,1,0,0:0:0:0:
72,188,50027,2,0,L|74:226,7,37.1250011329651,12|0|8|0|12|0|8|0,0:0|0:0|0:0|0:0|0:0|0:0|0:0|0:0,0:0:0:0:
168,229,50227,2,0,L|170:191,7,37.1250011329651,14|0|8|0|12|0|8|0,0:0|0:0|0:0|0:0|0:0|0:0|0:0|0:0,0:0:0:0:
233,121,50427,1,12,0:0:0:0:
146,367,50527,1,4,0:0:0:0:
233,121,50627,5,14,0:0:0:0:
2,357,50827,1,0,0:0:0:0:
422,193,51027,1,2,0:0:0:0:
167,6,51227,1,0,0:0:0:0:
73,225,51427,5,6,0:0:0:0:
73,225,51627,2,0,L|76:299,6,67.5,0|0|0|0|0|0|0,0:0|0:0|0:0|0:0|0:0|0:0|0:0,0:0:0:0:
178,364,53027,1,2,0:0:0:0:
178,364,53227,2,0,L|252:360,6,67.5,0|0|0|0|0|0|0,0:0|0:0|0:0|0:0|0:0|0:0|0:0,0:0:0:0:
317,259,54627,1,2,0:0:0:0:
317,259,54827,2,0,L|313:185,6,67.5,0|0|0|0|0|0|0,0:0|0:0|0:0|0:0|0:0|0:0|0:0,0:0:0:0:
212,120,56227,1,2,0:0:0:0:
212,120,56427,2,0,L|138:124,6,67.5,0|0|0|0|0|0|0,0:0|0:0|0:0|0:0|0:0|0:0|0:0,0:0:0:0:
471,241,57827,5,2,0:0:0:0:
471,241,58027,2,0,L|468:167,6,67.5,0|0|0|0|0|0|0,0:0|0:0|0:0|0:0|0:0|0:0|0:0,0:0:0:0:
366,102,59427,1,2,0:0:0:0:
366,102,59627,2,0,L|292:106,6,67.5,0|0|0|0|0|0|0,0:0|0:0|0:0|0:0|0:0|0:0|0:0,0:0:0:0:
227,207,61027,1,2,0:0:0:0:
227,207,61227,2,0,L|231:281,6,67.5,0|0|0|0|0|0|0,0:0|0:0|0:0|0:0|0:0|0:0|0:0,0:0:0:0:
332,346,62627,1,2,0:0:0:0:
332,346,62827,2,0,L|406:342,6,67.5,0|0|0|0|0|0|0,0:0|0:0|0:0|0:0|0:0|0:0|0:0,0:0:0:0:
414,142,69827,6,0,B|450:166|493:136|474:81|401:50|345:96|330:145|330:145|254:88|171:123,1,405,2|0,0:2|2:0,0:0:0:0:
144,138,70627,6,0,L|150:263,1,121.499996292114,2|0,0:0|0:0,0:0:0:0:
376,296,70827,1,0,0:0:0:0:
376,296,70927,2,0,P|268:244|150:260,1,242.999992584229,2|0,0:0|0:0,0:0:0:0:
10,373,71227,1,0,0:0:0:0:
10,373,71327,2,0,L|15:251,1,121.499996292114,2|0,0:0|0:0,0:0:0:0:
0,41,71527,5,2,0:0:0:0:
116,116,71627,1,0,0:0:0:0:
250,146,71727,1,0,0:0:0:0:
386,128,71827,1,2,0:0:0:0:
509,63,71927,1,2,0:0:0:0:
375,33,72027,1,2,0:0:0:0:
238,51,72127,1,0,0:0:0:0:
116,116,72227,6,0,L|122:241,1,121.499996292114,2|0,0:0|0:0,0:0:0:0:
363,275,72427,1,0,0:0:0:0:
363,275,72527,2,0,L|375:33,1,242.999992584229,2|0,0:0|0:0,0:0:0:0:
245,178,72827,1,0,0:0:0:0:
245,178,72927,2,0,L|239:299,1,121.499996292114,2|0,0:0|0:0,0:0:0:0:
502,265,73127,5,2,0:0:0:0:
363,275,73227,1,0,0:0:0:0:
353,136,73327,1,0,0:0:0:0:
492,126,73427,1,2,0:0:0:0:
479,245,73527,1,0,0:0:0:0:
375,155,73627,1,0,0:0:0:0:
472,148,73727,1,2,0:0:0:0:
356,306,73827,6,0,P|298:291|238:298,1,121.499996292114,2|0,0:0|0:0,0:0:0:0:
76,349,74027,1,0,0:0:0:0:
76,349,74127,6,0,P|146:252|155:132,1,242.999992584229,2|0,0:0|0:0,0:0:0:0:
18,270,74427,1,0,0:0:0:0:
18,270,74527,2,0,P|22:209|10:150,1,121.499996292114,2|0,0:0|0:0,0:0:0:0:
76,349,74727,5,2,0:0:0:0:
112,217,74827,1,0,0:0:0:0:
197,112,74927,1,0,0:0:0:0:
315,49,75027,1,2,0:0:0:0:
453,45,75127,1,0,0:0:0:0:
332,103,75227,1,0,0:0:0:0:
197,112,75327,1,2,0:0:0:0:
69,67,75427,6,0,L|69:188,1,121.499996292114,2|0,0:0|0:0,0:0:0:0:
271,293,75627,1,0,0:0:0:0:
271,293,75727,2,0,P|186:208|69:188,1,242.999992584229,2|0,0:0|0:0,0:0:0:0:
185,376,76027,1,0,0:0:0:0:
185,376,76127,2,0,P|234:341|271:293,1,121.499996292114,2|0,0:0|0:0,0:0:0:0:
451,362,76327,5,2,0:0:0:0:
482,219,76427,1,0,0:0:0:0:
404,341,76527,1,0,0:0:0:0:
380,167,76627,1,2,0:0:0:0:
352,337,76727,1,2,0:0:0:0:
266,153,76827,1,2,0:0:0:0:
301,351,76927,1,0,0:0:0:0:
98,202,77027,6,0,P|175:156|266:153,1,182.249994438172,4|0,0:0|0:0,0:0:0:0:
101,267,77227,5,0,0:0:0:0:
91,267,77277,1,0,0:0:0:0:
82,265,77327,1,0,0:0:0:0:
73,260,77377,1,0,0:0:0:0:
67,254,77427,1,0,0:0:0:0:
62,245,77477,1,0,0:0:0:0:
60,236,77527,1,0,0:0:0:0:
61,226,77577,1,0,0:0:0:0:
65,218,77627,1,0,0:0:0:0:
71,210,77677,1,0,0:0:0:0:
79,205,77727,1,0,0:0:0:0:
88,202,77777,1,0,0:0:0:0:
97,201,77827,5,0,0:0:0:0:
120,222,77877,1,0,0:0:0:0:
139,246,77927,1,0,0:0:0:0:
153,273,77977,1,0,0:0:0:0:
161,302,78027,1,0,0:0:0:0:
190,293,78077,1,0,0:0:0:0:
221,292,78127,1,0,0:0:0:0:
250,297,78177,1,0,0:0:0:0:
279,306,78227,1,0,0:0:0:0:
285,276,78277,1,0,0:0:0:0:
296,248,78327,1,0,0:0:0:0:
313,222,78377,1,0,0:0:0:0:
334,201,78427,1,0,0:0:0:0:
311,180,78477,1,0,0:0:0:0:
295,154,78527,1,0,0:0:0:0:
285,126,78577,1,0,0:0:0:0:
278,97,78627,6,0,L|338:99,1,60.7499981460572,4|0,0:0|0:0,0:0:0:0:
502,34,78727,5,0,0:0:0:0:
502,34,78777,1,0,0:0:0:0:
501,34,78827,1,0,0:0:0:0:
488,49,78877,1,0,0:0:0:0:
477,66,78927,1,0,0:0:0:0:
468,84,78977,1,0,0:0:0:0:
460,102,79027,1,0,0:0:0:0:
455,122,79077,1,0,0:0:0:0:
452,142,79127,1,0,0:0:0:0:
451,162,79177,1,0,0:0:0:0:
452,182,79227,1,0,0:0:0:0:
455,202,79277,1,0,0:0:0:0:
461,222,79327,1,0,0:0:0:0:
468,240,79377,1,0,0:0:0:0:
490,265,79427,5,0,0:0:0:0:
468,240,79477,1,0,0:0:0:0:
446,219,79527,1,0,0:0:0:0:
423,201,79577,1,0,0:0:0:0:
398,183,79627,1,0,0:0:0:0:
371,167,79677,1,0,0:0:0:0:
344,156,79727,1,0,0:0:0:0:
315,145,79777,1,0,0:0:0:0:
286,138,79827,1,0,0:0:0:0:
256,132,79877,1,0,0:0:0:0:
225,129,79927,1,0,0:0:0:0:
194,129,79977,1,0,0:0:0:0:
164,132,80027,1,0,0:0:0:0:
136,137,80077,1,0,0:0:0:0:
105,145,80127,1,0,0:0:0:0:
76,155,80177,1,0,0:0:0:0:
50,167,80227,6,0,B|16:218|16:218|24:338,1,182.249994438172,4|0,0:0|0:0,0:0:0:0:
168,300,80427,2,0,B|202:249|202:249|193:128,1,182.249994438172,4|0,0:0|0:0,0:0:0:0:
147,328,80627,5,0,0:0:0:0:
158,291,80677,1,0,0:0:0:0:
175,257,80727,1,0,0:0:0:0:
198,228,80777,1,0,0:0:0:0:
227,203,80827,1,0,0:0:0:0:
259,183,80877,1,0,0:0:0:0:
295,171,80927,1,0,0:0:0:0:
333,165,80977,1,0,0:0:0:0:
371,167,81027,6,0,B|346:223|346:223|376:340,1,182.249994438172,4|0,0:0|0:0,0:0:0:0:
468,240,81227,2,0,B|492:183|492:183|463:67,1,182.249994438172,4|0,0:0|0:0,0:0:0:0:
359,11,81427,5,0,0:0:0:0:
330,37,81477,1,0,0:0:0:0:
299,58,81527,1,0,0:0:0:0:
264,72,81577,1,0,0:0:0:0:
227,79,81627,1,0,0:0:0:0:
189,80,81677,1,0,0:0:0:0:
152,72,81727,1,0,0:0:0:0:
116,59,81777,1,0,0:0:0:0:
73,34,81827,5,12,0:0:0:0:
120,43,81877,1,8,0:0:0:0:
169,53,81927,1,12,0:0:0:0:
216,62,81977,1,8,0:0:0:0:
264,72,82027,1,12,0:0:0:0:
272,119,82077,1,8,0:0:0:0:
280,168,82127,1,12,0:0:0:0:
289,215,82177,1,8,0:0:0:0:
296,263,82227,1,12,0:0:0:0:
254,287,82277,1,8,0:0:0:0:
212,312,82327,1,12,0:0:0:0:
171,337,82377,1,8,0:0:0:0:
128,361,82427,1,12,0:0:0:0:
90,330,82477,1,8,0:0:0:0:
52,300,82527,1,12,0:0:0:0:
14,270,82577,1,8,0:0:0:0:
1,178,82627,6,0,P|30:177|58:186,1,59.0625,2|0,0:0|0:0,0:0:0:0:
58,186,83427,6,0,P|78:107|70:27,1,161.999995056153,6|4,0:0|0:0,0:0:0:0:
282,122,83627,1,4,0:0:0:0:
65,347,83727,2,0,L|58:186,1,161.999995056153,6|4,0:0|0:0,0:0:0:0:
202,2,83927,1,4,0:0:0:0:
194,235,84027,1,4,0:0:0:0:
70,27,84127,1,6,0:0:0:0:
289,215,84227,5,4,0:0:0:0:
58,186,84327,1,6,0:0:0:0:
320,108,84427,1,4,0:0:0:0:
64,298,84527,1,4,0:0:0:0:
289,215,84627,5,6,0:0:0:0:
326,224,84677,1,0,0:0:0:0:
362,243,84727,1,6,0:0:0:0:
393,269,84777,1,0,0:0:0:0:
415,305,84827,1,6,0:0:0:0:
379,321,84877,1,0,0:0:0:0:
340,328,84927,1,4,0:0:0:0:
300,328,84977,1,0,0:0:0:0:
260,315,85027,6,0,P|186:286|106:293,1,161.999995056153,6|4,0:0|0:0,0:0:0:0:
326,224,85227,1,4,0:0:0:0:
173,143,85327,2,0,P|107:97|69:26,1,161.999995056153,6|4,0:0|0:0,0:0:0:0:
293,84,85527,1,4,0:0:0:0:
260,315,85627,1,4,0:0:0:0:
472,225,85727,1,6,0:0:0:0:
293,51,85827,5,4,0:0:0:0:
255,36,85877,1,0,0:0:0:0:
215,42,85927,1,6,0:0:0:0:
184,66,85977,1,0,0:0:0:0:
168,103,86027,1,4,0:0:0:0:
173,143,86077,1,0,0:0:0:0:
196,175,86127,1,4,0:0:0:0:
233,192,86177,1,0,0:0:0:0:
283,174,86227,2,0,L|279:214,15,40.4999987640381,14|0|8|0|12|0|8|0|12|0|8|0|14|0|8|0,0:0|0:0|0:0|0:0|0:0|0:0|0:0|0:0|0:0|0:0|0:0|0:0|0:0|0:0|0:0|0:0,0:0:0:0:
293,83,86627,6,0,P|371:67|450:81,1,161.999995056153,6|4,0:0|0:0,0:0:0:0:
233,192,86827,1,4,0:0:0:0:
10,105,86927,2,0,P|89:87|168:103,1,161.999995056153,6|4,0:0|0:0,0:0:0:0:
354,255,87127,1,4,0:0:0:0:
255,36,87227,1,4,0:0:0:0:
88,202,87327,2,0,L|96:364,1,161.999995056153,6|4,0:0|0:0,0:0:0:0:
168,103,87527,5,6,0:0:0:0:
253,329,87627,1,4,0:0:0:0:
479,243,87727,1,4,0:0:0:0:
393,17,87827,1,6,0:0:0:0:
240,204,87927,1,4,0:0:0:0:
479,243,88027,1,4,0:0:0:0:
393,17,88127,1,6,0:0:0:0:
354,255,88227,5,6,0:0:0:0:
363,215,88277,1,0,0:0:0:0:
360,175,88327,1,4,0:0:0:0:
344,138,88377,1,0,0:0:0:0:
317,108,88427,1,4,0:0:0:0:
282,89,88477,1,0,0:0:0:0:
242,81,88527,1,6,0:0:0:0:
202,87,88577,1,0,0:0:0:0:
168,103,88627,1,4,0:0:0:0:
138,134,88677,1,0,0:0:0:0:
121,170,88727,1,4,0:0:0:0:
116,210,88777,1,0,0:0:0:0:
124,250,88827,1,4,0:0:0:0:
144,284,88877,1,0,0:0:0:0:
175,311,88927,1,6,0:0:0:0:
212,326,88977,1,0,0:0:0:0:
253,329,89027,6,0,L|292:321,7,40.4999987640381,12|0|8|0|14|0|8|0,0:0|0:0|0:0|0:0|0:0|0:0|0:0|0:0,0:0:0:0:
354,255,89227,2,0,L|393:247,7,40.4999987640381,12|0|8|0|12|0|8|0,0:0|0:0|0:0|0:0|0:0|0:0|0:0|0:0,0:0:0:0:
455,181,89427,5,10,0:0:0:0:
380,342,89527,1,2,0:0:0:0:
429,94,89627,1,2,0:0:0:0:
380,342,89727,1,0,0:0:0:0:
267,84,89827,6,0,L|429:94,1,161.999995056153,6|4,0:0|0:0,0:0:0:0:
240,204,90027,1,4,0:0:0:0:
171,7,90127,2,0,L|9:16,1,161.999995056153,6|4,0:0|0:0,0:0:0:0:
267,84,90327,1,4,0:0:0:0:
144,284,90427,1,4,0:0:0:0:
32,77,90527,1,6,0:0:0:0:
240,204,90627,5,4,0:0:0:0:
0,185,90727,1,6,0:0:0:0:
240,204,90827,1,4,0:0:0:0:
29,294,90927,1,4,0:0:0:0:
171,7,91027,5,6,0:0:0:0:
156,44,91077,1,0,0:0:0:0:
144,83,91127,1,6,0:0:0:0:
136,123,91177,1,0,0:0:0:0:
132,163,91227,1,6,0:0:0:0:
132,203,91277,1,0,0:0:0:0:
136,244,91327,1,4,0:0:0:0:
144,284,91377,1,0,0:0:0:0:
154,321,91427,6,0,P|74:316|0:343,1,161.999995056153,6|4,0:0|0:0,0:0:0:0:
132,163,91627,1,4,0:0:0:0:
299,337,91727,2,0,P|379:342|454:315,1,161.999995056153,6|4,0:0|0:0,0:0:0:0:
340,97,91927,1,4,0:0:0:0:
299,337,92027,1,4,0:0:0:0:
344,134,92127,1,6,0:0:0:0:
456,354,92227,5,4,0:0:0:0:
455,334,92277,1,0,0:0:0:0:
454,314,92327,1,6,0:0:0:0:
454,294,92377,1,0,0:0:0:0:
453,274,92427,1,4,0:0:0:0:
452,253,92477,1,0,0:0:0:0:
451,233,92527,1,4,0:0:0:0:
451,213,92577,1,0,0:0:0:0:
451,193,92627,6,0,L|493:185,7,40.4999987640381,14|0|8|0|12|0|8|0,0:0|0:0|0:0|0:0|0:0|0:0|0:0|0:0,0:0:0:0:
343,173,92827,2,0,L|304:181,7,40.4999987640381,12|0|8|0|14|0|8|0,0:0|0:0|0:0|0:0|0:0|0:0|0:0|0:0,0:0:0:0:
241,255,93027,6,0,P|191:191|122:150,1,161.999995056153,6|4,0:0|0:0,0:0:0:0:
161,374,93227,1,4,0:0:0:0:
304,181,93327,2,0,P|286:102|240:36,1,161.999995056153,6|4,0:0|0:0,0:0:0:0:
348,314,93527,1,4,0:0:0:0:
384,87,93627,1,4,0:0:0:0:
242,255,93727,2,0,L|80:245,1,161.999995056153,6|4,0:0|0:0,0:0:0:0:
348,314,93927,5,6,0:0:0:0:
157,51,94027,1,4,0:0:0:0:
384,87,94127,1,4,0:0:0:0:
115,275,94227,1,6,0:0:0:0:
266,203,94327,1,4,0:0:0:0:
6,125,94427,1,4,0:0:0:0:
157,51,94527,1,6,0:0:0:0:
115,275,94627,5,6,0:0:0:0:
115,275,94677,1,0,0:0:0:0:
115,275,94727,2,0,L|122:358,1,80.9999975280763,4|0,0:0|0:0,0:0:0:0:
384,87,94827,5,4,0:0:0:0:
384,87,94877,1,0,0:0:0:0:
384,87,94927,2,0,L|377:170,1,80.9999975280763,6|0,0:0|0:0,0:0:0:0:
60,251,95027,2,0,L|67:334,1,80.9999975280763,4|0,0:0|0:0,0:0:0:0:
445,60,95127,2,0,L|438:143,1,80.9999975280763,4|0,0:0|0:0,0:0:0:0:
5,227,95227,2,0,L|12:310,1,80.9999975280763,4|0,0:0|0:0,0:0:0:0:
505,33,95327,2,0,L|498:116,1,80.9999975280763,6|0,0:0|0:0,0:0:0:0:
498,340,95427,6,0,B|483:283|503:240|503:240|441:307|344:313|283:258|283:258|265:234|267:202,1,405.000015449524,2|0,0:2|0:0,0:0:0:0:
324,102,95927,1,0,0:0:0:0:
396,219,96027,1,8,0:0:0:0:
395,249,96077,1,8,0:0:0:0:
394,279,96127,1,8,0:0:0:0:
393,310,96177,1,8,0:0:0:0:
392,340,96227,6,0,L|230:348,1,161.999995056153,6|4,0:0|0:0,0:0:0:0:
63,291,96427,2,0,L|61:251,8,40.4999987640381,12|0|8|0|12|0|8|0|14,0:0|0:0|0:0|0:0|0:0|0:0|0:0|0:0|0:0,0:0:0:0:
202,371,96727,1,4,0:0:0:0:
267,204,96827,2,0,P|195:170|115:175,1,161.999995056153,4|4,0:0|0:0,0:0:0:0:
288,318,97027,5,14,0:0:0:0:
288,318,97077,1,0,0:0:0:0:
288,318,97127,1,4,0:0:0:0:
324,102,97227,1,4,0:0:0:0:
186,271,97327,1,4,0:0:0:0:
108,66,97427,1,6,0:0:0:0:
288,318,97527,1,4,0:0:0:0:
324,102,97627,1,12,0:0:0:0:
72,282,97727,1,4,0:0:0:0:
267,204,97827,6,0,P|345:217|413:178,1,161.999995056153,6|4,0:0|0:0,0:0:0:0:
162,105,98027,2,0,L|324:102,1,161.999995056153,4|4,0:0|0:0,0:0:0:0:
186,270,98227,1,14,0:0:0:0:
184,297,98277,1,0,0:0:0:0:
177,323,98327,1,12,0:0:0:0:
165,347,98377,1,0,0:0:0:0:
146,367,98427,2,0,L|307:363,1,161.999995056153,12|4,0:0|0:0,0:0:0:0:
113,187,98627,5,14,0:0:0:0:
94,205,98677,1,8,0:0:0:0:
80,228,98727,1,12,0:0:0:0:
72,253,98777,1,8,0:0:0:0:
72,282,98827,1,12,0:0:0:0:
267,209,98927,1,4,0:0:0:0:
107,77,99027,1,6,0:0:0:0:
186,270,99127,1,4,0:0:0:0:
324,102,99227,1,4,0:0:0:0:
280,310,99327,1,4,0:0:0:0:
410,24,99427,5,12,0:0:0:0:
411,51,99827,1,12,0:0:0:0:
412,78,100227,1,8,0:0:0:0:
413,105,100327,1,8,0:0:0:0:
414,132,100427,1,8,0:0:0:0:
415,159,100627,1,12,0:0:0:0:
28,233,100927,5,8,0:0:0:0:
27,260,101027,1,12,0:0:0:0:
26,287,101227,1,8,0:0:0:0:
25,314,101427,1,12,0:0:0:0:
24,341,101627,1,8,0:0:0:0:
23,368,101827,6,0,L|60:370,1,37.1250011329651,14|0,0:0|0:0,0:0:0:0:
24,341,101877,2,0,L|61:343,1,37.1250011329651,8|0,0:0|0:0,0:0:0:0:
25,314,101927,2,0,L|62:316,1,37.1250011329651,12|0,0:0|0:0,0:0:0:0:
26,287,101977,2,0,L|63:289,1,37.1250011329651,8|0,0:0|0:0,0:0:0:0:
27,260,102027,2,0,L|64:262,1,37.1250011329651,12|0,0:0|0:0,0:0:0:0:
28,233,102077,2,0,L|65:235,1,37.1250011329651,8|0,0:0|0:0,0:0:0:0:
29,206,102127,2,0,L|66:208,1,37.1250011329651,12|0,0:0|0:0,0:0:0:0:
30,179,102177,2,0,L|67:181,1,37.1250011329651,8|0,0:0|0:0,0:0:0:0:
31,152,102227,2,0,L|68:154,1,37.1250011329651,14|0,0:0|0:0,0:0:0:0:
32,125,102277,2,0,L|69:127,1,37.1250011329651,8|0,0:0|0:0,0:0:0:0:
33,98,102327,2,0,L|70:100,1,37.1250011329651,12|0,0:0|0:0,0:0:0:0:
34,71,102377,2,0,L|71:73,1,37.1250011329651,8|0,0:0|0:0,0:0:0:0:
35,44,102427,6,0,L|72:46,7,37.1250011329651,12|0|8|0|12|0|8|0,0:0|0:0|0:0|0:0|0:0|0:0|0:0|0:0,0:0:0:0:
165,72,102627,6,0,P|234:32|314:26,1,161.999995056153,6|4,0:0|0:0,0:0:0:0:
176,181,102827,1,12,0:0:0:0:
176,181,102877,1,8,0:0:0:0:
176,181,102927,1,12,0:0:0:0:
176,181,102977,1,8,0:0:0:0:
176,181,103027,1,14,0:0:0:0:
34,43,103127,1,4,0:0:0:0:
176,219,103227,1,4,0:0:0:0:
191,25,103327,1,4,0:0:0:0:
66,208,103427,5,14,0:0:0:0:
65,235,103477,1,0,0:0:0:0:
64,262,103527,1,4,0:0:0:0:
336,162,103627,2,0,L|172:181,1,161.999995056153,4|4,0:0|0:0,0:0:0:0:
410,94,103827,1,6,0:0:0:0:
316,260,103927,1,4,0:0:0:0:
358,9,104027,1,12,0:0:0:0:
415,239,104127,1,4,0:0:0:0:
485,26,104227,6,0,P|508:102|499:182,1,161.999995056153,6|4,0:0|0:0,0:0:0:0:
190,337,104427,2,0,P|166:260|175:180,1,161.999995056153,4|4,0:0|0:0,0:0:0:0:
415,239,104627,1,14,0:0:0:0:
415,279,104677,1,0,0:0:0:0:
400,316,104727,1,12,0:0:0:0:
371,344,104777,1,0,0:0:0:0:
334,358,104827,1,12,0:0:0:0:
285,83,104927,1,4,0:0:0:0:
298,110,104977,1,0,0:0:0:0:
308,139,105027,5,14,0:0:0:0:
315,169,105077,1,8,0:0:0:0:
318,199,105127,1,12,0:0:0:0:
318,229,105177,1,8,0:0:0:0:
316,259,105227,5,12,0:0:0:0:
52,215,105327,1,4,0:0:0:0:
285,83,105427,1,6,0:0:0:0:
190,337,105527,1,4,0:0:0:0:
120,64,105627,1,4,0:0:0:0:
191,310,105727,1,4,0:0:0:0:
380,54,105827,5,12,0:0:0:0:
406,51,106227,1,12,0:0:0:0:
433,49,106627,1,12,0:0:0:0:
460,46,106827,1,8,0:0:0:0:
487,44,107027,1,12,0:0:0:0:
295,363,107427,5,12,0:0:0:0:
321,366,107627,1,8,0:0:0:0:
348,368,107827,1,12,0:0:0:0:
375,371,108027,1,8,0:0:0:0:
401,373,108227,5,10,0:0:0:0:
392,371,108252,5,0,0:0:0:0:
384,368,108277,5,8,0:0:0:0:
377,361,108302,5,0,0:0:0:0:
373,353,108327,5,8,0:0:0:0:
371,344,108352,5,0,0:0:0:0:
372,335,108377,5,8,0:0:0:0:
376,327,108402,5,0,0:0:0:0:
382,320,108427,5,8,0:0:0:0:
391,316,108452,5,0,0:0:0:0:
400,315,108477,5,8,0:0:0:0:
409,316,108502,5,0,0:0:0:0:
417,320,108527,5,8,0:0:0:0:
423,327,108552,5,0,0:0:0:0:
427,335,108577,5,8,0:0:0:0:
429,344,108602,5,0,0:0:0:0:
130,170,109027,6,0,B|68:195|68:195|0:191,1,135,6|0,1:2|0:0,0:0:0:0:
196,257,109227,2,0,B|248:298|248:298|279:359,1,135,0|0,0:0|0:0,0:0:0:0:
238,156,109427,2,0,B|247:89|247:89|284:32,1,135,0|0,0:0|0:0,0:0:0:0:
449,218,109627,1,2,0:0:0:0:
449,218,109727,1,2,0:0:0:0:
449,218,109827,6,0,L|306:223,1,135,10|0,0:0|0:0,0:0:0:0:
103,151,110027,2,0,L|238:156,1,135,0|0,0:0|0:0,0:0:0:0:
474,59,110227,1,0,0:0:0:0:
315,34,110327,1,2,0:0:0:0:
290,193,110427,1,0,1:2:0:0:
449,218,110527,1,2,0:0:0:0:
180,40,110627,6,0,L|315:34,1,135,2|0,1:2|0:0,0:0:0:0:
290,193,110827,1,0,0:0:0:0:
290,193,110927,1,0,0:0:0:0:
290,193,111027,2,0,L|296:327,1,135,2|0,1:2|0:0,0:0:0:0:
136,301,111227,2,0,L|2:308,1,135,2|0,0:0|0:0,0:0:0:0:
289,192,111427,6,0,P|224:176|160:193,1,135,10|0,0:0|0:0,0:0:0:0:
296,327,111627,2,0,P|361:343|426:327,1,135,0|0,1:2|0:0,0:0:0:0:
367,58,111827,1,0,0:0:0:0:
289,192,111927,1,2,0:0:0:0:
137,159,112027,1,2,1:2:0:0:
121,4,112127,1,0,0:0:0:0:
2,170,112227,6,0,L|137:159,1,135,2|0,1:2|0:0,0:0:0:0:
271,313,112427,2,0,L|136:301,1,135,0|0,0:0|0:0,0:0:0:0:
25,204,112627,2,0,L|159:192,1,135,0|0,0:0|0:0,0:0:0:0:
366,255,112827,1,2,0:0:0:0:
366,255,112927,1,2,0:0:0:0:
366,255,113027,6,0,B|430:236|430:236|497:243,1,135,10|0,0:0|0:0,0:0:0:0:
268,170,113227,2,0,B|204:151|204:151|136:158,1,135,0|0,0:0|0:0,0:0:0:0:
407,107,113427,1,0,1:2:0:0:
269,202,113527,1,2,0:0:0:0:
255,34,113627,1,0,0:0:0:0:
407,107,113727,1,2,0:0:0:0:
224,25,113827,6,0,P|156:21|91:35,1,135,0|0,1:2|0:0,0:0:0:0:
25,204,114027,2,0,P|21:271|35:336,1,135,2|0,0:0|0:0,0:0:0:0:
135,152,114227,1,0,0:0:0:0:
135,152,114327,1,2,0:0:0:0:
135,152,114427,2,0,P|199:169|267:169,1,135,2|0,1:2|0:0,0:0:0:0:
500,30,114627,6,0,L|510:168,1,135,10|0,0:0|0:0,0:0:0:0:
379,355,114827,2,0,L|389:221,1,135,0|0,0:0|0:0,0:0:0:0:
144,17,115027,2,0,L|134:155,1,135,2|0,0:0|0:0,0:0:0:0:
278,336,115227,2,0,L|269:202,1,135,0|0,0:0|0:0,0:0:0:0:
51,361,115427,6,0,P|116:345|182:357,1,135,2|0,1:2|0:0,0:0:0:0:
46,110,115627,2,0,P|80:167|89:233,1,135,0|0,0:0|0:0,0:0:0:0:
283,27,115827,2,0,P|239:77|178:106,1,135,0|0,0:0|0:0,0:0:0:0:
389,221,116027,1,2,0:0:0:0:
389,221,116127,1,2,0:0:0:0:
389,221,116227,6,0,L|398:86,1,135,10|0,0:0|0:0,0:0:0:0:
179,107,116427,2,0,L|181:241,1,135,0|0,0:0|0:0,0:0:0:0:
379,355,116627,1,0,0:0:0:0:
287,240,116727,1,2,0:0:0:0:
164,155,116827,1,0,1:0:0:0:
16,133,116927,1,2,0:0:0:0:
51,360,117027,6,0,P|101:317|134:258,1,135,2|0,1:2|0:0,0:0:0:0:
286,239,117227,1,0,0:0:0:0:
286,239,117327,1,0,0:0:0:0:
286,239,117427,2,0,P|314:300|320:367,1,135,2|0,1:2|0:0,0:0:0:0:
282,137,117627,2,0,P|342:108|409:103,1,135,2|0,0:0|0:0,0:0:0:0:
181,241,117827,6,0,P|120:269|53:274,1,135,10|0,0:0|0:0,0:0:0:0:
179,141,118027,2,0,P|150:80|145:13,1,135,2|0,1:2|0:0,0:0:0:0:
409,103,118227,1,0,0:0:0:0:
286,239,118327,1,2,0:0:0:0:
436,148,118427,1,2,1:2:0:0:
337,256,118527,1,0,0:0:0:0:
274,103,118627,6,0,L|409:103,1,135,2|0,1:2|0:0,0:0:0:0:
145,13,118827,2,0,L|280:13,1,135,0|0,0:0|0:0,0:0:0:0:
44,141,119027,2,0,L|179:141,1,135,0|0,0:0|0:0,0:0:0:0:
437,281,119227,1,2,0:0:0:0:
437,281,119327,1,2,0:0:0:0:
437,281,119427,6,0,P|445:214|436:148,1,135,10|0,0:0|0:0,0:0:0:0:
286,239,119627,2,0,P|277:305|287:372,1,135,0|0,0:0|0:0,0:0:0:0:
30,202,119827,1,0,1:0:0:0:
242,284,119927,1,2,0:0:0:0:
95,349,120027,1,0,0:0:0:0:
179,141,120127,1,2,0:0:0:0:
419,237,120227,6,0,P|352:247|286:239,1,135,0|0,1:0|0:0,0:0:0:0:
280,13,120427,2,0,P|271:79|281:146,1,135,2|0,0:0|0:0,0:0:0:0:
37,38,120627,1,0,0:0:0:0:
37,38,120727,1,2,0:0:0:0:
37,38,120827,2,0,P|103:29|170:39,1,135,2|0,1:2|0:0,0:0:0:0:
397,80,121027,6,0,P|334:105|280:145,1,135,10|0,0:0|0:0,0:0:0:0:
104,322,121227,1,0,0:0:0:0:
170,39,121427,1,0,0:0:0:0:
375,349,121627,1,0,0:0:0:0:
6,8,121827,5,4,0:0:0:0:
