osu file format v14

[General]
AudioFilename: audio.mp3
AudioLeadIn: 0
PreviewTime: 64227
Countdown: 0
SampleSet: Soft
StackLeniency: 0.4
Mode: 0
LetterboxInBreaks: 0
WidescreenStoryboard: 1

[Editor]
Bookmarks: 13027
DistanceSpacing: 1.1
BeatDivisor: 4
GridSize: 32
TimelineZoom: 5.699997

[Metadata]
Title:Hold Angel
TitleUnicode:Hold Angel
Artist:you
ArtistUnicode:you
Creator:Deppyforce
Version:Insane
Source:
Tags:600 bpm speedcore rsi deathstream derandom_otaku akitoshi corinn snownino_
BeatmapID:1247832
BeatmapSetID:580695

[Difficulty]
HPDrainRate:6.8
CircleSize:4.1
OverallDifficulty:7.7
ApproachRate:8.9
SliderMultiplier:1.4
SliderTickRate:1

[Events]
//Background and Video events
0,0,"d.jpg",0,0
//Break Periods
2,64227,69212
//Storyboard Layer 0 (Background)
//Storyboard Layer 1 (Fail)
//Storyboard Layer 2 (Pass)
//Storyboard Layer 3 (Foreground)
//Storyboard Sound Samples

[TimingPoints]
227,200,4,2,1,60,1,0
12227,-100,4,2,88,60,0,0
12239,-100,4,2,88,20,0,0
13027,-125,4,2,88,50,0,0
18627,-125,4,2,1,40,0,0
19427,-125,4,2,88,50,0,0
22627,-125,4,2,0,50,0,0
25027,-125,4,2,88,60,0,0
25039,-125,4,2,88,20,0,0
25627,-125,4,2,99,60,0,0
25827,-100,4,2,1,60,0,0
29027,-100,4,2,2,60,0,0
30227,-100,4,2,1,60,0,0
30627,-100,4,2,2,60,0,0
31427,-100,4,2,88,80,0,0
31477,-100,4,2,2,60,0,0
31627,-100,4,2,88,80,0,0
31677,-100,4,2,2,60,0,0
31827,-100,4,2,88,80,0,0
31877,-100,4,2,2,60,0,0
32027,-100,4,2,1,60,0,0
35427,-100,4,2,2,60,0,0
35527,-100,4,2,1,60,0,0
35627,-100,4,2,2,60,0,0
35727,-100,4,2,1,60,0,0
35827,-100,4,2,2,60,0,0
35927,-100,4,2,1,60,0,0
36127,-100,4,2,2,60,0,0
36327,-100,4,2,1,60,0,0
36527,-100,4,2,2,60,0,0
36727,-100,4,2,1,60,0,0
37027,-100,4,2,2,60,0,0
37127,-100,4,2,1,60,0,0
37227,-100,4,2,2,60,0,0
37327,-100,4,2,1,60,0,0
37427,-100,4,2,2,60,0,0
37827,-100,4,2,88,80,0,0
38027,-100,4,2,1,60,0,0
39227,-100,4,2,2,60,0,0
39427,-100,4,2,1,60,0,0
40027,-100,4,2,2,60,0,0
40227,-100,4,2,1,60,0,0
40627,-100,4,2,2,60,0,0
40827,-100,4,2,1,60,0,0
41227,-100,4,2,2,60,0,0
41827,-100,4,2,1,60,0,0
42427,-100,4,2,2,60,0,0
42727,-100,4,2,1,60,0,0
43427,-100,4,2,2,60,0,0
43727,-100,4,2,1,60,0,0
44027,-100,4,2,2,60,0,0
44227,-100,4,2,1,60,0,0
44527,-100,4,2,2,60,0,0
44627,-100,4,2,1,60,0,0
44727,-100,4,2,2,60,0,0
44827,-100,4,2,1,60,0,0
45027,-100,4,2,2,60,0,0
45427,-100,4,2,1,60,0,0
45727,-100,4,2,2,60,0,0
45827,-100,4,2,1,60,0,0
46027,-100,4,2,2,60,0,0
46127,-100,4,2,1,60,0,0
46427,-100,4,2,2,60,0,0
46527,-100,4,2,1,60,0,0
46627,-100,4,2,2,60,0,0
46727,-100,4,2,1,60,0,0
47027,-100,4,2,2,60,0,0
47127,-100,4,2,1,60,0,0
47627,-100,4,2,2,60,0,0
48027,-100,4,2,1,60,0,0
48227,-100,4,2,2,60,0,0
48327,-100,4,2,1,60,0,0
48427,-100,4,2,2,60,0,0
48527,-100,4,2,1,60,0,0
49027,-100,4,2,2,60,0,0
49227,-100,4,2,1,60,0,0
49327,-100,4,2,2,60,0,0
49427,-100,4,2,1,60,0,0
49527,-100,4,2,2,60,0,0
49727,-100,4,2,1,60,0,0
49827,-100,4,2,2,60,0,0
49927,-100,4,2,1,60,0,0
50427,-100,4,2,2,60,0,0
50627,-100,4,2,88,80,0,0
51427,-200,4,2,0,40,0,0
69827,-133.333333333333,4,1,0,70,0,0
70627,-111.111111111111,4,2,88,50,0,0
77027,-111.111111111111,4,2,88,60,0,0
77227,-111.111111111111,4,3,1,25,0,0
77827,-111.111111111111,4,3,1,30,0,0
78627,-111.111111111111,4,2,88,60,0,0
78827,-111.111111111111,4,3,1,35,0,0
79427,-111.111111111111,4,3,1,40,0,0
80227,-111.111111111111,4,2,88,70,0,0
80627,-111.111111111111,4,3,1,45,0,0
81027,-111.111111111111,4,2,88,70,0,0
81427,-111.111111111111,4,3,1,50,0,0
81827,-111.111111111111,4,2,1,60,0,0
82627,-111.111111111111,4,2,1,60,0,0
82802,-111.111111111111,4,2,1,10,0,0
83427,-86.9565217391304,4,2,2,60,0,1
84627,-86.9565217391304,4,2,1,60,0,1
85027,-86.9565217391304,4,2,2,60,0,1
85827,-86.9565217391304,4,2,1,60,0,1
86627,-86.9565217391304,4,2,2,60,0,1
88227,-86.9565217391304,4,2,1,60,0,1
89427,-86.9565217391304,4,2,1,80,0,1
89827,-86.9565217391304,4,2,2,60,0,1
91027,-86.9565217391304,4,2,1,60,0,1
91427,-86.9565217391304,4,2,2,60,0,1
92227,-86.9565217391304,4,2,1,60,0,1
93027,-86.9565217391304,4,2,2,60,0,1
94627,-86.9565217391304,4,2,1,60,0,1
95427,-125,4,1,0,70,0,0
95827,-125,4,2,1,60,0,0
96227,-86.9565217391304,4,2,2,60,0,1
99427,-100,4,2,88,70,0,0
101827,-100,4,2,2,60,0,0
101927,-100,4,2,1,60,0,0
102627,-86.9565217391304,4,2,2,60,0,1
105827,-100,4,2,88,80,0,0
108227,-100,4,2,2,60,0,0
109027,-133.333333333333,4,2,99,50,0,0
121827,-133.333333333333,4,2,0,50,0,0

[Colours]
Combo1 : 101,97,126
Combo2 : 55,95,123

[HitObjects]
32,274,13027,6,0,P|85:260|140:269,1,112,6|0,0:0|0:0,0:0:0:0:
250,324,13427,2,0,P|303:337|358:328,1,112,0|2,0:0|0:0,0:0:0:0:
421,273,13727,1,2,0:0:0:0:
421,273,13827,2,0,B|431:218|431:218|422:163,1,112,2|0,0:0|0:0,0:0:0:0:
333,76,14227,1,0,0:0:0:0:
333,76,14327,1,2,0:0:0:0:
333,76,14427,1,0,0:0:0:0:
333,76,14527,1,2,0:0:0:0:
333,76,14627,6,0,L|445:73,2,112,2|0|2,0:0|0:0|0:0,0:0:0:0:
256,173,15227,1,2,0:0:0:0:
179,76,15427,2,0,L|67:73,1,112,2|0,0:0|0:0,0:0:0:0:
44,194,15827,2,0,L|44:250,3,56,0|2|2|0,0:0|0:0|0:0|0:0,0:0:0:0:
45,343,16227,6,0,B|96:320|96:320|152:320,1,112,2|0,0:0|0:0,0:0:0:0:
267,366,16627,2,0,B|249:313|249:313|253:258,1,112,0|2,0:0|0:0,0:0:0:0:
256,173,16927,1,2,0:0:0:0:
256,173,17027,2,0,L|142:175,1,112,2|0,0:0|0:0,0:0:0:0:
221,78,17427,1,0,0:0:0:0:
221,78,17527,1,2,0:0:0:0:
221,78,17627,1,0,0:0:0:0:
221,78,17727,1,2,0:0:0:0:
221,78,17827,6,0,L|333:75,2,112,0|2|0,0:0|0:0|0:0,0:0:0:0:
139,99,18327,1,2,0:0:0:0:
139,99,18427,1,2,0:0:0:0:
256,173,18627,2,0,L|254:200,15,28,14|8|12|8|12|8|12|8|12|8|12|8|12|8|12|8,0:0|0:0|0:0|0:0|0:0|0:0|0:0|0:0|0:0|0:0|0:0|0:0|0:0|0:0|0:0|0:0,0:0:0:0:
259,220,19427,6,0,P|312:234|367:228,1,112,6|0,0:0|0:0,0:0:0:0:
464,151,19827,2,0,P|478:97|472:42,1,112,0|2,0:0|0:0,0:0:0:0:
387,33,20127,1,2,0:0:0:0:
387,33,20227,2,0,L|380:145,1,112,2|0,0:0|0:0,0:0:0:0:
474,254,20627,1,0,0:0:0:0:
474,254,20727,1,2,0:0:0:0:
474,254,20827,1,0,0:0:0:0:
474,254,20927,1,2,0:0:0:0:
474,254,21027,6,0,B|483:295|483:295|472:364,1,112,2|0,0:0|0:0,0:0:0:0:
342,345,21427,2,0,B|331:276|331:276|340:235,1,112,2|2,0:0|0:0,0:0:0:0:
172,235,21827,2,0,B|181:276|181:276|170:345,1,112,2|0,0:0|0:0,0:0:0:0:
40,364,22227,1,0,0:0:0:0:
40,364,22327,1,2,0:0:0:0:
40,364,22427,1,2,0:0:0:0:
40,364,22527,1,0,0:0:0:0:
40,364,22627,6,0,B|35:253,1,112,6|0,0:0|0:0,0:0:0:0:
87,140,23027,2,0,B|198:145,1,112,0|2,0:0|0:0,0:0:0:0:
224,65,23327,1,2,0:0:0:0:
224,65,23427,2,0,B|113:60,1,112,2|0,0:0|0:0,0:0:0:0:
76,235,23827,1,0,0:0:0:0:
76,235,23927,1,2,0:0:0:0:
76,235,24027,1,0,0:0:0:0:
76,235,24127,1,2,0:0:0:0:
76,235,24227,6,0,P|130:244|186:240,1,112,4|2,0:0|0:0,0:0:0:0:
256,343,24627,2,0,L|256:287,2,56,0|0|2,0:0|0:0|0:0,0:0:0:0:
435,235,25027,5,6,0:0:0:0:
435,235,25627,1,4,0:1:0:0:
256,343,25827,6,0,B|321:330|321:330|393:345,1,140,6|4,0:0|0:0,0:0:0:0:
462,310,26127,1,4,0:0:0:0:
435,235,26227,2,0,P|427:200|428:165,1,70,4|4,0:0|0:0,0:0:0:0:
463,97,26427,1,6,0:0:0:0:
463,97,26527,1,6,0:0:0:0:
463,97,26627,2,0,L|507:100,7,35,14|8|12|8|12|8|12|8,0:0|0:0|0:0|0:0|0:0|0:0|0:0|0:0,0:0:0:0:
467,65,27027,2,0,L|502:68,7,35,12|8|14|8|12|8|14|8,0:0|0:0|0:0|0:0|0:0|0:0|0:0|0:0,0:0:0:0:
449,31,27427,6,0,L|310:35,1,140,6|4,0:0|0:0,0:0:0:0:
256,90,27727,1,4,0:0:0:0:
202,35,27827,2,0,L|132:33,1,70,6|4,0:0|0:0,0:0:0:0:
71,80,28027,2,0,L|69:149,1,70,6|4,0:0|0:0,0:0:0:0:
116,211,28227,2,0,L|118:248,7,35,14|8|12|8|12|8|12|8,0:0|0:0|0:0|0:0|0:0|0:0|0:0|0:0,0:0:0:0:
148,205,28627,2,0,L|150:242,7,35,12|8|14|8|14|8|12|8,0:0|0:0|0:0|0:0|0:0|0:0|0:0|0:0,0:0:0:0:
180,199,29027,6,0,L|188:347,1,140,6|4,0:0|0:0,0:0:0:0:
337,377,29427,2,0,P|327:308|286:251,1,140,6|6,0:0|0:0,0:0:0:0:
431,198,29827,2,0,L|423:50,1,140,6|4,0:0|0:0,0:0:0:0:
274,19,30227,2,0,P|274:54|283:88,3,70,14|12|14|12,0:0|0:0|0:0|0:0,0:0:0:0:
351,125,30627,6,0,B|284:113|284:113|211:117,1,140,6|4,0:0|0:0,0:0:0:0:
61,83,31027,2,0,B|49:150|49:150|53:222,1,140,6|4,0:0|0:0,0:0:0:0:
19,373,31427,2,0,B|86:385|86:385|158:380,2,140,14|12|14,0:0|0:0|0:0,0:0:0:0:
53,221,32027,2,0,L|89:218,3,35,8|8|8|8,0:0|0:0|0:0|0:0,0:0:0:0:
120,197,32227,6,0,L|261:202,1,140,6|4,0:0|0:0,0:0:0:0:
337,201,32527,1,4,0:0:0:0:
351,124,32627,2,0,P|352:90|345:55,1,70,4|4,0:0|0:0,0:0:0:0:
411,16,32827,1,6,0:0:0:0:
411,16,32927,1,6,0:0:0:0:
411,16,33027,2,0,L|446:17,7,35,14|8|12|8|12|8|12|8,0:0|0:0|0:0|0:0|0:0|0:0|0:0|0:0,0:0:0:0:
422,48,33427,2,0,L|457:49,7,35,12|8|14|8|12|8|14|8,0:0|0:0|0:0|0:0|0:0|0:0|0:0|0:0,0:0:0:0:
433,80,33827,6,0,B|443:151|443:151|432:219,1,140,6|4,0:0|0:0,0:0:0:0:
374,269,34127,1,4,0:0:0:0:
393,343,34227,2,0,L|466:348,2,70,6|4|6,0:0|0:0|0:0,0:0:0:0:
317,323,34527,1,4,0:0:0:0:
256,370,34627,2,0,L|222:372,7,35,14|8|12|8|12|8|12|8,0:0|0:0|0:0|0:0|0:0|0:0|0:0|0:0,0:0:0:0:
239,338,35027,2,0,L|205:340,7,35,12|8|14|8|14|8|12|8,0:0|0:0|0:0|0:0|0:0|0:0|0:0|0:0,0:0:0:0:
241,301,35427,6,0,B|255:233|255:233|243:162,1,140,6|4,0:0|0:0,0:0:0:0:
96,115,35827,2,0,B|84:184|84:184|98:252,1,140,6|14,0:0|0:0,0:0:0:0:
0,371,36227,2,0,L|140:375,1,140,6|14,0:0|0:0,0:0:0:0:
286,329,36627,2,0,L|426:325,1,140,6|14,0:0|0:0,0:0:0:0:
504,191,37027,6,0,P|512:122|497:55,2,140,14|4|6,0:0|0:0|0:0,0:0:0:0:
439,234,37527,1,4,0:0:0:0:
374,192,37627,1,4,0:0:0:0:
342,41,37827,5,14,0:0:0:0:
342,41,38427,1,8,0:0:0:0:
256,192,38627,6,0,L|216:194,8,35,6|0|4|0|12|8|12|8|12,0:0|0:0|0:0|0:0|0:0|0:0|0:0|0:0|0:0,0:0:0:0:
314,140,39127,1,4,0:0:0:0:
314,140,39227,2,0,L|404:143,1,70,6|6,0:0|0:0,0:0:0:0:
458,124,39477,2,0,L|456:84,6,35,0|4|0|4|0|4|0,0:0|0:0|0:0|0:0|0:0|0:0|0:0,0:0:0:0:
495,148,39827,2,0,L|493:108,7,35,12|8|14|8|4|0|6|0,0:0|0:0|0:0|0:0|0:0|0:0|0:0|0:0,0:0:0:0:
504,191,40227,6,0,B|512:262|512:262|492:327,1,140,6|4,0:0|0:0,0:0:0:0:
425,366,40527,1,4,0:0:0:0:
355,330,40627,2,0,P|320:325|286:329,1,70,6|4,0:0|0:0,0:0:0:0:
216,364,40827,1,6,0:0:0:0:
216,364,40927,1,4,0:0:0:0:
146,318,41027,2,0,L|143:280,4,35,14|8|12|8|12,0:0|0:0|0:0|0:0|0:0,0:0:0:0:
83,363,41327,1,4,0:0:0:0:
65,288,41427,2,0,B|68:217,1,70,4|6,0:0|0:0,0:0:0:0:
145,207,41627,2,0,B|147:137,1,70,6|4,0:0|0:0,0:0:0:0:
225,126,41827,6,0,B|294:133|294:133|350:175,1,140,6|4,0:0|0:0,0:0:0:0:
355,330,42227,2,0,L|352:285,4,35,12|8|12|0|6,0:0|0:0|0:0|0:0|0:0,0:0:0:0:
423,374,42527,1,6,0:0:0:0:
423,374,42627,5,6,0:0:0:0:
497,354,42727,2,0,L|497:319,5,35,12|8|12|8|12|8,0:0|0:0|0:0|0:0|0:0|0:0,0:0:0:0:
479,284,43027,2,0,L|479:249,6,35,14|8|12|8|12|0|4,0:0|0:0|0:0|0:0|0:0|0:0|0:0,0:0:0:0:
485,177,43427,6,0,P|417:160|349:175,1,140,6|4,0:0|0:0,0:0:0:0:
243,286,43827,2,0,L|243:321,4,35,14|8|12|8|12,0:0|0:0|0:0|0:0|0:0,0:0:0:0:
213,214,44127,1,4,0:0:0:0:
213,214,44227,2,0,B|145:198|145:198|75:208,2,140,6|4|6,0:0|0:0|0:0,0:0:0:0:
293,82,44827,2,0,L|338:84,3,35,12|8|12|8,0:0|0:0|0:0|0:0,0:0:0:0:
359,69,45027,6,0,L|362:209,1,140,14|4,0:0|0:0,0:0:0:0:
511,172,45427,2,0,L|508:312,1,140,0|6,0:0|0:0,0:0:0:0:
446,358,45727,1,6,0:0:0:0:
446,358,45827,1,6,0:0:0:0:
370,330,45927,2,0,L|315:326,2,35,12|8|12,0:0|0:0|0:0,0:0:0:0:
176,366,46227,2,0,L|180:311,2,35,12|8|14,0:0|0:0|0:0,0:0:0:0:
103,339,46427,1,12,0:0:0:0:
26,343,46527,2,0,L|22:398,2,35,14|8|14,0:0|0:0|0:0,0:0:0:0:
43,268,46727,1,0,0:0:0:0:
43,268,46827,6,0,P|55:199|49:129,2,140,4|6|14,0:0|0:0|0:0,0:0:0:0:
101,318,47327,1,4,0:0:0:0:
173,292,47427,2,0,L|175:242,4,35,14|8|12|8|6,0:0|0:0|0:0|0:0|0:0,0:0:0:0:
249,303,47727,1,4,0:0:0:0:
318,269,47827,2,0,P|326:234|327:200,1,70,4|6,0:0|0:0,0:0:0:0:
250,233,48027,2,0,P|246:268|249:303,1,70,6|4,0:0|0:0,0:0:0:0:
370,330,48227,6,0,L|516:328,1,140,6|4,0:0|0:0,0:0:0:0:
396,185,48627,2,0,L|358:189,7,35,12|8|12|0|14|0|14|0,0:0|0:0|0:0|0:0|0:0|0:0|0:0|0:0,0:0:0:0:
326,200,49027,2,0,P|329:130|314:62,1,140,14|12,0:0|0:0,0:0:0:0:
161,119,49427,2,0,P|158:188|174:257,1,140,6|4,0:0|0:0,0:0:0:0:
249,303,49727,1,8,0:0:0:0:
172,345,49827,5,14,0:0:0:0:
172,345,49927,2,0,L|130:343,10,35,4|0|12|8|12|8|14|8|12|8|12,0:0|0:0|0:0|0:0|0:0|0:0|0:0|0:0|0:0|0:0|0:0,0:0:0:0:
249,303,50527,1,4,0:0:0:0:
174,257,50627,2,0,B|158:188|158:188|161:119,1,140,14|0,0:0|0:0,0:0:0:0:
344,128,51027,2,0,B|346:197|346:197|331:265,1,140,2|0,0:0|0:0,0:0:0:0:
137,343,51427,6,0,L|68:340,7,70,6|0|0|0|0|0|0|0,0:0|0:0|0:0|0:0|0:0|0:0|0:0|0:0,0:0:0:0:
114,311,53027,2,0,L|45:308,7,70,2|0|0|0|0|0|0|0,0:0|0:0|0:0|0:0|0:0|0:0|0:0|0:0,0:0:0:0:
99,279,54627,2,0,L|30:276,7,70,2|0|0|0|0|0|0|0,0:0|0:0|0:0|0:0|0:0|0:0|0:0|0:0,0:0:0:0:
76,247,56227,2,0,L|7:244,7,70,2|0|0|0|0|0|0|0,0:0|0:0|0:0|0:0|0:0|0:0|0:0|0:0,0:0:0:0:
172,206,57827,6,0,L|175:275,7,70,2|0|0|0|0|0|0|0,0:0|0:0|0:0|0:0|0:0|0:0|0:0|0:0,0:0:0:0:
204,229,59427,2,0,L|207:298,7,70,2|0|0|0|0|0|0|0,0:0|0:0|0:0|0:0|0:0|0:0|0:0|0:0,0:0:0:0:
236,244,61027,2,0,L|239:313,7,70,2|0|0|0|0|0|0|0,0:0|0:0|0:0|0:0|0:0|0:0|0:0|0:0,0:0:0:0:
268,267,62627,2,0,L|271:336,7,70,2|0|0|0|0|0|0|0,0:0|0:0|0:0|0:0|0:0|0:0|0:0|0:0,0:0:0:0:
434,209,69827,6,0,B|380:213|380:213|346:177|346:177|311:278|311:278|295:231|295:231|239:235,1,315.000012016297,2|0,0:2|2:0,0:0:0:0:
81,340,70627,6,0,P|101:280|107:217,1,125.999996154785,2|0,0:0|0:0,0:0:0:0:
47,144,70927,2,0,P|27:203|21:266,1,125.999996154785,2|0,0:0|0:0,0:0:0:0:
82,340,71227,2,0,L|145:338,1,62.9999980773926,0|2,0:0|0:0,0:0:0:0:
377,299,71527,6,0,P|347:310|322:329,2,62.9999980773926,2|0|0,0:0|0:0|0:0,0:0:0:0:
452,341,71827,2,0,L|461:207,1,125.999996154785,2|2,0:0|0:0,0:0:0:0:
505,144,72127,1,0,0:0:0:0:
505,143,72227,6,0,P|447:168|384:171,1,125.999996154785,2|0,0:0|0:0,0:0:0:0:
301,128,72527,2,0,B|238:131|238:131|180:155,1,125.999996154785,2|0,0:0|0:0,0:0:0:0:
152,247,72827,2,0,L|154:317,1,62.9999980773926,0|2,0:0|0:0,0:0:0:0:
118,100,73127,6,0,P|87:104|57:112,2,62.9999980773926,2|0|0,0:0|0:0|0:0,0:0:0:0:
180,155,73427,2,0,B|242:151|242:151|300:127,1,125.999996154785,2|0,0:0|0:0,0:0:0:0:
349,64,73727,1,2,0:0:0:0:
349,64,73827,6,0,L|351:189,1,125.999996154785,2|0,0:0|0:0,0:0:0:0:
270,240,74127,2,0,L|267:365,1,125.999996154785,2|0,0:0|0:0,0:0:0:0:
359,331,74427,2,0,P|358:299|349:269,1,62.9999980773926,0|2,0:0|0:0,0:0:0:0:
144,345,74727,6,0,L|82:340,2,62.9999980773926,2|0|0,0:0|0:0|0:0,0:0:0:0:
189,281,75027,2,0,P|129:266|66:263,1,125.999996154785,2|0,0:0|0:0,0:0:0:0:
3,318,75327,1,2,0:0:0:0:
3,318,75427,6,0,B|19:259|19:259|16:194,1,125.999996154785,2|0,0:0|0:0,0:0:0:0:
0,101,75727,2,0,B|64:98|64:98|123:114,1,125.999996154785,2|0,0:0|0:0,0:0:0:0:
210,153,76027,2,0,B|241:159|241:159|272:155,1,62.9999980773926,0|2,0:0|0:0,0:0:0:0:
488,71,76327,6,0,L|485:4,2,62.9999980773926,2|0|0,0:0|0:0|0:0,0:0:0:0:
495,153,76627,2,0,P|432:161|376:189,1,125.999996154785,2|2,0:0|0:0,0:0:0:0:
328,256,76927,1,0,0:0:0:0:
302,149,77027,5,4,0:0:0:0:
256,192,77077,12,0,81727,0:0:0:0:
180,145,81827,6,0,L|182:191,7,31.4999990386963,12|8|12|8|12|8|12|8,0:0|0:0|0:0|0:0|0:0|0:0|0:0|0:0,0:0:0:0:
205,213,82227,2,0,L|203:259,7,31.4999990386963,12|8|12|8|12|8|12|8,0:0|0:0|0:0|0:0|0:0|0:0|0:0|0:0,0:0:0:0:
193,287,82627,1,2,0:0:0:0:
193,286,83427,6,0,P|263:249|343:242,1,161.000003070831,6|4,0:0|0:0,0:0:0:0:
427,280,83727,2,0,L|424:361,1,80.5000015354157,6|4,0:0|0:0,0:0:0:0:
512,238,83927,1,4,0:0:0:0:
512,238,84027,1,4,0:0:0:0:
512,238,84127,2,0,L|509:157,1,80.5000015354157,6|4,0:0|0:0,0:0:0:0:
423,111,84327,6,0,L|426:192,2,80.5000015354157,6|4|4,0:0|0:0|0:0,0:0:0:0:
352,62,84627,2,0,L|307:66,3,40.2500007677078,6|0|6|0,0:0|0:0|0:0|0:0,0:0:0:0:
279,83,84827,2,0,L|234:87,3,40.2500007677078,6|0|4|0,0:0|0:0|0:0|0:0,0:0:0:0:
206,104,85027,6,0,B|184:137|184:137|194:268,1,161.000003070831,6|4,0:0|0:0,0:0:0:0:
282,242,85327,2,0,L|275:161,1,80.5000015354157,6|4,0:0|0:0,0:0:0:0:
206,104,85527,2,0,L|125:110,1,80.5000015354157,4|4,0:0|0:0,0:0:0:0:
68,180,85727,2,0,L|74:260,1,80.5000015354157,6|4,0:0|0:0,0:0:0:0:
81,270,85877,1,0,0:0:0:0:
86,280,85927,6,0,L|126:276,5,40.2500007677078,6|0|4|0|4|0,0:0|0:0|0:0|0:0|0:0|0:0,0:0:0:0:
159,295,86227,2,0,L|199:291,7,40.2500007677078,14|8|12|8|12|8|14|8,0:0|0:0|0:0|0:0|0:0|0:0|0:0|0:0,0:0:0:0:
230,312,86627,2,0,L|70:328,1,161.000003070831,6|4,0:0|0:0,0:0:0:0:
2,260,86927,2,0,P|-5:221|-5:181,1,80.5000015354157,6|4,0:0|0:0,0:0:0:0:
147,171,87127,1,4,0:0:0:0:
147,171,87227,1,4,0:0:0:0:
147,171,87327,2,0,P|108:180|68:180,1,80.5000015354157,6|4,0:0|0:0,0:0:0:0:
0,107,87527,6,0,L|80:101,2,80.5000015354157,6|4|4,0:0|0:0|0:0,0:0:0:0:
15,11,87827,1,6,0:0:0:0:
15,11,87927,1,4,0:0:0:0:
107,20,88027,1,4,0:0:0:0:
107,20,88127,1,6,0:0:0:0:
107,20,88227,6,0,L|147:17,7,40.2500007677078,6|0|4|0|4|0|6|0,0:0|0:0|0:0|0:0|0:0|0:0|0:0|0:0,0:0:0:0:
182,29,88627,2,0,L|222:26,7,40.2500007677078,4|0|4|0|4|0|6|0,0:0|0:0|0:0|0:0|0:0|0:0|0:0|0:0,0:0:0:0:
241,58,89027,5,12,0:0:0:0:
251,65,89077,1,8,0:0:0:0:
261,72,89127,1,14,0:0:0:0:
271,79,89177,1,8,0:0:0:0:
281,86,89227,2,0,L|284:126,4,40.2500007677078,12|8|12|8|10,0:0|0:0|0:0|0:0|0:0,0:0:0:0:
409,16,89627,1,2,0:0:0:0:
405,162,89827,6,0,P|402:241|437:313,1,161.000003070831,6|4,0:0|0:0,0:0:0:0:
508,225,90127,2,0,L|428:235,1,80.5000015354157,6|4,0:0|0:0,0:0:0:0:
335,346,90327,1,4,0:0:0:0:
335,346,90427,1,4,0:0:0:0:
335,346,90527,2,0,L|415:336,1,80.5000015354157,6|4,0:0|0:0,0:0:0:0:
326,251,90727,6,0,L|246:261,2,80.5000015354157,6|4|4,0:0|0:0|0:0,0:0:0:0:
248,346,91027,2,0,L|208:344,3,40.2500007677078,6|0|6|0,0:0|0:0|0:0|0:0,0:0:0:0:
172,354,91227,2,0,L|132:352,3,40.2500007677078,6|0|4|0,0:0|0:0|0:0|0:0,0:0:0:0:
96,361,91427,6,0,B|136:297|136:297|149:214,1,161.000003070831,6|4,0:0|0:0,0:0:0:0:
246,260,91727,2,0,L|245:179,1,80.5000015354157,6|4,0:0|0:0,0:0:0:0:
331,130,91927,2,0,L|411:130,1,80.5000015354157,4|4,0:0|0:0,0:0:0:0:
461,216,92127,2,0,L|460:296,1,80.5000015354157,6|4,0:0|0:0,0:0:0:0:
452,307,92277,1,0,0:0:0:0:
444,318,92327,6,0,L|403:317,5,40.2500007677078,6|0|4|0|4|0,0:0|0:0|0:0|0:0|0:0|0:0,0:0:0:0:
368,327,92627,2,0,L|327:326,7,40.2500007677078,14|8|12|8|12|8|14|8,0:0|0:0|0:0|0:0|0:0|0:0|0:0|0:0,0:0:0:0:
292,335,93027,6,0,P|295:256|264:182,1,161.000003070831,6|4,0:0|0:0,0:0:0:0:
362,202,93327,2,0,P|350:164|330:129,1,80.5000015354157,6|4,0:0|0:0,0:0:0:0:
168,162,93527,1,4,0:0:0:0:
168,162,93627,1,4,0:0:0:0:
168,162,93727,2,0,P|180:200|200:235,1,80.5000015354157,6|4,0:0|0:0,0:0:0:0:
263,181,93927,6,0,L|232:106,2,80.5000015354157,6|4|4,0:0|0:0|0:0,0:0:0:0:
195,251,94227,1,6,0:0:0:0:
195,251,94327,1,4,0:0:0:0:
159,344,94427,1,4,0:0:0:0:
159,344,94527,1,6,0:0:0:0:
61,313,94627,6,0,L|58:264,7,40.2500007677078,6|0|4|0|4|0|6|0,0:0|0:0|0:0|0:0|0:0|0:0|0:0|0:0,0:0:0:0:
37,242,95027,2,0,L|34:193,7,40.2500007677078,4|0|4|0|4|0|6|0,0:0|0:0|0:0|0:0|0:0|0:0|0:0|0:0,0:0:0:0:
13,171,95427,6,0,P|70:101|-19:99,1,224,2|0,0:2|0:0,0:0:0:0:
170,175,96027,2,0,L|197:173,3,28,8|8|8|8,0:0|0:0|0:0|0:0,0:0:0:0:
240,150,96227,6,0,P|263:226|325:275,1,161.000003070831,6|12,0:0|0:0,0:0:0:0:
413,263,96527,1,12,0:0:0:0:
380,345,96627,2,0,L|299:351,1,80.5000015354157,14|4,0:0|0:0,0:0:0:0:
188,266,96827,2,0,L|269:272,1,80.5000015354157,4|4,0:0|0:0,0:0:0:0:
366,357,97027,6,0,L|285:363,1,80.5000015354157,14|4,0:0|0:0,0:0:0:0:
174,278,97227,2,0,L|255:284,1,80.5000015354157,4|4,0:0|0:0,0:0:0:0:
325,223,97427,2,0,P|333:184|331:144,2,80.5000015354157,6|4|12,0:0|0:0|0:0,0:0:0:0:
413,263,97727,1,4,0:0:0:0:
494,215,97827,6,0,L|500:134,1,80.5000015354157,6|4,0:0|0:0,0:0:0:0:
415,23,98027,2,0,L|421:104,1,80.5000015354157,4|4,0:0|0:0,0:0:0:0:
500,51,98227,2,0,L|503:10,4,40.2500007677078,14|0|12|0|12,0:0|0:0|0:0|0:0|0:0,0:0:0:0:
415,182,98527,2,0,L|418:222,6,40.2500007677078,4|0|14|8|12|8|12,0:0|0:0|0:0|0:0|0:0|0:0|0:0,0:0:0:0:
330,143,98927,5,4,0:0:0:0:
251,179,99027,2,0,P|211:183|171:179,1,80.5000015354157,6|4,0:0|0:0,0:0:0:0:
175,85,99227,2,0,P|215:81|255:86,1,80.5000015354157,4|4,0:0|0:0,0:0:0:0:
256,199,99427,5,12,0:0:0:0:
209,262,99827,1,12,0:0:0:0:
135,290,100227,2,0,B|127:322|127:322|127:359,2,70,8|8|8,0:0|0:0|0:0,0:0:0:0:
64,253,100627,1,12,0:0:0:0:
23,185,100927,1,8,0:0:0:0:
23,185,101027,5,12,0:0:0:0:
70,122,101227,1,8,0:0:0:0:
144,94,101427,1,12,0:0:0:0:
215,131,101627,1,8,0:0:0:0:
256,199,101827,6,0,L|256:234,7,35,14|8|12|8|12|8|12|8,0:0|0:0|0:0|0:0|0:0|0:0|0:0|0:0,0:0:0:0:
256,265,102227,2,0,L|256:300,7,35,14|8|12|8|12|8|12|8,0:0|0:0|0:0|0:0|0:0|0:0|0:0|0:0,0:0:0:0:
233,341,102627,6,0,P|211:265|157:206,1,161.000003070831,6|12,0:0|0:0,0:0:0:0:
76,255,102927,1,12,0:0:0:0:
8,187,103027,2,0,P|2:148|4:108,1,80.5000015354157,14|4,0:0|0:0,0:0:0:0:
157,206,103227,2,0,P|163:245|161:285,1,80.5000015354157,4|4,0:0|0:0,0:0:0:0:
31,182,103427,6,0,P|24:142|26:102,1,80.5000015354157,14|4,0:0|0:0,0:0:0:0:
180,201,103627,2,0,P|186:240|184:280,1,80.5000015354157,4|4,0:0|0:0,0:0:0:0:
110,350,103827,2,0,L|26:348,2,80.5000015354157,6|4|12,0:0|0:0|0:0,0:0:0:0:
200,370,104127,1,4,0:0:0:0:
271,311,104227,6,0,P|312:303|370:311,1,80.5000015354157,6|4,0:0|0:0,0:0:0:0:
183,280,104427,2,0,P|177:241|179:201,1,80.5000015354157,4|4,0:0|0:0,0:0:0:0:
308,152,104627,2,0,L|311:192,4,40.2500007677078,14|0|12|0|12,0:0|0:0|0:0|0:0|0:0,0:0:0:0:
274,270,104927,2,0,L|270:317,6,40.2500007677078,4|0|14|8|12|8|12,0:0|0:0|0:0|0:0|0:0|0:0|0:0,0:0:0:0:
382,231,105327,1,4,0:0:0:0:
467,269,105427,2,0,L|464:352,1,80.5000015354157,6|4,0:0|0:0,0:0:0:0:
379,311,105627,2,0,L|382:231,1,80.5000015354157,4|4,0:0|0:0,0:0:0:0:
335,120,105827,5,12,0:0:0:0:
259,129,106227,1,12,0:0:0:0:
183,138,106627,1,12,0:0:0:0:
107,147,106827,1,8,0:0:0:0:
31,156,107027,1,12,0:0:0:0:
29,81,107427,5,12,0:0:0:0:
106,92,107627,1,8,0:0:0:0:
181,100,107827,1,12,0:0:0:0:
258,109,108027,1,8,0:0:0:0:
335,120,108227,5,10,0:0:0:0:
335,130,108277,1,8,0:0:0:0:
336,140,108327,1,8,0:0:0:0:
336,151,108377,1,8,0:0:0:0:
337,161,108427,2,0,L|372:160,4,35,8|8|8|8|0,0:0|0:0|0:0|0:0|0:0,0:0:0:0:
166,348,109027,6,0,P|116:331|64:328,1,105.000004005432,6|0,1:2|0:0,0:0:0:0:
154,257,109427,2,0,P|203:273|255:276,1,105.000004005432,0|2,0:0|0:0,0:0:0:0:
326,238,109727,1,2,0:0:0:0:
326,238,109827,2,0,L|326:129,1,105.000004005432,10|0,0:0|0:0,0:0:0:0:
435,95,110227,1,0,0:0:0:0:
435,95,110327,1,2,0:0:0:0:
435,95,110427,1,0,1:2:0:0:
435,95,110527,1,2,0:0:0:0:
435,95,110627,6,0,L|435:204,2,105.000004005432,2|0|2,1:2|0:0|1:2,0:0:0:0:
326,133,111227,1,2,0:0:0:0:
216,91,111427,2,0,P|164:87|113:95,1,105.000004005432,10|0,0:0|1:2,0:0:0:0:
132,210,111827,1,0,0:0:0:0:
132,210,111927,1,2,0:0:0:0:
132,210,112027,1,2,1:2:0:0:
132,210,112127,1,0,0:0:0:0:
132,210,112227,6,0,P|184:215|236:207,1,105.000004005432,2|0,1:2|0:0,0:0:0:0:
326,133,112627,2,0,B|314:180|314:180|320:236,1,105.000004005432,0|2,0:0|0:0,0:0:0:0:
364,308,112927,1,2,0:0:0:0:
364,308,113027,2,0,L|256:314,1,105.000004005432,10|0,0:0|0:0,0:0:0:0:
153,360,113427,1,0,1:2:0:0:
153,360,113527,1,2,0:0:0:0:
153,360,113627,1,0,0:0:0:0:
153,360,113727,1,2,0:0:0:0:
153,360,113827,6,0,L|45:354,2,105.000004005432,0|2|0,1:2|0:0|0:0,0:0:0:0:
188,288,114327,1,2,0:0:0:0:
188,288,114427,1,2,1:2:0:0:
84,236,114627,2,0,P|75:184|80:132,1,105.000004005432,10|0,0:0|0:0,0:0:0:0:
184,184,115027,2,0,P|192:235|187:287,1,105.000004005432,2|0,0:0|0:0,0:0:0:0:
301,270,115427,6,0,B|353:278|353:278|405:267,2,105.000004005432,2|0|0,1:2|0:0|0:0,0:0:0:0:
350,164,116027,1,2,0:0:0:0:
350,164,116127,1,2,0:0:0:0:
350,164,116227,2,0,L|347:56,1,105.000004005432,10|0,0:0|0:0,0:0:0:0:
239,16,116627,1,0,0:0:0:0:
239,16,116727,1,2,0:0:0:0:
239,16,116827,1,0,1:0:0:0:
239,16,116927,1,2,0:0:0:0:
239,16,117027,6,0,L|242:124,2,105.000004005432,2|0|2,1:2|0:0|1:2,0:0:0:0:
164,47,117527,1,0,0:0:0:0:
164,47,117627,1,2,0:0:0:0:
224,145,117827,2,0,P|275:153|327:145,1,105.000004005432,10|2,0:0|1:2,0:0:0:0:
430,93,118227,1,0,0:0:0:0:
430,93,118327,1,2,0:0:0:0:
430,93,118427,1,2,1:2:0:0:
430,93,118527,1,0,0:0:0:0:
430,93,118627,6,0,B|438:145|438:145|429:196,1,105.000004005432,2|0,1:2|0:0,0:0:0:0:
328,253,119027,2,0,B|306:300|306:300|271:339,1,105.000004005432,0|2,0:0|0:0,0:0:0:0:
192,334,119327,1,2,0:0:0:0:
192,334,119427,2,0,L|188:221,1,105.000004005432,10|0,0:0|0:0,0:0:0:0:
121,148,119827,1,0,1:0:0:0:
121,148,119927,1,2,0:0:0:0:
121,148,120027,1,0,0:0:0:0:
121,148,120127,1,2,0:0:0:0:
120,147,120227,6,0,P|172:154|224:145,2,105.000004005432,0|2|0,1:0|0:0|0:0,0:0:0:0:
54,82,120727,1,2,0:0:0:0:
54,82,120827,1,2,1:2:0:0:
161,39,121027,6,0,B|241:34|241:34|288:54|288:54|366:49,2,210.000008010865,10|0|4,0:0|0:0|0:0,0:0:0:0:
