osu file format v14

[General]
AudioFilename: audio.mp3
AudioLeadIn: 0
PreviewTime: 64227
Countdown: 0
SampleSet: Soft
StackLeniency: 0.4
Mode: 0
LetterboxInBreaks: 0
WidescreenStoryboard: 0

[Editor]
Bookmarks: 13027
DistanceSpacing: 1
BeatDivisor: 2
GridSize: 32
TimelineZoom: 5.699997

[Metadata]
Title:Hold Angel
TitleUnicode:Hold Angel
Artist:you
ArtistUnicode:you
Creator:Deppyforce
Version:Easy
Source:
Tags:600 bpm speedcore rsi deathstream derandom_otaku akitoshi corinn snownino_
BeatmapID:1229667
BeatmapSetID:580695

[Difficulty]
HPDrainRate:3.5
CircleSize:3
OverallDifficulty:4
ApproachRate:3.5
SliderMultiplier:0.600000005960464
SliderTickRate:1

[Events]
//Background and Video events
0,0,"d.jpg",0,0
//Break Periods
2,64227,68447
//Storyboard Layer 0 (Background)
//Storyboard Layer 1 (Fail)
//Storyboard Layer 2 (Pass)
//Storyboard Layer 3 (Foreground)
//Storyboard Sound Samples

[TimingPoints]
227,200,4,2,1,60,1,0
12227,-100,4,2,88,60,0,0
12239,-100,4,2,88,20,0,0
13027,-100,4,2,88,50,0,0
18627,-100,4,2,1,40,0,0
19427,-100,4,2,88,50,0,0
22627,-100,4,2,0,50,0,0
25027,-100,4,2,88,60,0,0
25039,-100,4,2,88,20,0,0
25627,-100,4,2,99,60,0,0
25827,-100,4,2,1,60,0,0
29027,-100,4,2,2,60,0,0
30227,-100,4,2,1,60,0,0
30627,-100,4,2,2,60,0,0
31427,-100,4,2,88,80,0,0
31477,-100,4,2,2,60,0,0
31627,-100,4,2,88,80,0,0
31677,-100,4,2,2,60,0,0
31827,-100,4,2,88,80,0,0
31877,-100,4,2,2,60,0,0
32027,-100,4,2,1,60,0,0
35427,-100,4,2,2,60,0,0
35527,-100,4,2,1,60,0,0
35627,-100,4,2,2,60,0,0
35727,-100,4,2,1,60,0,0
35827,-100,4,2,2,60,0,0
35927,-100,4,2,1,60,0,0
36127,-100,4,2,2,60,0,0
36327,-100,4,2,1,60,0,0
36527,-100,4,2,2,60,0,0
36727,-100,4,2,1,60,0,0
37027,-100,4,2,2,60,0,0
37127,-100,4,2,1,60,0,0
37227,-100,4,2,2,60,0,0
37327,-100,4,2,1,60,0,0
37427,-100,4,2,2,60,0,0
37827,-100,4,2,88,80,0,0
38027,-100,4,2,1,60,0,0
39227,-100,4,2,2,60,0,0
39427,-100,4,2,1,60,0,0
40027,-100,4,2,2,60,0,0
40227,-100,4,2,1,60,0,0
40627,-100,4,2,2,60,0,0
40827,-100,4,2,1,60,0,0
41227,-100,4,2,2,60,0,0
41827,-100,4,2,1,60,0,0
42427,-100,4,2,2,60,0,0
42727,-100,4,2,1,60,0,0
43427,-100,4,2,2,60,0,0
43727,-100,4,2,1,60,0,0
44027,-100,4,2,2,60,0,0
44227,-100,4,2,1,60,0,0
44527,-100,4,2,2,60,0,0
44627,-100,4,2,1,60,0,0
44727,-100,4,2,2,60,0,0
44827,-100,4,2,1,60,0,0
45027,-100,4,2,2,60,0,0
45427,-100,4,2,1,60,0,0
45727,-100,4,2,2,60,0,0
45827,-100,4,2,1,60,0,0
46027,-100,4,2,2,60,0,0
46127,-100,4,2,1,60,0,0
46427,-100,4,2,2,60,0,0
46527,-100,4,2,1,60,0,0
46627,-100,4,2,2,60,0,0
46727,-100,4,2,1,60,0,0
47027,-100,4,2,2,60,0,0
47127,-100,4,2,1,60,0,0
47627,-100,4,2,2,60,0,0
48027,-100,4,2,1,60,0,0
48227,-100,4,2,2,60,0,0
48327,-100,4,2,1,60,0,0
48427,-100,4,2,2,60,0,0
48527,-100,4,2,1,60,0,0
49027,-100,4,2,2,60,0,0
49227,-100,4,2,1,60,0,0
49327,-100,4,2,2,60,0,0
49427,-100,4,2,1,60,0,0
49527,-100,4,2,2,60,0,0
49727,-100,4,2,1,60,0,0
49827,-100,4,2,2,60,0,0
49927,-100,4,2,1,60,0,0
50427,-100,4,2,2,60,0,0
50627,-100,4,2,88,80,0,0
51427,-100,4,2,0,40,0,0
69827,-100,4,1,0,70,0,0
70627,-100,4,2,88,50,0,0
77027,-100,4,2,88,60,0,0
77227,-100,4,3,1,25,0,0
77827,-100,4,3,1,30,0,0
78627,-100,4,2,88,60,0,0
78827,-100,4,3,1,35,0,0
79427,-100,4,3,1,40,0,0
80227,-100,4,2,88,70,0,0
80627,-100,4,3,1,45,0,0
81027,-100,4,2,88,70,0,0
81427,-100,4,3,1,50,0,0
81827,-100,4,2,1,60,0,0
82627,-100,4,2,1,60,0,0
82802,-100,4,2,1,10,0,0
83427,-100,4,2,2,60,0,1
84627,-100,4,2,1,60,0,1
85027,-100,4,2,2,60,0,1
85827,-100,4,2,1,60,0,1
86627,-100,4,2,2,60,0,1
88227,-100,4,2,1,60,0,1
89427,-100,4,2,1,80,0,1
89827,-100,4,2,2,60,0,1
91027,-100,4,2,1,60,0,1
91427,-100,4,2,2,60,0,1
92227,-100,4,2,1,60,0,1
93027,-100,4,2,2,60,0,1
94627,-100,4,2,1,60,0,1
95427,-100,4,1,0,70,0,0
95827,-100,4,2,1,60,0,0
96227,-100,4,2,2,60,0,1
99427,-100,4,2,88,70,0,0
101827,-100,4,2,2,60,0,0
101927,-100,4,2,1,60,0,0
102627,-100,4,2,2,60,0,1
105827,-100,4,2,88,80,0,0
108227,-100,4,2,2,60,0,0
109027,-100,4,2,99,50,0,0
121827,-100,4,2,0,50,0,0

[Colours]
Combo1 : 101,97,126
Combo2 : 55,95,123

[HitObjects]
361,179,13027,6,0,B|331:157|331:157|248:165,2,120.000001192093,6|0|2,0:0|0:0|0:0,0:0:0:0:
433,83,14227,1,0,0:0:0:0:
482,193,14627,2,0,L|477:314,1,120.000001192093,2|2,0:0|0:0,0:0:0:0:
357,299,15427,2,0,L|361:179,1,120.000001192093,2|0,0:0|0:0,0:0:0:0:
255,119,16227,6,0,P|197:110|141:130,2,120.000001192093,2|0|2,0:0|0:0|0:0,0:0:0:0:
206,229,17427,1,0,0:0:0:0:
88,193,17827,2,0,L|84:73,2,120.000001192093,0|0|14,0:0|0:0|0:0,0:0:0:0:
256,21,19427,6,0,P|288:70|343:91,2,120.000001192093,6|0|2,0:0|0:0|0:0,0:0:0:0:
177,112,20627,1,0,0:0:0:0:
206,229,21027,2,0,L|328:225,1,120.000001192093,2|2,0:0|0:0,0:0:0:0:
297,108,21827,2,0,L|178:112,1,120.000001192093,2|0,0:0|0:0,0:0:0:0:
88,193,22627,6,0,B|76:232|76:232|93:309,2,120.000001192093,6|0|2,0:0|0:0|0:0,0:0:0:0:
206,229,23827,1,0,0:0:0:0:
265,331,24227,2,0,P|324:341|382:326,1,120.000001192093,4|0,0:0|0:0,0:0:0:0:
383,207,25027,2,0,B|371:148|371:148|397:94|397:94|386:35,1,180.000001788139,6|4,0:0|0:1,0:0:0:0:
329,58,25827,6,0,P|270:64|212:50,1,120.000001192093,6|4,0:0|0:0,0:0:0:0:
271,156,26627,2,0,B|260:215|260:215|222:263,2,120.000001192093,14|12|6,0:0|0:0|0:0,0:0:0:0:
212,50,27827,1,6,0:0:0:0:
103,101,28227,2,0,L|110:222,1,120.000001192093,14|12,0:0|0:0,0:0:0:0:
223,261,29027,6,0,P|281:272|338:255,2,120.000001192093,6|6|6,0:0|0:0|0:0,0:0:0:0:
155,360,30227,1,14,0:0:0:0:
38,332,30627,2,0,P|58:275|51:216,1,120.000001192093,6|6,0:0|0:0,0:0:0:0:
4,105,31427,2,0,P|67:168|155:179,1,180.000001788139,14|8,0:0|0:0,0:0:0:0:
202,142,32227,6,0,L|323:145,1,120.000001192093,6|4,0:0|0:0,0:0:0:0:
342,263,33027,2,0,L|221:260,2,120.000001192093,14|12|6,0:0|0:0|0:0,0:0:0:0:
323,145,34227,1,6,0:0:0:0:
434,182,34627,2,0,P|441:124|415:71,1,120.000001192093,14|12,0:0|0:0,0:0:0:0:
323,145,35427,6,0,B|264:152|264:152|207:131,2,120.000001192093,6|6|6,0:0|0:0|0:0,0:0:0:0:
434,182,36627,1,6,0:0:0:0:
341,262,37027,2,0,B|305:309|305:309|295:369,2,120.000001192093,14|6|14,0:0|0:0|0:0,0:0:0:0:
434,182,38227,1,2,0:0:0:0:
448,303,38627,6,0,P|389:295|341:262,1,120.000001192093,6|12,0:0|0:0,0:0:0:0:
321,144,39427,2,0,P|262:136|202:150,1,120.000001192093,6|12,0:0|0:0,0:0:0:0:
99,214,40227,2,0,L|93:95,2,120.000001192093,6|6|14,0:0|0:0|0:0,0:0:0:0:
204,270,41427,1,4,0:0:0:0:
101,334,41827,6,0,P|44:320|0:280,2,120.000001192093,6|12|6,0:0|0:0|0:0,0:0:0:0:
99,214,43027,1,14,0:0:0:0:
204,270,43427,2,0,P|248:230|306:216,2,120.000001192093,6|14|6,0:0|0:0|0:0,0:0:0:0:
99,214,44627,1,6,0:0:0:0:
206,149,45027,6,0,B|223:91|223:91|208:33,1,120.000001192093,14|0,0:0|0:0,0:0:0:0:
101,98,45827,2,0,B|84:156|84:156|99:214,1,120.000001192093,6|12,0:0|0:0,0:0:0:0:
204,270,46627,2,0,L|323:265,1,120.000001192093,14|6,0:0|0:0,0:0:0:0:
325,144,47427,2,0,L|206:149,1,120.000001192093,14|4,0:0|0:0,0:0:0:0:
101,97,48227,6,0,P|137:51|193:30,2,120.000001192093,6|12|14,0:0|0:0|0:0,0:0:0:0:
206,149,49427,1,6,0:0:0:0:
105,212,49827,2,0,P|146:254|203:270,2,120.000001192093,14|14|14,0:0|0:0|0:0,0:0:0:0:
206,149,51027,1,2,0:0:0:0:
309,217,51427,6,0,B|301:365|451:366|451:366|558:260|445:159,1,480.000004768371,6|2,0:0|0:0,0:0:0:0:
309,217,54627,6,0,B|457:224|458:74|458:74|352:-32|251:80,1,480.000004768371,2|2,0:0|0:0,0:0:0:0:
251,79,57827,6,0,B|363:180|256:286|256:286|106:285|114:136,1,480.000004768371,2|2,0:0|0:0,0:0:0:0:
114,137,61027,6,0,B|215:25|321:131|321:131|320:281|171:273,1,480.000004768371,2|2,0:0|0:0,0:0:0:0:
166,327,69827,5,2,0:2:0:0:
166,327,70627,6,0,B|239:350|314:333|314:333|341:311|346:283,1,210.000002086162,2|2,0:0|0:0,0:0:0:0:
228,190,71827,1,2,0:0:0:0:
110,218,72227,6,0,P|131:119|219:68,1,210.000002086162,2|2,0:0|0:0,0:0:0:0:
361,118,73427,1,2,0:0:0:0:
413,10,73827,6,0,B|400:69|400:69|436:213,1,210.000002086162,2|2,0:0|0:0,0:0:0:0:
328,318,75027,1,2,0:0:0:0:
223,253,75427,6,0,B|192:249|166:263|166:263|86:291|23:242,1,210.000002086162,2|2,0:0|0:0,0:0:0:0:
113,128,76627,2,0,L|172:131,2,60.0000005960464,2|2|4,0:0|0:0|0:0,0:0:0:0:
256,192,77227,12,2,82627,0:0:0:0:
447,47,83427,5,6,0:0:0:0:
373,99,83727,2,0,P|314:105|257:90,1,120.000001192093,6|6,0:0|0:0,0:0:0:0:
155,200,84627,1,6,0:0:0:0:
42,158,85027,2,0,L|33:38,1,120.000001192093,6|4,0:0|0:0,0:0:0:0:
146,80,85827,2,0,L|155:200,1,120.000001192093,4|14,0:0|0:0,0:0:0:0:
203,309,86627,5,6,0:0:0:0:
241,227,86927,2,0,P|296:248|356:242,1,120.000001192093,6|6,0:0|0:0,0:0:0:0:
457,134,87827,1,6,0:0:0:0:
376,44,88227,2,0,L|256:52,1,120.000001192093,6|4,0:0|0:0,0:0:0:0:
221,167,89027,2,0,L|399:155,1,180.000001788139,12|2,0:0|0:0,0:0:0:0:
457,134,89827,5,6,0:0:0:0:
498,214,90127,2,0,P|508:272|488:328,1,120.000001192093,6|6,0:0|0:0,0:0:0:0:
345,372,91027,1,6,0:0:0:0:
229,344,91427,2,0,B|226:284|226:284|241:227,1,120.000001192093,6|4,0:0|0:0,0:0:0:0:
145,154,92227,2,0,B|195:120|195:120|252:104,1,120.000001192093,4|14,0:0|0:0,0:0:0:0:
349,174,93027,5,6,0:0:0:0:
434,148,93327,2,0,P|399:102|341:87,1,120.000001192093,6|6,0:0|0:0,0:0:0:0:
242,200,94227,1,6,0:0:0:0:
137,141,94627,2,0,L|129:21,2,120.000001192093,6|4|2,0:0|0:0|0:2,0:0:0:0:
31,355,96227,6,0,P|86:335|146:339,1,120.000001192093,6|14,0:0|0:0,0:0:0:0:
235,258,97027,2,0,P|230:317|251:373,2,120.000001192093,14|6|6,0:0|0:0|0:0,0:0:0:0:
331,185,98227,1,14,0:0:0:0:
450,193,98627,2,0,L|444:312,2,120.000001192093,14|6|12,0:0|0:0|0:0,0:0:0:0:
331,184,99827,6,0,P|350:128|392:87,2,120.000001192093,12|8|12,0:0|0:0|0:0,0:0:0:0:
235,258,101027,2,0,P|197:211|143:187,1,120.000001192093,12|12,0:0|0:0,0:0:0:0:
66,279,101827,2,0,B|101:230|101:230|88:110,1,180.000001788139,14|12,0:0|0:0,0:0:0:0:
50,63,102627,6,0,L|169:57,1,120.000001192093,6|14,0:0|0:0,0:0:0:0:
254,141,103427,2,0,P|255:200|235:256,2,120.000001192093,14|6|6,0:0|0:0|0:0,0:0:0:0:
362,192,104627,1,14,0:0:0:0:
480,176,105027,2,0,P|480:116|501:60,2,120.000001192093,14|6|12,0:0|0:0|0:0,0:0:0:0:
435,287,106227,6,0,B|376:299|376:299|328:335,2,120.000001192093,12|12|12,0:0|0:0|0:0,0:0:0:0:
362,192,107427,2,0,L|237:193,1,120.000001192093,12|12,0:0|0:0,0:0:0:0:
121,192,108227,1,10,0:0:0:0:
308,42,109027,6,0,L|437:47,2,120.000001192093,6|0|10,1:2|0:0|0:0,0:0:0:0:
209,111,110227,1,0,0:0:0:0:
94,79,110627,2,0,P|94:139|120:191,2,120.000001192093,2|2|10,1:2|1:2|0:0,0:0:0:0:
3,301,112227,6,0,B|59:278|59:278|237:291,1,240.000002384186,2|10,1:2|0:0,0:0:0:0:
338,358,113427,1,0,1:2:0:0:
435,286,113827,2,0,P|454:200|425:115,1,180.000001788139,0|2,1:2|1:2,0:0:0:0:
375,84,114627,2,0,L|256:94,1,120.000001192093,10|2,0:0|0:0,0:0:0:0:
142,50,115427,6,0,P|135:108|158:163,2,120.000001192093,2|0|10,1:2|0:0|0:0,0:0:0:0:
255,94,116627,1,0,0:0:0:0:
356,29,117027,2,0,B|415:17|415:17|473:28,2,120.000001192093,2|2|10,1:2|1:2|0:0,0:0:0:0:
158,163,118627,6,0,P|274:151|368:221,1,240.000002384186,2|10,1:2|0:0,0:0:0:0:
450,134,119827,1,0,1:0:0:0:
485,247,120227,2,0,P|435:320|349:339,1,180.000001788139,0|2,1:0|1:2,0:0:0:0:
294,315,121027,2,0,B|236:302|236:302|176:314,1,120.000001192093,10|0,0:0|0:0,0:0:0:0:
70,370,121827,5,4,0:0:0:0:
