osu file format v14

[General]
AudioFilename: audio.mp3
AudioLeadIn: 0
PreviewTime: 64227
Countdown: 0
SampleSet: Soft
StackLeniency: 0.4
Mode: 0
LetterboxInBreaks: 0
WidescreenStoryboard: 0

[Editor]
Bookmarks: 13027,48227
DistanceSpacing: 0.6
BeatDivisor: 2
GridSize: 4
TimelineZoom: 5.699997

[Metadata]
Title:Hold Angel
TitleUnicode:Hold Angel
Artist:you
ArtistUnicode:you
Creator:Deppyforce
Version:Beginner
Source:
Tags:600 bpm speedcore rsi deathstream derandom_otaku akitoshi corinn snownino_
BeatmapID:1244864
BeatmapSetID:580695

[Difficulty]
HPDrainRate:2
CircleSize:2
OverallDifficulty:2
ApproachRate:2.5
SliderMultiplier:0.400000005960464
SliderTickRate:1

[Events]
//Background and Video events
0,0,"d.jpg",0,0
//Break Periods
2,51627,56327
2,64227,69127
//Storyboard Layer 0 (Background)
//Storyboard Layer 1 (Fail)
//Storyboard Layer 2 (Pass)
//Storyboard Layer 3 (Foreground)
//Storyboard Sound Samples

[TimingPoints]
227,200,4,2,1,60,1,0
12227,-100,4,2,88,60,0,0
12239,-100,4,2,88,20,0,0
13027,-100,4,2,88,50,0,0
18627,-100,4,2,1,40,0,0
19427,-100,4,2,88,50,0,0
22627,-100,4,2,0,50,0,0
25027,-100,4,2,88,60,0,0
25039,-100,4,2,88,20,0,0
25627,-100,4,2,99,60,0,0
25827,-100,4,2,1,60,0,0
29027,-100,4,2,2,60,0,0
30227,-100,4,2,1,60,0,0
30627,-100,4,2,2,60,0,0
31427,-100,4,2,88,80,0,0
31477,-100,4,2,2,60,0,0
31627,-100,4,2,88,80,0,0
31677,-100,4,2,2,60,0,0
31827,-100,4,2,88,80,0,0
31877,-100,4,2,2,60,0,0
32027,-100,4,2,1,60,0,0
35427,-100,4,2,2,60,0,0
35527,-100,4,2,1,60,0,0
35627,-100,4,2,2,60,0,0
35727,-100,4,2,1,60,0,0
35827,-100,4,2,2,60,0,0
35927,-100,4,2,1,60,0,0
36127,-100,4,2,2,60,0,0
36327,-100,4,2,1,60,0,0
36527,-100,4,2,2,60,0,0
36727,-100,4,2,1,60,0,0
37027,-100,4,2,2,60,0,0
37127,-100,4,2,1,60,0,0
37227,-100,4,2,2,60,0,0
37327,-100,4,2,1,60,0,0
37427,-100,4,2,2,60,0,0
37827,-100,4,2,88,80,0,0
38027,-100,4,2,1,60,0,0
39227,-100,4,2,2,60,0,0
39427,-100,4,2,1,60,0,0
40027,-100,4,2,2,60,0,0
40227,-100,4,2,1,60,0,0
40627,-100,4,2,2,60,0,0
40827,-100,4,2,1,60,0,0
41227,-100,4,2,2,60,0,0
41827,-100,4,2,1,60,0,0
42427,-100,4,2,2,60,0,0
42727,-100,4,2,1,60,0,0
43427,-100,4,2,2,60,0,0
43727,-100,4,2,1,60,0,0
44027,-100,4,2,2,60,0,0
44227,-100,4,2,1,60,0,0
44527,-100,4,2,2,60,0,0
44627,-100,4,2,1,60,0,0
44727,-100,4,2,2,60,0,0
44827,-100,4,2,1,60,0,0
45027,-100,4,2,2,60,0,0
45427,-100,4,2,1,60,0,0
45727,-100,4,2,2,60,0,0
45827,-100,4,2,1,60,0,0
46027,-100,4,2,2,60,0,0
46127,-100,4,2,1,60,0,0
46427,-100,4,2,2,60,0,0
46527,-100,4,2,1,60,0,0
46627,-100,4,2,2,60,0,0
46727,-100,4,2,1,60,0,0
47027,-100,4,2,2,60,0,0
47127,-100,4,2,1,60,0,0
47627,-100,4,2,2,60,0,0
48027,-100,4,2,1,60,0,0
48227,-100,4,2,2,60,0,0
48327,-100,4,2,1,60,0,0
48427,-100,4,2,2,60,0,0
48527,-100,4,2,1,60,0,0
49027,-100,4,2,2,60,0,0
49227,-100,4,2,1,60,0,0
49327,-100,4,2,2,60,0,0
49427,-100,4,2,1,60,0,0
49527,-100,4,2,2,60,0,0
49727,-100,4,2,1,60,0,0
49827,-100,4,2,2,60,0,0
49927,-100,4,2,1,60,0,0
50427,-100,4,2,2,60,0,0
50627,-100,4,2,88,80,0,0
51427,-100,4,2,0,40,0,0
69827,-100,4,1,0,70,0,0
70627,-100,4,2,88,50,0,0
77027,-100,4,2,88,60,0,0
77227,-100,4,3,1,25,0,0
77827,-100,4,3,1,30,0,0
78627,-100,4,2,88,60,0,0
78827,-100,4,3,1,35,0,0
79427,-100,4,3,1,40,0,0
80227,-100,4,2,88,70,0,0
80627,-100,4,3,1,45,0,0
81027,-100,4,2,88,70,0,0
81427,-100,4,3,1,50,0,0
81827,-100,4,2,1,60,0,0
82627,-100,4,2,1,60,0,0
82802,-100,4,2,1,10,0,0
83427,-100,4,2,2,60,0,1
84627,-100,4,2,1,60,0,1
85027,-100,4,2,2,60,0,1
85827,-100,4,2,1,60,0,1
86627,-100,4,2,2,60,0,1
88227,-100,4,2,1,60,0,1
89427,-100,4,2,1,80,0,1
89827,-100,4,2,2,60,0,1
91027,-100,4,2,1,60,0,1
91427,-100,4,2,2,60,0,1
92227,-100,4,2,1,60,0,1
93027,-100,4,2,2,60,0,1
94627,-100,4,2,1,60,0,1
95427,-100,4,1,0,70,0,0
95827,-100,4,2,1,60,0,0
96227,-100,4,2,2,60,0,1
99427,-100,4,2,88,70,0,0
101827,-100,4,2,2,60,0,0
101927,-100,4,2,1,60,0,0
102627,-100,4,2,2,60,0,1
105827,-100,4,2,88,80,0,0
108227,-100,4,2,2,60,0,0
109027,-100,4,2,99,50,0,0
121827,-100,4,2,0,50,0,0

[Colours]
Combo1 : 101,97,126
Combo2 : 55,95,123

[HitObjects]
29,314,13027,6,0,B|107:295|107:295|185:310,1,160.000002384186,6|2,0:0|0:0,0:0:0:0:
274,346,14627,2,0,B|352:365|352:365|430:349,1,160.000002384186,2|2,0:0|0:0,0:0:0:0:
491,275,16227,2,0,L|487:113,2,160.000002384186,2|2|0,0:0|0:0|0:0,0:0:0:0:
396,259,18627,1,14,0:0:0:0:
320,200,19427,6,0,B|234:179|166:226|166:226|93:281|9:246,1,320.000004768371,6|2,0:0|0:0,0:0:0:0:
22,150,21827,1,2,0:0:0:0:
96,87,22627,2,0,L|255:95,2,160.000002384186,6|2|4,0:0|0:0|0:0,0:0:0:0:
4,58,25027,1,6,0:0:0:0:
99,33,25827,6,0,P|179:35|250:71,1,160.000002384186,6|14,0:0|0:0,0:0:0:0:
319,137,27427,2,0,B|327:217|327:217|304:293,2,160.000002384186,6|14|6,0:0|0:0|0:0,0:0:0:0:
229,172,29827,2,0,L|64:172,1,160.000002384186,6|6,0:0|0:0,0:0:0:0:
32,260,31427,1,14,0:0:0:0:
63,350,32227,6,0,P|142:338|221:342,1,160.000002384186,6|14,0:0|0:0,0:0:0:0:
304,293,33827,2,0,P|383:304|462:300,2,160.000002384186,6|14|6,0:0|0:0|0:0,0:0:0:0:
226,236,36227,2,0,B|220:155|220:155|232:77,1,160.000002384186,6|14,0:0|0:0,0:0:0:0:
310,20,37827,1,14,0:0:0:0:
399,54,38627,6,0,L|392:222,2,160.000002384186,6|6|6,0:0|0:0|0:0,0:0:0:0:
310,20,41027,1,14,0:0:0:0:
230,76,41827,2,0,P|152:63|74:78,1,160.000002384186,6|6,0:0|0:0,0:0:0:0:
75,174,43427,2,0,P|153:187|231:172,1,160.000002384186,6|6,0:0|0:0,0:0:0:0:
317,127,45027,6,0,B|396:112|396:112|477:145,2,160.000002384186,14|6|14,0:0|0:0|0:0,0:0:0:0:
231,171,47427,1,14,0:0:0:0:
162,235,48227,2,0,P|201:303|263:353,1,160.000002384186,6|14,0:0|0:0,0:0:0:0:
334,289,49827,2,0,P|293:220|231:170,1,160.000002384186,14|14,0:0|0:0,0:0:0:0:
139,143,51427,5,6,0:0:0:0:
275,203,57827,6,0,B|175:196|175:196|160:315|160:315|261:324,2,320.000004768371,2|2|2,0:0|0:0|0:0,0:0:0:0:
448,285,62627,1,2,0:0:0:0:
487,115,70627,6,0,B|411:104|336:155|336:155|319:120|319:120|265:149|201:134,1,320.000004768371,2|2,0:0|0:0,0:0:0:0:
20,69,73827,2,0,B|132:136|121:272|121:272|42:263,2,320.000004768371,2|2|4,0:0|0:0|0:0,0:0:0:0:
256,192,77227,12,12,81827,0:0:0:0:
333,214,83427,6,0,L|339:377,2,160.000002384186,6|4|6,0:0|0:0|0:0,0:0:0:0:
413,161,85827,1,4,0:0:0:0:
326,119,86627,2,0,P|247:129|167:119,1,160.000002384186,6|4,0:0|0:0,0:0:0:0:
168,23,88227,2,0,B|247:12|247:12|326:23,1,160.000002384186,6|12,0:0|0:0,0:0:0:0:
410,70,89827,6,0,L|414:229,2,160.000002384186,6|4|6,0:0|0:0|0:0,0:0:0:0:
313,72,92227,1,4,0:0:0:0:
236,130,93027,2,0,P|213:206|227:284,1,160.000002384186,6|4,0:0|0:0,0:0:0:0:
133,305,94627,2,0,B|71:254|71:254|57:175,1,160.000002384186,6|2,0:0|0:2,0:0:0:0:
115,99,96227,6,0,B|234:89|234:89|310:116|310:116|429:103,2,320.000004768371,6|6|12,0:0|0:0|0:0,0:0:0:0:
19,85,100227,1,8,0:0:0:0:
57,175,101027,2,0,B|44:217|54:254|54:254|67:292|56:332,1,160.000002384186,12|14,0:0|0:0,0:0:0:0:
152,329,102627,6,0,B|251:312|345:359|345:359|423:251,2,320.000004768371,6|6|12,0:0|0:0|0:0,0:0:0:0:
56,332,106627,1,12,0:0:0:0:
101,246,107427,2,0,P|155:189|176:113,1,160.000002384186,12|10,0:0|0:0,0:0:0:0:
96,61,109027,6,0,B|256:67|256:67|354:198,1,320.000004768371,6|2,1:2|1:2,0:0:0:0:
441,160,111427,1,10,0:0:0:0:
510,225,112227,2,0,P|509:304|481:379,2,160.000002384186,2|10|0,1:2|0:0|1:2,0:0:0:0:
441,160,114627,1,10,0:0:0:0:
372,227,115427,6,0,B|299:256|216:223|216:223|172:289|172:289|93:275,1,320.000004768371,2|2,1:2|1:2,0:0:0:0:
45,192,117827,1,10,0:0:0:0:
105,116,118627,2,0,P|67:57|11:101,2,160.000002384186,2|10|0,1:2|0:0|1:0,0:0:0:0:
189,163,121027,1,10,0:0:0:0:
256,94,121827,5,4,0:0:0:0:
