osu file format v14

[General]
AudioFilename: audio.mp3
AudioLeadIn: 0
PreviewTime: 64227
Countdown: 0
SampleSet: None
StackLeniency: 0.4
Mode: 0
LetterboxInBreaks: 0
WidescreenStoryboard: 1

[Editor]
Bookmarks: 13027
DistanceSpacing: 0.2
BeatDivisor: 4
GridSize: 32
TimelineZoom: 5.699997

[Metadata]
Title:Hold Angel
TitleUnicode:Hold Angel
Artist:you
ArtistUnicode:you
Creator:Deppyforce
Version:Another
Source:
Tags:600 bpm speedcore rsi deathstream derandom_otaku akitoshi corinn snownino_
BeatmapID:1235124
BeatmapSetID:580695

[Difficulty]
HPDrainRate:7
CircleSize:4
OverallDifficulty:8.2
ApproachRate:9.4
SliderMultiplier:1.8
SliderTickRate:1

[Events]
//Background and Video events
0,0,"d.jpg",0,0
//Break Periods
2,64227,69257
//Storyboard Layer 0 (Background)
//Storyboard Layer 1 (Fail)
//Storyboard Layer 2 (Pass)
//Storyboard Layer 3 (Foreground)
//Storyboard Sound Samples

[TimingPoints]
227,200,4,2,1,60,1,0
12227,-100,4,2,88,60,0,0
12239,-100,4,2,88,20,0,0
13027,-125,4,2,88,50,0,0
18627,-125,4,2,1,40,0,0
19427,-125,4,2,88,50,0,0
22627,-125,4,2,0,50,0,0
25027,-125,4,2,88,60,0,0
25039,-125,4,2,88,20,0,0
25627,-125,4,2,99,60,0,0
25827,-100,4,2,1,60,0,0
29027,-100,4,2,2,60,0,0
30227,-100,4,2,1,60,0,0
30627,-100,4,2,2,60,0,0
31427,-100,4,2,88,80,0,0
31477,-100,4,2,2,60,0,0
31627,-100,4,2,88,80,0,0
31677,-100,4,2,2,60,0,0
31827,-100,4,2,88,80,0,0
31877,-100,4,2,2,60,0,0
32027,-100,4,2,1,60,0,0
35427,-100,4,2,2,60,0,0
35527,-100,4,2,1,60,0,0
35627,-100,4,2,2,60,0,0
35727,-100,4,2,1,60,0,0
35827,-100,4,2,2,60,0,0
35927,-100,4,2,1,60,0,0
36127,-100,4,2,2,60,0,0
36327,-100,4,2,1,60,0,0
36527,-100,4,2,2,60,0,0
36727,-100,4,2,1,60,0,0
37027,-100,4,2,2,60,0,0
37127,-100,4,2,1,60,0,0
37227,-100,4,2,2,60,0,0
37327,-100,4,2,1,60,0,0
37427,-100,4,2,2,60,0,0
37827,-100,4,2,88,80,0,0
38027,-100,4,2,1,60,0,0
39227,-100,4,2,2,60,0,0
39427,-100,4,2,1,60,0,0
40027,-100,4,2,2,60,0,0
40227,-100,4,2,1,60,0,0
40627,-100,4,2,2,60,0,0
40827,-100,4,2,1,60,0,0
41227,-100,4,2,2,60,0,0
41827,-100,4,2,1,60,0,0
42427,-100,4,2,2,60,0,0
42727,-100,4,2,1,60,0,0
43427,-100,4,2,2,60,0,0
43727,-100,4,2,1,60,0,0
44027,-100,4,2,2,60,0,0
44227,-100,4,2,1,60,0,0
44527,-100,4,2,2,60,0,0
44627,-100,4,2,1,60,0,0
44727,-100,4,2,2,60,0,0
44827,-100,4,2,1,60,0,0
45027,-100,4,2,2,60,0,0
45427,-100,4,2,1,60,0,0
45727,-100,4,2,2,60,0,0
45827,-100,4,2,1,60,0,0
46027,-100,4,2,2,60,0,0
46127,-100,4,2,1,60,0,0
46427,-100,4,2,2,60,0,0
46527,-100,4,2,1,60,0,0
46627,-100,4,2,2,60,0,0
46727,-100,4,2,1,60,0,0
47027,-100,4,2,2,60,0,0
47127,-100,4,2,1,60,0,0
47627,-100,4,2,2,60,0,0
48027,-100,4,2,1,60,0,0
48227,-100,4,2,2,60,0,0
48327,-100,4,2,1,60,0,0
48427,-100,4,2,2,60,0,0
48527,-100,4,2,1,60,0,0
49027,-100,4,2,2,60,0,0
49227,-100,4,2,1,60,0,0
49327,-100,4,2,2,60,0,0
49427,-100,4,2,1,60,0,0
49527,-100,4,2,2,60,0,0
49727,-100,4,2,1,60,0,0
49827,-100,4,2,2,60,0,0
49927,-100,4,2,1,60,0,0
50427,-100,4,2,2,60,0,0
50627,-100,4,2,88,80,0,0
51427,-400,4,2,0,40,0,0
69827,-200,4,1,0,70,0,0
70627,-111.111111111111,4,2,88,50,0,0
77027,-111.111111111111,4,2,88,60,0,0
77227,-111.111111111111,4,3,1,25,0,0
77827,-111.111111111111,4,3,1,30,0,0
78627,-111.111111111111,4,2,88,60,0,0
78827,-111.111111111111,4,3,1,35,0,0
79427,-111.111111111111,4,3,1,40,0,0
80227,-111.111111111111,4,2,88,70,0,0
80627,-111.111111111111,4,3,1,45,0,0
81027,-111.111111111111,4,2,88,70,0,0
81427,-111.111111111111,4,3,1,50,0,0
81827,-111.111111111111,4,2,1,60,0,0
82627,-111.111111111111,4,2,1,60,0,0
82802,-111.111111111111,4,2,1,10,0,0
83427,-86.9565217391304,4,2,2,60,0,1
84627,-86.9565217391304,4,2,1,60,0,1
85027,-86.9565217391304,4,2,2,60,0,1
85827,-86.9565217391304,4,2,1,60,0,1
86627,-86.9565217391304,4,2,2,60,0,1
88227,-86.9565217391304,4,2,1,60,0,1
89427,-86.9565217391304,4,2,1,80,0,1
89827,-86.9565217391304,4,2,2,60,0,1
91027,-86.9565217391304,4,2,1,60,0,1
91427,-86.9565217391304,4,2,2,60,0,1
92227,-86.9565217391304,4,2,1,60,0,1
93027,-86.9565217391304,4,2,2,60,0,1
94627,-86.9565217391304,4,2,1,60,0,1
95427,-125,4,1,0,70,0,0
95827,-125,4,2,1,60,0,0
96227,-86.9565217391304,4,2,2,60,0,1
99427,-100,4,2,88,70,0,0
101827,-100,4,2,2,60,0,0
101927,-100,4,2,1,60,0,0
102627,-83.3333333333333,4,2,2,60,0,1
105827,-100,4,2,88,80,0,0
108227,-100,4,2,2,60,0,0
109027,-133.333333333333,4,2,99,50,0,0
121827,-133.333333333333,4,2,0,50,0,0

[Colours]
Combo1 : 101,97,126
Combo2 : 55,95,123

[HitObjects]
15,360,13027,6,0,P|67:371|120:361,1,108,6|0,0:0|0:0,0:0:0:0:
191,310,13227,1,0,0:0:0:0:
191,310,13427,6,0,L|183:166,1,144,0|2,0:0|0:0,0:0:0:0:
313,238,13727,1,2,0:0:0:0:
313,238,13827,2,0,P|289:211|275:179,1,72,2|0,0:0|0:0,0:0:0:0:
395,102,14027,2,0,P|383:135|362:165,1,72,0|0,0:0|0:0,0:0:0:0:
236,100,14227,1,0,0:0:0:0:
236,100,14327,1,2,0:0:0:0:
236,100,14427,1,0,0:0:0:0:
236,100,14527,1,2,0:0:0:0:
236,100,14627,6,0,P|271:93|307:97,1,72,2|0,0:0|0:0,0:0:0:0:
129,32,14827,2,0,L|136:175,1,144,0|2,0:0|0:0,0:0:0:0:
236,100,15127,1,0,0:0:0:0:
236,100,15227,2,0,L|232:28,1,72,2|0,0:0|0:0,0:0:0:0:
34,124,15427,2,0,L|30:52,1,72,2|0,0:0|0:0,0:0:0:0:
140,247,15627,2,0,L|137:176,1,72,0|0,0:0|0:0,0:0:0:0:
129,32,15827,1,0,0:0:0:0:
129,32,15927,1,2,0:0:0:0:
129,32,16027,1,2,0:0:0:0:
129,32,16127,1,0,0:0:0:0:
128,32,16227,6,0,P|180:17|232:28,1,108,2|0,0:0|0:0,0:0:0:0:
315,2,16427,2,0,P|363:24|395:67,1,108,0|0,0:0|0:0,0:0:0:0:
477,101,16627,2,0,P|498:149|495:203,1,108,0|0,0:0|0:0,0:0:0:0:
348,252,16827,1,2,0:0:0:0:
348,252,16927,1,2,0:0:0:0:
348,252,17027,6,0,L|422:243,1,72,2|0,0:0|0:0,0:0:0:0:
500,360,17227,2,0,L|491:286,1,72,0|0,0:0|0:0,0:0:0:0:
299,343,17427,1,0,0:0:0:0:
299,343,17527,1,2,0:0:0:0:
299,343,17627,1,0,0:0:0:0:
299,343,17727,1,2,0:0:0:0:
299,343,17827,6,0,L|407:330,1,108,0|0,0:0|0:0,0:0:0:0:
419,243,18027,2,0,L|348:252,1,72,2|0,0:0|0:0,0:0:0:0:
494,203,18227,1,0,0:0:0:0:
494,203,18327,1,2,0:0:0:0:
494,203,18427,2,0,P|499:167|494:132,1,72,2|0,0:0|0:0,0:0:0:0:
320,116,18627,2,0,L|324:151,15,36,14|8|12|8|12|8|12|8|12|8|12|8|12|8|12|8,0:0|0:0|0:0|0:0|0:0|0:0|0:0|0:0|0:0|0:0|0:0|0:0|0:0|0:0|0:0|0:0,0:0:0:0:
278,215,19427,6,0,P|225:224|178:248,1,108,6|0,0:0|0:0,0:0:0:0:
140,329,19627,1,0,0:0:0:0:
140,329,19827,6,0,B|152:279|152:279|106:192,1,144,0|2,0:0|0:0,0:0:0:0:
186,74,20127,1,2,0:0:0:0:
186,74,20227,2,0,L|184:146,1,72,2|0,0:0|0:0,0:0:0:0:
102,34,20427,2,0,L|100:106,1,72,0|0,0:0|0:0,0:0:0:0:
49,237,20627,1,0,0:0:0:0:
49,237,20727,1,2,0:0:0:0:
49,237,20827,1,0,0:0:0:0:
49,237,20927,1,2,0:0:0:0:
48,236,21027,6,0,P|80:220|107:197,1,72,2|0,0:0|0:0,0:0:0:0:
275,295,21227,2,0,P|211:327|140:329,1,144,0|2,0:0|0:0,0:0:0:0:
264,224,21527,1,0,0:0:0:0:
264,223,21627,2,0,L|275:295,1,72,2|0,0:0|0:0,0:0:0:0:
172,165,21827,6,0,L|107:196,1,72,2|0,0:0|0:0,0:0:0:0:
264,224,22027,2,0,L|328:192,1,72,0|0,0:0|0:0,0:0:0:0:
363,375,22227,1,0,0:0:0:0:
363,375,22327,1,2,0:0:0:0:
363,375,22427,1,2,0:0:0:0:
363,375,22527,1,0,0:0:0:0:
363,375,22627,6,0,P|350:299|354:247,1,108,6|0,0:0|0:0,0:0:0:0:
264,224,22827,2,0,P|323:174|370:152,1,108,0|0,0:0|0:0,0:0:0:0:
345,62,23027,2,0,P|417:88|460:118,1,108,0|0,0:0|0:0,0:0:0:0:
497,197,23227,1,2,0:0:0:0:
497,197,23327,1,2,0:0:0:0:
497,197,23427,6,0,B|503:233|503:233|498:268,1,72,2|0,0:0|0:0,0:0:0:0:
351,231,23627,2,0,B|345:195|345:195|350:160,1,72,0|0,0:0|0:0,0:0:0:0:
470,361,23827,1,0,0:0:0:0:
470,361,23927,1,2,0:0:0:0:
470,361,24027,1,0,0:0:0:0:
470,361,24127,1,2,0:0:0:0:
470,361,24227,6,0,L|362:374,1,108,4|0,0:0|0:0,0:0:0:0:
294,309,24427,2,0,L|222:318,1,72,2|0,0:0|0:0,0:0:0:0:
351,231,24627,1,0,0:0:0:0:
351,231,24727,1,0,0:0:0:0:
351,231,24827,1,2,0:0:0:0:
134,360,25027,5,6,0:0:0:0:
134,360,25627,1,4,0:1:0:0:
45,342,25827,6,0,P|23:303|18:258,1,90,6|4,0:0|0:0,0:0:0:0:
193,295,26027,2,0,P|170:333|134:360,1,90,4|4,0:0|0:0,0:0:0:0:
77,191,26227,2,0,P|121:191|162:209,1,90,4|4,0:0|0:0,0:0:0:0:
278,265,26427,1,6,0:0:0:0:
248,179,26527,1,6,0:0:0:0:
266,89,26627,6,0,L|310:84,7,45,14|8|12|8|12|8|12|8,0:0|0:0|0:0|0:0|0:0|0:0|0:0|0:0,0:0:0:0:
350,107,27027,2,0,L|355:151,7,45,12|8|14|8|12|8|14|8,0:0|0:0|0:0|0:0|0:0|0:0|0:0|0:0,0:0:0:0:
416,201,27427,6,0,P|460:205|504:196,1,90,6|4,0:0|0:0,0:0:0:0:
438,111,27627,2,0,P|394:102|350:107,1,90,4|4,0:0|0:0,0:0:0:0:
411,289,27827,2,0,P|420:245|416:201,1,90,6|4,0:0|0:0,0:0:0:0:
232,260,28027,2,0,P|275:268|320:264,1,90,6|4,0:0|0:0,0:0:0:0:
490,366,28227,6,0,L|494:321,7,45,14|8|12|8|12|8|12|8,0:0|0:0|0:0|0:0|0:0|0:0|0:0|0:0,0:0:0:0:
456,293,28627,2,0,L|411:289,7,45,12|8|14|8|14|8|12|8,0:0|0:0|0:0|0:0|0:0|0:0|0:0|0:0,0:0:0:0:
320,263,29027,6,0,P|276:268|232:260,1,90,6|4,0:0|0:0,0:0:0:0:
179,188,29227,1,4,0:0:0:0:
143,269,29327,1,4,0:0:0:0:
228,350,29427,2,0,L|232:260,1,90,6|4,0:0|0:0,0:0:0:0:
357,183,29627,1,6,0:0:0:0:
320,263,29727,1,6,0:0:0:0:
268,179,29827,6,0,L|272:89,1,90,6|4,0:0|0:0,0:0:0:0:
147,179,30027,2,0,L|143:269,1,90,4|4,0:0|0:0,0:0:0:0:
184,101,30227,2,0,L|139:98,7,45,14|8|12|8|14|8|12|8,0:0|0:0|0:0|0:0|0:0|0:0|0:0|0:0,0:0:0:0:
70,138,30627,6,0,P|103:167|147:179,1,90,6|4,0:0|0:0,0:0:0:0:
252,59,30827,2,0,P|218:29|175:19,1,90,4|4,0:0|0:0,0:0:0:0:
71,138,31027,2,0,L|67:228,1,90,6|4,0:0|0:0,0:0:0:0:
146,354,31227,1,4,0:0:0:0:
143,268,31327,1,6,0:0:0:0:
70,314,31427,6,0,P|159:307|247:326,3,180,14|12|14|8,0:0|0:0|0:0|0:0,0:0:0:0:
250,335,32077,1,8,0:0:0:0:
253,343,32127,1,8,0:0:0:0:
256,351,32177,1,8,0:0:0:0:
259,359,32227,6,0,L|352:354,1,90,6|4,0:0|0:0,0:0:0:0:
305,178,32427,2,0,L|310:268,1,90,4|4,0:0|0:0,0:0:0:0:
485,224,32627,2,0,L|395:228,1,90,4|4,0:0|0:0,0:0:0:0:
300,88,32827,1,6,0:0:0:0:
381,129,32927,1,6,0:0:0:0:
305,178,33027,6,0,L|261:183,7,45,14|8|12|8|12|8|12|8,0:0|0:0|0:0|0:0|0:0|0:0|0:0|0:0,0:0:0:0:
217,202,33427,2,0,L|173:197,7,45,12|8|14|8|12|8|14|8,0:0|0:0|0:0|0:0|0:0|0:0|0:0|0:0,0:0:0:0:
101,163,33827,6,0,B|92:118|92:118|98:74,1,90,6|4,0:0|0:0,0:0:0:0:
107,240,34027,2,0,B|72:270|72:270|31:287,1,90,4|4,0:0|0:0,0:0:0:0:
172,197,34227,2,0,B|215:211|215:211|250:238,1,90,6|4,0:0|0:0,0:0:0:0:
101,163,34427,2,0,B|56:152|56:152|19:128,1,90,6|4,0:0|0:0,0:0:0:0:
30,317,34627,6,0,L|74:322,7,45,14|8|12|8|12|8|12|8,0:0|0:0|0:0|0:0|0:0|0:0|0:0|0:0,0:0:0:0:
118,341,35027,2,0,L|162:336,7,45,12|8|14|8|14|8|12|8,0:0|0:0|0:0|0:0|0:0|0:0|0:0|0:0,0:0:0:0:
234,367,35427,6,0,P|293:334|359:324,1,135,6|0,0:0|0:0,0:0:0:0:
389,337,35627,2,0,P|331:302|289:250,1,135,4|0,0:0|0:0,0:0:0:0:
286,218,35827,2,0,P|285:285|260:347,1,135,6|8,0:0|0:0,0:0:0:0:
253,355,36027,1,14,0:0:0:0:
244,361,36077,1,8,0:0:0:0:
235,367,36127,1,14,0:0:0:0:
118,341,36227,5,6,0:0:0:0:
147,257,36327,2,0,L|191:261,4,45,12|8|14|8|12,0:0|0:0|0:0|0:0|0:0,0:0:0:0:
32,359,36627,2,0,P|77:359|118:341,1,90,6|4,0:0|0:0,0:0:0:0:
59,273,36827,2,0,L|14:268,3,45,14|8|12|8,0:0|0:0|0:0|0:0,0:0:0:0:
6,262,37027,6,0,P|31:199|26:132,1,135,14|0,0:0|0:0,0:0:0:0:
13,103,37227,2,0,P|79:108|142:84,1,135,4|0,0:0|0:0,0:0:0:0:
191,24,37427,1,6,0:0:0:0:
180,152,37527,1,4,0:0:0:0:
233,92,37627,2,0,L|367:86,1,135,4|0,0:0|0:0,0:0:0:0:
375,79,37827,6,0,P|481:81|403:152,1,270,14|0,0:0|0:0,0:0:0:0:
403,152,38427,2,0,L|407:198,3,45,8|8|8|8,0:0|0:0|0:0|0:0,0:0:0:0:
437,269,38627,6,0,P|471:240|485:198,1,90,6|4,0:0|0:0,0:0:0:0:
365,300,38827,2,0,L|361:346,3,45,12|8|12|8,0:0|0:0|0:0|0:0,0:0:0:0:
375,375,39027,2,0,L|285:368,2,90,12|4|6,0:0|0:0|0:0,0:0:0:0:
286,289,39327,1,6,0:0:0:0:
286,289,39427,2,0,L|241:292,7,45,6|0|4|0|4|0|4|0,0:0|0:0|0:0|0:0|0:0|0:0|0:0|0:0,0:0:0:0:
200,312,39827,2,0,L|203:356,4,45,12|8|14|8|4,0:0|0:0|0:0|0:0|0:0,0:0:0:0:
285,368,40127,1,6,0:0:0:0:
335,226,40227,6,0,P|270:212|204:225,1,135,6|0,0:0|0:0,0:0:0:0:
175,238,40427,2,0,L|167:148,2,90,4|4|6,0:0|0:0|0:0,0:0:0:0:
112,300,40727,1,4,0:0:0:0:
29,265,40827,2,0,P|18:221|21:176,1,90,6|4,0:0|0:0,0:0:0:0:
27,170,40977,1,0,0:0:0:0:
35,164,41027,6,0,L|80:162,4,45,14|8|12|8|12,0:0|0:0|0:0|0:0|0:0,0:0:0:0:
92,81,41327,1,4,0:0:0:0:
92,81,41427,1,4,0:0:0:0:
167,148,41527,1,6,0:0:0:0:
234,73,41627,1,6,0:0:0:0:
159,6,41727,1,4,0:0:0:0:
245,83,41827,6,0,P|312:91|377:72,1,135,6|0,0:0|0:0,0:0:0:0:
398,48,42027,2,0,P|390:114|409:179,1,135,4|0,0:0|0:0,0:0:0:0:
431,201,42227,2,0,L|479:199,2,45,12|8|12,0:0|0:0|0:0,0:0:0:0:
418,291,42427,2,0,L|507:287,1,90,6|6,0:0|0:0,0:0:0:0:
346,234,42627,5,6,0:0:0:0:
346,234,42727,2,0,L|301:236,5,45,12|8|12|8|12|8,0:0|0:0|0:0|0:0|0:0|0:0,0:0:0:0:
268,267,43027,2,0,L|270:311,6,45,14|8|12|8|12|0|4,0:0|0:0|0:0|0:0|0:0|0:0|0:0,0:0:0:0:
206,220,43377,1,0,0:0:0:0:
200,228,43427,6,0,P|158:240|114:233,1,90,6|4,0:0|0:0,0:0:0:0:
194,134,43627,2,0,P|181:91|188:47,1,90,4|0,0:0|0:0,0:0:0:0:
284,119,43827,2,0,L|283:164,4,45,14|8|12|8|12,0:0|0:0|0:0|0:0|0:0,0:0:0:0:
348,53,44127,1,4,0:0:0:0:
429,94,44227,6,0,L|474:85,6,45,6|0|4|0|4|0|4,0:0|0:0|0:0|0:0|0:0|0:0|0:0,0:0:0:0:
419,185,44627,2,0,L|329:184,1,90,6|4,0:0|0:0,0:0:0:0:
429,277,44827,2,0,L|474:286,3,45,12|8|12|8,0:0|0:0|0:0|0:0,0:0:0:0:
438,353,45027,6,0,P|394:345|362:314,1,90,14|4,0:0|0:0,0:0:0:0:
297,267,45227,2,0,L|288:222,2,45,4|0|4,0:0|0:0|0:0,0:0:0:0:
199,342,45427,2,0,L|288:346,1,90,0|4,0:0|0:0,0:0:0:0:
202,247,45627,2,0,L|193:202,2,45,6|0|6,0:0|0:0|0:0,0:0:0:0:
73,289,45827,5,6,0:0:0:0:
73,289,45927,2,0,L|118:291,2,45,12|8|12,0:0|0:0|0:0,0:0:0:0:
79,210,46127,1,4,0:0:0:0:
1,247,46227,2,0,L|0:202,4,45,12|8|14|8|12,0:0|0:0|0:0|0:0|0:0,0:0:0:0:
33,366,46527,1,14,0:0:0:0:
41,371,46577,1,8,0:0:0:0:
50,373,46627,6,0,L|139:376,1,90,14|0,0:0|0:0,0:0:0:0:
215,343,46827,6,0,L|259:341,3,45,4|0|4|0,0:0|0:0|0:0|0:0,0:0:0:0:
292,355,47027,2,0,P|288:310|297:267,1,90,6|12,0:0|0:0,0:0:0:0:
458,317,47227,2,0,P|413:321|370:313,1,90,14|4,0:0|0:0,0:0:0:0:
368,181,47427,6,0,L|373:226,4,45,14|8|12|8|6,0:0|0:0|0:0|0:0|0:0,0:0:0:0:
297,267,47727,1,4,0:0:0:0:
259,162,47827,2,0,P|275:121|306:89,2,90,4|6|6,0:0|0:0|0:0,0:0:0:0:
253,169,48077,1,0,0:0:0:0:
247,175,48127,1,4,0:0:0:0:
241,181,48177,1,0,0:0:0:0:
235,187,48227,6,0,L|145:185,1,90,6|4,0:0|0:0,0:0:0:0:
72,72,48427,1,4,0:0:0:0:
157,97,48527,2,0,L|201:97,4,45,4|0|12|8|12,0:0|0:0|0:0|0:0|0:0,0:0:0:0:
60,160,48827,2,0,L|15:159,3,45,14|0|14|0,0:0|0:0|0:0|0:0,0:0:0:0:
9,166,49027,6,0,P|2:210|9:254,1,90,14|4,0:0|0:0,0:0:0:0:
86,323,49227,1,12,0:0:0:0:
86,323,49277,1,8,0:0:0:0:
86,323,49327,1,4,0:0:0:0:
171,261,49427,2,0,L|261:258,1,90,6|4,0:0|0:0,0:0:0:0:
270,369,49627,2,0,L|181:366,1,90,4|8,0:0|0:0,0:0:0:0:
335,308,49827,6,0,P|372:251|384:185,1,135,14|0,0:0|0:0,0:0:0:0:
388,151,50027,2,0,L|437:144,8,45,12|8|12|8|14|8|12|8|12,0:0|0:0|0:0|0:0|0:0|0:0|0:0|0:0|0:0,0:0:0:0:
298,144,50527,1,4,0:0:0:0:
260,258,50627,5,14,0:0:0:0:
450,261,50827,5,0,0:0:0:0:
298,144,51027,5,2,0:0:0:0:
354,329,51227,5,0,0:0:0:0:
431,144,51427,6,0,P|448:128|461:110,3,45,6|0|0|0,0:0|0:0|0:0|0:0,0:0:0:0:
369,97,52227,2,0,P|372:74|370:52,3,45,0|0|0|0,0:0|0:0|0:0|0:0,0:0:0:0:
398,261,53027,6,0,P|414:276|427:294,3,45,2|0|0|0,0:0|0:0|0:0|0:0,0:0:0:0:
335,308,53827,2,0,P|338:330|336:352,3,45,0|0|0|0,0:0|0:0|0:0|0:0,0:0:0:0:
364,144,54627,6,0,P|380:128|393:110,3,45,2|0|0|0,0:0|0:0|0:0|0:0,0:0:0:0:
301,97,55427,2,0,P|304:74|302:52,3,45,0|0|0|0,0:0|0:0|0:0|0:0,0:0:0:0:
330,261,56227,6,0,P|346:276|359:294,3,45,2|0|0|0,0:0|0:0|0:0|0:0,0:0:0:0:
267,308,57027,2,0,P|270:330|268:352,3,45,0|0|0|0,0:0|0:0|0:0|0:0,0:0:0:0:
59,282,57827,6,0,L|14:284,1,45,2|0,0:0|0:0,0:0:0:0:
104,280,58227,2,0,L|59:282,1,45,0|0,0:0|0:0,0:0:0:0:
149,278,58627,2,0,L|104:280,1,45,0|0,0:0|0:0,0:0:0:0:
194,276,59027,2,0,L|149:278,1,45,0|0,0:0|0:0,0:0:0:0:
132,99,59427,6,0,L|87:97,1,45,2|0,0:0|0:0,0:0:0:0:
177,101,59827,2,0,L|132:99,1,45,0|0,0:0|0:0,0:0:0:0:
222,103,60227,2,0,L|177:101,1,45,0|0,0:0|0:0,0:0:0:0:
267,105,60627,2,0,L|222:103,1,45,0|0,0:0|0:0,0:0:0:0:
82,314,61027,6,0,L|37:316,1,45,2|0,0:0|0:0,0:0:0:0:
127,312,61427,2,0,L|82:314,1,45,0|0,0:0|0:0,0:0:0:0:
172,310,61827,2,0,L|127:312,1,45,0|0,0:0|0:0,0:0:0:0:
217,308,62227,2,0,L|172:310,1,45,0|0,0:0|0:0,0:0:0:0:
155,131,62627,6,0,L|110:129,1,45,2|0,0:0|0:0,0:0:0:0:
200,133,63027,2,0,L|155:131,1,45,0|0,0:0|0:0,0:0:0:0:
245,135,63427,2,0,L|200:133,1,45,0|0,0:0|0:0,0:0:0:0:
290,137,63827,2,0,L|245:135,1,45,0|0,0:0|0:0,0:0:0:0:
121,57,69827,6,0,B|147:93|186:117|186:117|154:149|168:200|168:200|118:204|90:239,1,270,2|0,0:2|2:0,0:0:0:0:
73,269,70627,6,0,B|194:257|194:257|165:286,1,161.999995056153,2|0,0:0|0:0,0:0:0:0:
127,355,70927,2,0,B|5:366|5:366|34:337,1,161.999995056153,2|0,0:0|0:0,0:0:0:0:
205,353,71227,2,0,L|285:355,1,80.9999975280763,0|2,0:0|0:0,0:0:0:0:
299,346,71527,5,2,0:0:0:0:
299,346,71627,1,0,0:0:0:0:
314,261,71727,1,0,0:0:0:0:
314,261,71827,2,0,L|397:275,2,80.9999975280763,2|2|2,0:0|0:0|0:0,0:0:0:0:
384,361,72127,1,0,0:0:0:0:
384,360,72227,6,0,P|414:287|480:243,1,161.999995056153,2|0,0:0|0:0,0:0:0:0:
314,261,72527,2,0,P|265:197|260:118,1,161.999995056153,2|0,0:0|0:0,0:0:0:0:
435,161,72827,2,0,P|395:167|355:159,1,80.9999975280763,0|2,0:0|0:0,0:0:0:0:
347,152,73127,5,2,0:0:0:0:
347,152,73227,1,0,0:0:0:0:
260,118,73327,1,0,0:0:0:0:
260,118,73427,2,0,L|188:155,2,80.9999975280763,2|0|0,0:0|0:0|0:0,0:0:0:0:
92,126,73727,1,2,0:0:0:0:
92,126,73827,6,0,L|83:287,1,161.999995056153,2|0,0:0|0:0,0:0:0:0:
179,160,74127,2,0,L|170:321,1,161.999995056153,2|0,0:0|0:0,0:0:0:0:
265,193,74427,2,0,L|261:274,1,80.9999975280763,0|2,0:0|0:0,0:0:0:0:
276,292,74727,5,2,0:0:0:0:
276,292,74827,1,0,0:0:0:0:
351,235,74927,1,0,0:0:0:0:
351,235,75027,2,0,L|394:166,2,80.9999975280763,2|0|0,0:0|0:0|0:0,0:0:0:0:
420,62,75327,1,2,0:0:0:0:
420,62,75427,6,0,B|373:73|338:64|338:64|301:55|259:65,1,161.999995056153,2|0,0:0|0:0,0:0:0:0:
143,153,75727,2,0,B|190:142|225:151|225:151|262:160|304:150,1,161.999995056153,2|0,0:0|0:0,0:0:0:0:
163,60,76027,2,0,L|80:67,1,80.9999975280763,0|2,0:0|0:0,0:0:0:0:
70,77,76327,5,2,0:0:0:0:
70,77,76427,1,0,0:0:0:0:
143,153,76527,1,0,0:0:0:0:
143,153,76627,2,0,L|245:128,2,80.9999975280763,2|2|2,0:0|0:0|0:0,0:0:0:0:
273,25,76927,1,0,0:0:0:0:
273,25,77027,5,4,0:0:0:0:
256,192,77077,12,0,81727,0:0:0:0:
436,129,81827,5,12,0:0:0:0:
437,136,81877,1,8,0:0:0:0:
438,143,81927,1,12,0:0:0:0:
439,150,81977,1,8,0:0:0:0:
440,157,82027,2,0,L|483:154,3,40.4999987640381,12|8|12|8,0:0|0:0|0:0|0:0,0:0:0:0:
509,221,82227,5,12,0:0:0:0:
508,228,82277,1,8,0:0:0:0:
507,235,82327,1,12,0:0:0:0:
506,242,82377,1,8,0:0:0:0:
505,249,82427,2,0,L|462:246,4,40.4999987640381,12|8|12|8|2,0:0|0:0|0:0|0:0|0:0,0:0:0:0:
104,348,83427,6,0,P|175:274|201:174,1,207.000003948212,6|4,0:0|0:0,0:0:0:0:
13,243,83727,2,0,P|69:222|99:192,1,103.500001974106,6|4,0:0|0:0,0:0:0:0:
134,94,83927,1,4,0:0:0:0:
134,94,84027,1,4,0:0:0:0:
201,174,84127,2,0,L|305:168,1,103.500001974106,6|4,0:0|0:0,0:0:0:0:
304,75,84327,5,6,0:0:0:0:
215,47,84427,1,4,0:0:0:0:
134,94,84527,1,4,0:0:0:0:
201,174,84627,2,0,L|203:227,7,51.7500009870529,6|0|6|0|6|0|4|0,0:0|0:0|0:0|0:0|0:0|0:0|0:0|0:0,0:0:0:0:
220,257,85027,6,0,P|323:249|420:283,1,207.000003948212,6|4,0:0|0:0,0:0:0:0:
450,93,85327,2,0,P|419:134|400:182,1,103.500001974106,6|4,0:0|0:0,0:0:0:0:
420,283,85527,2,0,P|434:332|461:376,1,103.500001974106,4|4,0:0|0:0,0:0:0:0:
487,218,85727,1,6,0:0:0:0:
487,218,85827,6,0,L|435:210,7,51.7500009870529,4|0|6|0|4|0|4|0,0:0|0:0|0:0|0:0|0:0|0:0|0:0|0:0,0:0:0:0:
400,182,86227,2,0,L|348:174,3,51.7500009870529,14|8|12|8,0:0|0:0|0:0|0:0,0:0:0:0:
329,162,86427,2,0,L|277:154,3,51.7500009870529,12|8|14|8,0:0|0:0|0:0|0:0,0:0:0:0:
200,174,86627,6,0,P|280:109|318:14,1,207.000003948212,6|4,0:0|0:0,0:0:0:0:
385,95,86927,2,0,L|494:89,1,103.500001974106,6|4,0:0|0:0,0:0:0:0:
318,14,87127,1,4,0:0:0:0:
318,14,87227,1,4,0:0:0:0:
318,14,87327,2,0,L|209:8,1,103.500001974106,6|4,0:0|0:0,0:0:0:0:
200,174,87527,5,6,0:0:0:0:
165,87,87627,1,4,0:0:0:0:
78,123,87727,1,4,0:0:0:0:
113,209,87827,2,0,P|116:260|95:306,1,103.500001974106,6|4,0:0|0:0,0:0:0:0:
200,174,88027,2,0,P|226:217|270:244,1,103.500001974106,4|6,0:0|0:0,0:0:0:0:
208,346,88227,5,6,0:0:0:0:
208,346,88277,1,0,0:0:0:0:
208,346,88327,2,0,L|193:295,13,51.7500009870529,4|0|4|0|6|0|4|0|4|0|4|0|6|0,0:0|0:0|0:0|0:0|0:0|0:0|0:0|0:0|0:0|0:0|0:0|0:0|0:0|0:0,0:0:0:0:
221,258,89027,6,0,L|272:243,3,51.7500009870529,12|8|14|8,0:0|0:0|0:0|0:0,0:0:0:0:
293,258,89227,2,0,L|308:309,3,51.7500009870529,12|8|12|8,0:0|0:0|0:0|0:0,0:0:0:0:
367,355,89427,6,0,P|418:358|467:345,1,103.500001974106,10|2,0:0|0:0,0:0:0:0:
468,339,89627,2,0,P|418:352|367:348,1,103.500001974106,2|0,0:0|0:0,0:0:0:0:
256,168,89827,6,0,B|307:150|307:150|459:171,1,207.000003948212,6|4,0:0|0:0,0:0:0:0:
367,39,90127,2,0,L|269:74,1,103.500001974106,6|4,0:0|0:0,0:0:0:0:
169,204,90327,1,4,0:0:0:0:
182,110,90427,1,4,0:0:0:0:
146,23,90527,2,0,L|42:17,1,103.500001974106,6|4,0:0|0:0,0:0:0:0:
80,208,90727,5,6,0:0:0:0:
80,208,90827,1,4,0:0:0:0:
80,208,90927,1,4,0:0:0:0:
80,208,91027,2,0,L|132:204,7,51.7500009870529,6|0|6|0|6|0|4|0,0:0|0:0|0:0|0:0|0:0|0:0|0:0|0:0,0:0:0:0:
169,204,91427,6,0,P|80:253|44:348,1,207.000003948212,6|4,0:0|0:0,0:0:0:0:
214,284,91727,2,0,L|110:290,1,103.500001974106,6|4,0:0|0:0,0:0:0:0:
130,384,91927,2,0,L|233:377,1,103.500001974106,4|4,0:0|0:0,0:0:0:0:
305,315,92127,1,6,0:0:0:0:
305,315,92227,6,0,L|301:263,7,51.7500009870529,4|0|6|0|4|0|4|0,0:0|0:0|0:0|0:0|0:0|0:0|0:0|0:0,0:0:0:0:
277,234,92627,2,0,L|289:183,3,51.7500009870529,14|8|12|8,0:0|0:0|0:0|0:0,0:0:0:0:
283,159,92827,2,0,L|310:114,3,51.7500009870529,12|8|14|8,0:0|0:0|0:0|0:0,0:0:0:0:
277,45,93027,6,0,B|315:82|315:82|468:69,1,207.000003948212,6|4,0:0|0:0,0:0:0:0:
385,156,93327,2,0,P|334:164|283:159,1,103.500001974106,6|4,0:0|0:0,0:0:0:0:
111,109,93527,1,4,0:0:0:0:
111,109,93627,1,4,0:0:0:0:
111,109,93727,2,0,P|162:101|214:107,1,103.500001974106,6|4,0:0|0:0,0:0:0:0:
276,271,93927,5,6,0:0:0:0:
134,261,94027,1,4,0:0:0:0:
255,186,94127,1,4,0:0:0:0:
202,317,94227,2,0,P|158:344|107:345,1,103.500001974106,6|4,0:0|0:0,0:0:0:0:
276,271,94427,2,0,P|327:271|370:298,1,103.500001974106,4|6,0:0|0:0,0:0:0:0:
489,374,94627,5,6,0:0:0:0:
489,374,94677,1,0,0:0:0:0:
489,374,94727,1,4,0:0:0:0:
489,374,94777,1,0,0:0:0:0:
489,374,94827,2,0,L|495:322,3,51.7500009870529,4|0|6|0,0:0|0:0|0:0|0:0,0:0:0:0:
475,290,95027,2,0,L|481:238,7,51.7500009870529,4|0|4|0|4|0|6|0,0:0|0:0|0:0|0:0|0:0|0:0|0:0|0:0,0:0:0:0:
460,205,95427,6,0,P|337:217|382:333,1,288,2|0,0:2|0:0,0:0:0:0:
403,258,95927,1,0,0:0:0:0:
316,308,96027,2,0,L|280:304,3,36,8|8|8|8,0:0|0:0|0:0|0:0,0:0:0:0:
202,317,96227,6,0,P|150:318|107:345,1,103.500001974106,6|4,0:0|0:0,0:0:0:0:
18,277,96427,1,12,0:0:0:0:
25,270,96477,1,8,0:0:0:0:
31,261,96527,1,12,0:0:0:0:
35,251,96577,1,8,0:0:0:0:
38,242,96627,2,0,B|46:190|46:190|32:140,1,103.500001974106,14|4,0:0|0:0,0:0:0:0:
140,233,96827,2,0,B|182:202|182:202|208:158,1,103.500001974106,4|4,0:0|0:0,0:0:0:0:
302,204,97027,6,0,L|354:203,2,51.7500009870529,14|0|4,0:0|0:0|0:0,0:0:0:0:
289,103,97227,2,0,P|247:72|197:64,1,103.500001974106,4|4,0:0|0:0,0:0:0:0:
219,252,97427,1,6,0:0:0:0:
302,204,97527,1,4,0:0:0:0:
208,158,97627,1,12,0:0:0:0:
219,252,97727,1,4,0:0:0:0:
289,103,97827,6,0,L|394:95,1,103.500001974106,6|4,0:0|0:0,0:0:0:0:
208,158,98027,2,0,L|103:150,1,103.500001974106,4|4,0:0|0:0,0:0:0:0:
302,204,98227,2,0,L|306:256,4,51.7500009870529,14|0|12|0|12,0:0|0:0|0:0|0:0|0:0,0:0:0:0:
219,252,98527,2,0,L|223:304,4,51.7500009870529,4|0|14|8|12,0:0|0:0|0:0|0:0|0:0,0:0:0:0:
304,351,98827,2,0,P|355:349|403:329,1,103.500001974106,12|4,0:0|0:0,0:0:0:0:
471,263,99027,2,0,P|469:211|449:163,1,103.500001974106,6|4,0:0|0:0,0:0:0:0:
383,96,99227,2,0,P|331:97|283:117,1,103.500001974106,4|4,0:0|0:0,0:0:0:0:
219,252,99427,5,12,0:0:0:0:
138,268,99827,1,12,0:0:0:0:
209,240,100227,5,8,0:0:0:0:
168,248,100327,1,8,0:0:0:0:
128,256,100427,1,8,0:0:0:0:
47,272,100627,1,12,0:0:0:0:
240,220,100927,5,8,0:0:0:0:
199,228,101027,1,12,0:0:0:0:
118,244,101227,1,8,0:0:0:0:
37,260,101427,1,12,0:0:0:0:
21,179,101627,1,8,0:0:0:0:
102,163,101827,2,0,L|148:166,15,45,14|8|12|8|12|8|12|8|14|8|12|8|12|8|12|8,0:0|0:0|0:0|0:0|0:0|0:0|0:0|0:0|0:0|0:0|0:0|0:0|0:0|0:0|0:0|0:0,0:0:0:0:
157,160,102627,6,0,P|200:93|203:13,1,161.999995056153,6|0,0:0|0:0,0:0:0:0:
238,25,102827,1,12,0:0:0:0:
248,24,102877,1,8,0:0:0:0:
259,23,102927,1,12,0:0:0:0:
270,23,102977,1,8,0:0:0:0:
281,22,103027,2,0,L|398:30,2,107.999996704102,14|4|4,0:0|0:0|0:0,0:0:0:0:
240,110,103327,1,4,0:0:0:0:
157,161,103427,6,0,L|103:157,2,53.9999983520508,14|0|4,0:0|0:0|0:0,0:0:0:0:
219,308,103627,2,0,P|240:259|238:206,1,107.999996704102,4|4,0:0|0:0,0:0:0:0:
240,110,103827,1,6,0:0:0:0:
332,83,103927,1,4,0:0:0:0:
386,162,104027,1,12,0:0:0:0:
327,237,104127,1,4,0:0:0:0:
403,145,104227,6,0,L|511:140,1,107.999996704102,6|4,0:0|0:0,0:0:0:0:
435,242,104427,2,0,L|327:237,1,107.999996704102,4|4,0:0|0:0,0:0:0:0:
412,337,104627,2,0,L|466:334,4,53.9999983520508,14|0|12|0|12,0:0|0:0|0:0|0:0|0:0,0:0:0:0:
316,332,104927,1,4,0:0:0:0:
316,332,104977,1,0,0:0:0:0:
316,332,105027,6,0,L|319:386,4,53.9999983520508,14|8|12|8|12,0:0|0:0|0:0|0:0|0:0,0:0:0:0:
327,237,105327,1,4,0:0:0:0:
281,152,105427,2,0,P|229:143|175:147,1,107.999996704102,6|4,0:0|0:0,0:0:0:0:
86,208,105627,2,0,P|95:155|91:101,1,107.999996704102,4|4,0:0|0:0,0:0:0:0:
208,20,105827,5,12,0:0:0:0:
192,101,106227,1,12,0:0:0:0:
230,12,106627,5,12,0:0:0:0:
222,52,106827,1,8,0:0:0:0:
214,93,107027,1,12,0:0:0:0:
252,4,107427,5,12,0:0:0:0:
244,44,107627,1,8,0:0:0:0:
236,85,107827,1,12,0:0:0:0:
228,126,108027,1,8,0:0:0:0:
220,167,108227,6,0,L|225:213,3,45,10|8|8|8,0:0|0:0|0:0|0:0,0:0:0:0:
284,264,108427,2,0,L|279:308,3,45,8|8|8|8,0:0|0:0|0:0|0:0,0:0:0:0:
240,375,108627,1,0,0:0:0:0:
493,53,109027,6,0,P|427:67|361:54,1,135.000005149842,6|0,1:2|0:0,0:0:0:0:
220,167,109427,2,0,P|285:153|351:166,1,135.000005149842,0|2,0:0|0:0,0:0:0:0:
419,233,109727,1,2,0:0:0:0:
419,233,109827,6,0,L|414:310,1,67.5000025749208,10|0,0:0|0:0,0:0:0:0:
438,148,110027,2,0,L|515:153,1,67.5000025749208,0|0,0:0|0:0,0:0:0:0:
351,166,110227,1,0,0:0:0:0:
351,166,110327,1,2,0:0:0:0:
351,166,110427,1,0,1:2:0:0:
351,166,110527,1,2,0:0:0:0:
351,166,110627,6,0,L|216:174,2,135.000005149842,2|0|2,1:2|0:0|1:2,0:0:0:0:
288,259,111127,1,0,0:0:0:0:
288,259,111227,2,0,L|220:263,1,67.5000025749208,2|0,0:0|0:0,0:0:0:0:
60,181,111427,6,0,L|127:176,1,67.5000025749208,10|0,0:0|0:0,0:0:0:0:
135,334,111627,2,0,L|130:266,1,67.5000025749208,0|0,1:2|0:0,0:0:0:0:
24,308,111827,1,0,0:0:0:0:
24,308,111927,1,2,0:0:0:0:
24,308,112027,1,2,1:2:0:0:
24,308,112127,1,0,0:0:0:0:
24,308,112227,2,0,P|53:247|60:181,1,135.000005149842,2|0,1:2|0:0,0:0:0:0:
37,3,112627,2,0,P|8:63|1:130,1,135.000005149842,0|2,0:0|0:0,0:0:0:0:
141,183,112927,1,2,0:0:0:0:
141,183,113027,6,0,L|208:178,1,67.5000025749208,10|0,0:0|0:0,0:0:0:0:
272,118,113227,2,0,L|339:122,1,67.5000025749208,0|0,0:0|0:0,0:0:0:0:
438,148,113427,1,0,1:2:0:0:
438,148,113527,1,2,0:0:0:0:
438,148,113627,1,0,0:0:0:0:
438,148,113727,1,2,0:0:0:0:
438,148,113827,6,0,P|387:103|359:42,2,135.000005149842,0|2|0,1:2|0:0|0:0,0:0:0:0:
460,226,114327,1,2,0:0:0:0:
459,226,114427,2,0,P|426:226|394:215,1,67.5000025749208,2|0,1:2|0:0,0:0:0:0:
272,118,114627,6,0,L|281:252,3,135.000005149842,10|0|2|0,0:0|0:0|0:0|0:0,0:0:0:0:
60,181,115427,5,2,1:2:0:0:
246,140,115627,1,0,0:0:0:0:
131,290,115827,2,0,P|107:228|60:181,1,135.000005149842,0|2,0:0|0:0,0:0:0:0:
9,355,116127,1,2,0:0:0:0:
9,355,116227,6,0,L|79:351,1,67.5000025749208,10|0,0:0|0:0,0:0:0:0:
131,290,116427,2,0,L|127:222,1,67.5000025749208,0|0,0:0|0:0,0:0:0:0:
60,181,116627,1,0,0:0:0:0:
60,181,116727,1,2,0:0:0:0:
60,181,116827,1,0,1:0:0:0:
60,181,116927,1,2,0:0:0:0:
60,181,117027,6,0,L|65:46,2,135.000005149842,2|0|2,1:2|0:0|1:2,0:0:0:0:
131,290,117527,1,0,0:0:0:0:
130,289,117627,2,0,P|164:294|197:290,1,67.5000025749208,2|0,0:0|0:0,0:0:0:0:
308,366,117827,6,0,P|295:334|275:307,1,67.5000025749208,10|0,0:0|0:0,0:0:0:0:
250,231,118027,2,0,P|264:200|285:174,1,67.5000025749208,2|0,1:2|0:0,0:0:0:0:
447,189,118227,1,0,0:0:0:0:
447,189,118327,1,2,0:0:0:0:
447,189,118427,1,2,1:2:0:0:
447,189,118527,1,0,0:0:0:0:
447,189,118627,6,0,B|417:248|417:248|348:247,1,135.000005149842,2|0,1:2|0:0,0:0:0:0:
202,145,119027,2,0,B|232:86|232:86|301:87,1,135.000005149842,0|2,0:0|0:0,0:0:0:0:
384,124,119327,1,2,0:0:0:0:
384,123,119427,2,0,P|388:90|385:57,1,67.5000025749208,10|0,0:0|0:0,0:0:0:0:
492,139,119627,2,0,P|466:161|446:188,1,67.5000025749208,0|0,0:0|0:0,0:0:0:0:
434,335,119827,1,0,1:0:0:0:
434,335,119927,1,2,0:0:0:0:
434,335,120027,1,0,0:0:0:0:
434,335,120127,1,2,0:0:0:0:
434,335,120227,6,0,L|442:200,2,135.000005149842,0|2|0,1:0|0:0|0:0,0:0:0:0:
339,265,120727,1,2,0:0:0:0:
339,265,120827,2,0,L|335:197,1,67.5000025749208,2|0,1:2|0:0,0:0:0:0:
256,368,121027,5,10,0:0:0:0:
334,182,121227,1,0,0:0:0:0:
152,299,121427,1,0,0:0:0:0:
360,299,121627,1,0,0:0:0:0:
178,182,121827,5,4,0:0:0:0:
