osu file format v14

[General]
AudioFilename: audio.mp3
AudioLeadIn: 0
PreviewTime: -1
Countdown: 0
SampleSet: Normal
StackLeniency: 0.7
Mode: 1
LetterboxInBreaks: 0
WidescreenStoryboard: 0

[Editor]
Bookmarks: 11694,22988,34282,68164,113341,118988,124635,141576,147223,169811,192399
DistanceSpacing: 0.7
BeatDivisor: 4
GridSize: 4
TimelineZoom: 2.2

[Metadata]
Title:Drop out
TitleUnicode:Drop out
Artist:you
ArtistUnicode:you
Creator:JessiChan
Version:Oni
Source:
Tags:J-core game rock Ulqui
BeatmapID:1481017
BeatmapSetID:689459

[Difficulty]
HPDrainRate:6
CircleSize:2
OverallDifficulty:5
ApproachRate:10
SliderMultiplier:1.4
SliderTickRate:1

[Events]
//Background and Video events
0,0,"background1.jpg",0,0
//Break Periods
2,23188,33832
//Storyboard Layer 0 (Background)
//Storyboard Layer 1 (Fail)
//Storyboard Layer 2 (Pass)
//Storyboard Layer 3 (Foreground)
//Storyboard Sound Samples

[TimingPoints]
400,352.941176470588,4,1,0,80,1,0
34547,-100,4,1,0,60,0,0
55458,-100,4,1,0,70,0,0
56870,-100,4,1,0,80,0,0
68164,-100,4,1,0,80,0,1
78047,-100,4,1,0,80,0,0
80870,-100,4,1,0,80,0,1
90752,-100,4,1,0,80,0,0
91017,-100,4,1,0,40,0,0
102047,-100,4,1,0,50,0,0
107694,-100,4,1,0,60,0,0
110517,-100,4,1,0,70,0,0
113341,-100,4,1,0,80,0,0
113517,-100,4,1,0,40,0,0
119164,-100,4,1,0,50,0,0
120576,-100,4,1,0,60,0,0
121988,-100,4,1,0,70,0,0
123223,-100,4,1,0,80,0,0
134694,-100,4,1,0,30,0,0
135929,-100,4,1,0,80,0,1
157105,-100,4,1,0,80,0,0
158517,-100,4,1,0,80,0,1
181105,-100,4,1,0,80,0,0
192664,-100,4,1,0,60,0,0
200870,-100,4,1,0,80,0,0
202988,-100,4,1,0,30,0,0
203694,-100,4,1,0,80,0,0

[HitObjects]
256,192,400,5,0,0:0:0:0:
256,192,664,1,8,0:0:0:0:
256,192,752,1,0,0:0:0:0:
256,192,929,1,8,0:0:0:0:
256,192,1105,1,0,0:0:0:0:
256,192,1458,1,0,0:0:0:0:
256,192,1811,1,0,0:0:0:0:
256,192,2076,1,8,0:0:0:0:
256,192,2164,1,0,0:0:0:0:
256,192,2341,1,8,0:0:0:0:
256,192,2517,1,0,0:0:0:0:
256,192,2870,1,8,0:0:0:0:
256,192,3223,1,0,0:0:0:0:
256,192,3488,1,8,0:0:0:0:
256,192,3576,1,0,0:0:0:0:
256,192,3752,1,8,0:0:0:0:
256,192,3929,1,0,0:0:0:0:
256,192,4282,1,0,0:0:0:0:
256,192,4635,1,0,0:0:0:0:
256,192,4899,1,8,0:0:0:0:
256,192,4988,1,0,0:0:0:0:
256,192,5164,1,8,0:0:0:0:
256,192,5341,1,0,0:0:0:0:
256,192,5694,1,8,0:0:0:0:
256,192,6047,1,0,0:0:0:0:
256,192,6311,1,8,0:0:0:0:
256,192,6399,1,0,0:0:0:0:
256,192,6576,1,8,0:0:0:0:
256,192,6752,1,0,0:0:0:0:
256,192,7105,1,0,0:0:0:0:
256,192,7458,1,0,0:0:0:0:
256,192,7723,1,8,0:0:0:0:
256,192,7811,1,0,0:0:0:0:
256,192,7988,1,8,0:0:0:0:
256,192,8164,1,0,0:0:0:0:
256,192,8517,1,8,0:0:0:0:
256,192,8870,1,0,0:0:0:0:
256,192,9135,1,8,0:0:0:0:
256,192,9223,1,0,0:0:0:0:
256,192,9399,1,8,0:0:0:0:
256,192,9576,1,0,0:0:0:0:
256,192,9929,1,0,0:0:0:0:
256,192,10282,1,4,0:0:0:0:
256,192,11694,1,4,0:0:0:0:
256,192,12047,1,8,0:0:0:0:
256,192,12223,1,0,0:0:0:0:
256,192,12311,1,0,0:0:0:0:
256,192,12399,1,0,0:0:0:0:
256,192,12576,1,0,0:0:0:0:
256,192,12752,1,8,0:0:0:0:
256,192,12929,1,0,0:0:0:0:
256,192,13105,1,0,0:0:0:0:
256,192,13458,1,8,0:0:0:0:
256,192,13635,1,0,0:0:0:0:
256,192,13723,1,0,0:0:0:0:
256,192,13811,1,0,0:0:0:0:
256,192,13988,1,0,0:0:0:0:
256,192,14164,1,8,0:0:0:0:
256,192,14341,1,8,0:0:0:0:
256,192,14517,1,0,0:0:0:0:
256,192,14870,1,8,0:0:0:0:
256,192,15047,1,0,0:0:0:0:
256,192,15135,1,0,0:0:0:0:
256,192,15223,1,0,0:0:0:0:
256,192,15399,1,0,0:0:0:0:
256,192,15576,1,8,0:0:0:0:
256,192,15752,1,0,0:0:0:0:
256,192,15929,1,0,0:0:0:0:
256,192,16282,1,8,0:0:0:0:
256,192,16458,1,0,0:0:0:0:
256,192,16547,1,0,0:0:0:0:
256,192,16635,1,0,0:0:0:0:
256,192,16811,1,0,0:0:0:0:
256,192,16988,1,8,0:0:0:0:
256,192,17164,1,8,0:0:0:0:
256,192,17341,1,0,0:0:0:0:
256,192,17694,1,0,0:0:0:0:
256,192,18047,1,8,0:0:0:0:
256,192,18399,1,0,0:0:0:0:
256,192,18752,1,8,0:0:0:0:
256,192,18929,1,0,0:0:0:0:
256,192,19105,1,0,0:0:0:0:
256,192,19282,1,0,0:0:0:0:
256,192,19458,1,8,0:0:0:0:
256,192,19635,1,0,0:0:0:0:
256,192,19811,1,0,0:0:0:0:
256,192,19988,1,0,0:0:0:0:
256,192,20164,1,8,0:0:0:0:
256,192,20252,1,0,0:0:0:0:
256,192,20341,1,0,0:0:0:0:
256,192,20429,1,0,0:0:0:0:
256,192,20517,1,8,0:0:0:0:
256,192,20694,1,0,0:0:0:0:
256,192,20870,1,8,0:0:0:0:
256,192,21047,1,0,0:0:0:0:
256,192,21135,1,0,0:0:0:0:
256,192,21223,1,8,0:0:0:0:
256,192,21399,1,0,0:0:0:0:
256,192,21576,1,12,0:0:0:0:
256,192,22988,1,4,0:0:0:0:
256,192,34282,5,4,0:0:0:0:
256,192,34547,1,8,0:0:0:0:
256,192,34635,1,0,0:0:0:0:
256,192,34811,1,8,0:0:0:0:
256,192,35164,1,8,0:0:0:0:
256,192,35517,1,8,0:0:0:0:
256,192,35694,1,0,0:0:0:0:
256,192,36223,1,8,0:0:0:0:
256,192,36576,1,8,0:0:0:0:
256,192,37105,1,0,0:0:0:0:
256,192,37370,1,8,0:0:0:0:
256,192,37458,1,0,0:0:0:0:
256,192,37634,1,8,0:0:0:0:
256,192,37987,1,8,0:0:0:0:
256,192,38340,1,0,0:0:0:0:
256,192,38517,1,8,0:0:0:0:
256,192,39046,1,8,0:0:0:0:
256,192,39399,1,8,0:0:0:0:
256,192,39928,1,0,0:0:0:0:
256,192,40194,1,8,0:0:0:0:
256,192,40282,1,0,0:0:0:0:
256,192,40458,1,8,0:0:0:0:
256,192,40811,1,8,0:0:0:0:
256,192,41164,1,8,0:0:0:0:
256,192,41341,1,0,0:0:0:0:
256,192,41870,1,8,0:0:0:0:
256,192,42223,1,8,0:0:0:0:
256,192,42752,1,0,0:0:0:0:
256,192,43017,1,8,0:0:0:0:
256,192,43105,1,0,0:0:0:0:
256,192,43281,1,8,0:0:0:0:
256,192,43634,1,8,0:0:0:0:
256,192,43987,1,0,0:0:0:0:
256,192,44164,1,8,0:0:0:0:
256,192,44693,1,8,0:0:0:0:
256,192,45046,1,8,0:0:0:0:
256,192,45399,1,8,0:0:0:0:
256,192,45575,1,0,0:0:0:0:
256,192,45841,1,8,0:0:0:0:
256,192,45929,1,0,0:0:0:0:
256,192,46105,1,8,0:0:0:0:
256,192,46458,1,8,0:0:0:0:
256,192,46635,1,0,0:0:0:0:
256,192,46723,1,0,0:0:0:0:
256,192,46811,1,8,0:0:0:0:
256,192,46988,1,8,0:0:0:0:
256,192,47341,1,8,0:0:0:0:
256,192,47694,1,0,0:0:0:0:
256,192,47870,1,8,0:0:0:0:
256,192,48223,1,8,0:0:0:0:
256,192,48399,1,0,0:0:0:0:
256,192,48664,1,8,0:0:0:0:
256,192,48752,1,0,0:0:0:0:
256,192,48928,1,8,0:0:0:0:
256,192,49281,1,8,0:0:0:0:
256,192,49458,1,0,0:0:0:0:
256,192,49546,1,0,0:0:0:0:
256,192,49635,1,0,0:0:0:0:
256,192,49811,1,8,0:0:0:0:
256,192,50164,1,8,0:0:0:0:
256,192,50517,1,0,0:0:0:0:
256,192,50693,1,8,0:0:0:0:
256,192,51046,1,8,0:0:0:0:
256,192,51222,1,0,0:0:0:0:
256,192,51488,1,8,0:0:0:0:
256,192,51576,1,0,0:0:0:0:
256,192,51752,1,8,0:0:0:0:
256,192,52105,1,8,0:0:0:0:
256,192,52282,1,0,0:0:0:0:
256,192,52370,1,0,0:0:0:0:
256,192,52458,1,8,0:0:0:0:
256,192,52635,1,8,0:0:0:0:
256,192,52988,1,8,0:0:0:0:
256,192,53341,1,0,0:0:0:0:
256,192,53517,1,8,0:0:0:0:
256,192,53870,1,8,0:0:0:0:
256,192,54047,1,0,0:0:0:0:
256,192,54311,1,8,0:0:0:0:
256,192,54399,1,0,0:0:0:0:
256,192,54575,1,8,0:0:0:0:
256,192,54928,1,8,0:0:0:0:
256,192,55281,1,0,0:0:0:0:
256,192,55458,1,12,0:0:0:0:
256,192,55987,1,0,0:0:0:0:
256,192,56076,1,0,0:0:0:0:
256,192,56164,1,8,0:0:0:0:
256,192,56517,1,4,0:0:0:0:
256,192,56869,1,12,0:0:0:0:
256,192,57223,1,8,0:0:0:0:
256,192,57576,1,8,0:0:0:0:
256,192,57929,1,8,0:0:0:0:
256,192,58105,1,0,0:0:0:0:
256,192,58282,1,8,0:0:0:0:
256,192,58635,1,8,0:0:0:0:
256,192,58988,1,8,0:0:0:0:
256,192,59341,1,8,0:0:0:0:
256,192,59517,1,8,0:0:0:0:
256,192,59694,1,8,0:0:0:0:
256,192,60047,1,8,0:0:0:0:
256,192,60399,1,8,0:0:0:0:
256,192,60752,1,8,0:0:0:0:
256,192,60929,1,0,0:0:0:0:
256,192,61105,1,8,0:0:0:0:
256,192,61458,1,8,0:0:0:0:
256,192,61811,1,8,0:0:0:0:
256,192,62164,1,0,0:0:0:0:
256,192,62517,1,12,0:0:0:0:
256,192,62870,1,8,0:0:0:0:
256,192,63047,1,0,0:0:0:0:
256,192,63223,1,8,0:0:0:0:
256,192,63399,1,0,0:0:0:0:
256,192,63576,1,8,0:0:0:0:
256,192,63752,1,0,0:0:0:0:
256,192,63929,1,8,0:0:0:0:
256,192,64282,1,8,0:0:0:0:
256,192,64458,1,0,0:0:0:0:
256,192,64635,1,8,0:0:0:0:
256,192,64811,1,0,0:0:0:0:
256,192,64988,1,8,0:0:0:0:
256,192,65164,1,0,0:0:0:0:
256,192,65341,1,8,0:0:0:0:
256,192,65429,1,0,0:0:0:0:
256,192,65517,1,0,0:0:0:0:
256,192,65605,1,0,0:0:0:0:
256,192,65694,1,8,0:0:0:0:
256,192,65870,1,0,0:0:0:0:
256,192,65958,1,0,0:0:0:0:
256,192,66047,1,8,0:0:0:0:
256,192,66223,1,0,0:0:0:0:
256,192,66311,1,8,0:0:0:0:
256,192,66399,1,0,0:0:0:0:
256,192,66576,1,0,0:0:0:0:
256,192,66752,1,8,0:0:0:0:
256,192,67458,1,0,0:0:0:0:
256,192,68164,1,4,0:0:0:0:
256,192,68429,1,8,0:0:0:0:
256,192,68517,1,0,0:0:0:0:
256,192,68694,1,8,0:0:0:0:
256,192,68870,1,0,0:0:0:0:
256,192,69047,1,8,0:0:0:0:
256,192,69223,1,0,0:0:0:0:
256,192,69311,1,0,0:0:0:0:
256,192,69399,1,8,0:0:0:0:
256,192,69576,1,0,0:0:0:0:
256,192,69841,1,8,0:0:0:0:
256,192,69929,1,0,0:0:0:0:
256,192,70105,1,8,0:0:0:0:
256,192,70282,1,0,0:0:0:0:
256,192,70458,1,8,0:0:0:0:
256,192,70635,1,8,0:0:0:0:
256,192,70723,1,8,0:0:0:0:
256,192,70811,1,8,0:0:0:0:
256,192,70988,1,0,0:0:0:0:
256,192,71341,1,8,0:0:0:0:
256,192,71517,1,0,0:0:0:0:
256,192,71694,1,0,0:0:0:0:
256,192,71870,1,12,0:0:0:0:
256,192,72223,1,8,0:0:0:0:
256,192,72399,1,4,0:0:0:0:
256,192,72576,1,8,0:0:0:0:
256,192,72929,1,0,0:0:0:0:
256,192,73282,1,8,0:0:0:0:
256,192,73635,1,8,0:0:0:0:
256,192,73811,1,4,0:0:0:0:
256,192,74076,1,8,0:0:0:0:
256,192,74164,1,0,0:0:0:0:
256,192,74341,1,8,0:0:0:0:
256,192,74517,1,0,0:0:0:0:
256,192,74694,1,8,0:0:0:0:
256,192,74870,1,8,0:0:0:0:
256,192,74958,1,8,0:0:0:0:
256,192,75047,1,8,0:0:0:0:
256,192,75223,1,0,0:0:0:0:
256,192,75576,1,8,0:0:0:0:
256,192,75752,1,0,0:0:0:0:
256,192,75841,1,0,0:0:0:0:
256,192,75929,1,0,0:0:0:0:
256,192,76105,1,0,0:0:0:0:
256,192,76282,1,8,0:0:0:0:
256,192,76458,1,0,0:0:0:0:
256,192,76635,1,12,0:0:0:0:
256,192,77164,1,12,0:0:0:0:
256,192,77694,1,0,0:0:0:0:
256,192,78047,1,12,0:0:0:0:
256,192,78576,1,0,0:0:0:0:
256,192,78664,1,0,0:0:0:0:
256,192,78752,1,0,0:0:0:0:
256,192,79105,1,8,0:0:0:0:
256,192,79458,1,0,0:0:0:0:
256,192,79988,1,12,0:0:0:0:
256,192,80341,1,8,0:0:0:0:
256,192,80429,1,8,0:0:0:0:
256,192,80517,1,8,0:0:0:0:
256,192,80870,1,4,0:0:0:0:
256,192,81135,1,8,0:0:0:0:
256,192,81223,1,0,0:0:0:0:
256,192,81399,1,8,0:0:0:0:
256,192,81576,1,0,0:0:0:0:
256,192,81752,1,8,0:0:0:0:
256,192,81841,1,8,0:0:0:0:
256,192,81929,1,8,0:0:0:0:
256,192,82105,1,8,0:0:0:0:
256,192,82282,1,0,0:0:0:0:
256,192,82635,1,8,0:0:0:0:
256,192,82988,1,8,0:0:0:0:
256,192,83076,1,8,0:0:0:0:
256,192,83164,1,0,0:0:0:0:
256,192,83252,1,0,0:0:0:0:
256,192,83341,1,8,0:0:0:0:
256,192,83517,1,0,0:0:0:0:
256,192,83694,1,4,0:0:0:0:
256,192,83870,1,0,0:0:0:0:
256,192,84223,1,0,0:0:0:0:
256,192,84399,1,8,0:0:0:0:
256,192,84752,1,0,0:0:0:0:
256,192,84929,1,8,0:0:0:0:
256,192,85105,1,0,0:0:0:0:
256,192,85370,1,0,0:0:0:0:
256,192,85635,1,0,0:0:0:0:
256,192,85811,1,8,0:0:0:0:
256,192,86164,1,0,0:0:0:0:
256,192,86517,1,0,0:0:0:0:
256,192,86870,1,12,0:0:0:0:
256,192,87223,1,0,0:0:0:0:
256,192,87399,1,0,0:0:0:0:
256,192,87576,1,8,0:0:0:0:
256,192,87929,1,4,0:0:0:0:
256,192,88194,1,0,0:0:0:0:
256,192,88458,1,0,0:0:0:0:
256,192,88635,1,8,0:0:0:0:
256,192,88988,1,0,0:0:0:0:
256,192,89341,1,0,0:0:0:0:
256,192,90399,1,12,0:0:0:0:
256,192,90752,1,4,0:0:0:0:
256,192,91017,1,8,0:0:0:0:
256,192,91105,1,0,0:0:0:0:
256,192,91281,1,8,0:0:0:0:
256,192,91634,1,8,0:0:0:0:
256,192,91987,1,8,0:0:0:0:
256,192,92164,1,0,0:0:0:0:
256,192,92693,1,8,0:0:0:0:
256,192,93046,1,8,0:0:0:0:
256,192,93575,1,0,0:0:0:0:
256,192,93840,1,8,0:0:0:0:
256,192,93928,1,0,0:0:0:0:
256,192,94104,1,8,0:0:0:0:
256,192,94457,1,8,0:0:0:0:
256,192,94810,1,0,0:0:0:0:
256,192,94987,1,8,0:0:0:0:
256,192,95516,1,8,0:0:0:0:
256,192,95869,1,8,0:0:0:0:
256,192,96398,1,0,0:0:0:0:
256,192,96664,1,8,0:0:0:0:
256,192,96752,1,0,0:0:0:0:
256,192,96928,1,8,0:0:0:0:
256,192,97281,1,8,0:0:0:0:
256,192,97634,1,8,0:0:0:0:
256,192,97811,1,0,0:0:0:0:
256,192,98340,1,8,0:0:0:0:
256,192,98693,1,8,0:0:0:0:
256,192,99222,1,0,0:0:0:0:
256,192,99487,1,8,0:0:0:0:
256,192,99575,1,0,0:0:0:0:
256,192,99751,1,8,0:0:0:0:
256,192,100104,1,8,0:0:0:0:
256,192,100457,1,0,0:0:0:0:
256,192,100634,1,8,0:0:0:0:
256,192,101163,1,8,0:0:0:0:
256,192,101516,1,8,0:0:0:0:
256,192,101869,1,8,0:0:0:0:
256,192,102045,1,0,0:0:0:0:
256,192,102311,1,8,0:0:0:0:
256,192,102399,1,0,0:0:0:0:
256,192,102575,1,8,0:0:0:0:
256,192,102928,1,8,0:0:0:0:
256,192,103105,1,0,0:0:0:0:
256,192,103193,1,0,0:0:0:0:
256,192,103281,1,8,0:0:0:0:
256,192,103458,1,8,0:0:0:0:
256,192,103811,1,8,0:0:0:0:
256,192,104164,1,0,0:0:0:0:
256,192,104340,1,8,0:0:0:0:
256,192,104693,1,8,0:0:0:0:
256,192,104869,1,0,0:0:0:0:
256,192,105134,1,8,0:0:0:0:
256,192,105222,1,0,0:0:0:0:
256,192,105398,1,8,0:0:0:0:
256,192,105751,1,8,0:0:0:0:
256,192,105928,1,0,0:0:0:0:
256,192,106016,1,0,0:0:0:0:
256,192,106105,1,0,0:0:0:0:
256,192,106281,1,8,0:0:0:0:
256,192,106634,1,8,0:0:0:0:
256,192,106987,1,0,0:0:0:0:
256,192,107163,1,8,0:0:0:0:
256,192,107516,1,8,0:0:0:0:
256,192,107692,1,0,0:0:0:0:
256,192,107958,1,8,0:0:0:0:
256,192,108046,1,0,0:0:0:0:
256,192,108222,1,8,0:0:0:0:
256,192,108575,1,8,0:0:0:0:
256,192,108752,1,0,0:0:0:0:
256,192,108840,1,0,0:0:0:0:
256,192,108928,1,8,0:0:0:0:
256,192,109105,1,8,0:0:0:0:
256,192,109458,1,8,0:0:0:0:
256,192,109811,1,0,0:0:0:0:
256,192,109987,1,8,0:0:0:0:
256,192,110340,1,8,0:0:0:0:
256,192,110517,1,0,0:0:0:0:
256,192,110781,1,8,0:0:0:0:
256,192,110869,1,0,0:0:0:0:
256,192,111045,1,8,0:0:0:0:
256,192,111398,1,8,0:0:0:0:
256,192,111751,1,0,0:0:0:0:
256,192,111928,1,8,0:0:0:0:
256,192,112194,1,8,0:0:0:0:
256,192,112282,1,0,0:0:0:0:
256,192,112458,1,8,0:0:0:0:
256,192,112723,1,8,0:0:0:0:
256,192,112988,1,12,0:0:0:0:
256,192,113339,1,4,0:0:0:0:
256,192,113517,1,8,0:0:0:0:
256,192,113870,1,8,0:0:0:0:
256,192,114223,1,8,0:0:0:0:
256,192,114399,1,0,0:0:0:0:
256,192,114576,1,8,0:0:0:0:
256,192,114929,1,8,0:0:0:0:
256,192,115282,1,8,0:0:0:0:
256,192,115370,1,8,0:0:0:0:
256,192,115458,1,0,0:0:0:0:
256,192,115635,1,8,0:0:0:0:
256,192,115811,1,0,0:0:0:0:
256,192,115988,1,8,0:0:0:0:
256,192,116341,1,8,0:0:0:0:
256,192,116694,1,8,0:0:0:0:
256,192,117047,1,8,0:0:0:0:
256,192,117223,1,0,0:0:0:0:
256,192,117399,1,8,0:0:0:0:
256,192,117752,1,8,0:0:0:0:
256,192,118105,1,8,0:0:0:0:
256,192,118194,1,0,0:0:0:0:
256,192,118282,1,8,0:0:0:0:
256,192,118458,1,8,0:0:0:0:
256,192,118635,1,0,0:0:0:0:
256,192,118811,1,8,0:0:0:0:
256,192,119164,1,8,0:0:0:0:
256,192,119517,1,8,0:0:0:0:
256,192,119870,1,8,0:0:0:0:
256,192,120047,1,0,0:0:0:0:
256,192,120223,1,8,0:0:0:0:
256,192,120576,1,8,0:0:0:0:
256,192,120929,1,8,0:0:0:0:
256,192,121017,1,8,0:0:0:0:
256,192,121105,1,0,0:0:0:0:
256,192,121282,1,8,0:0:0:0:
256,192,121458,1,0,0:0:0:0:
256,192,121635,1,8,0:0:0:0:
256,192,121988,1,8,0:0:0:0:
256,192,122341,1,8,0:0:0:0:
256,192,122694,1,8,0:0:0:0:
256,192,122870,1,0,0:0:0:0:
256,192,123047,1,8,0:0:0:0:
256,192,123223,1,12,0:0:0:0:
256,192,123752,1,0,0:0:0:0:
256,192,124105,1,12,0:0:0:0:
256,192,124282,1,12,0:0:0:0:
256,192,124635,1,4,0:0:0:0:
256,192,124988,1,8,0:0:0:0:
256,192,125341,1,8,0:0:0:0:
256,192,125517,1,0,0:0:0:0:
256,192,125694,1,8,0:0:0:0:
256,192,125870,1,0,0:0:0:0:
256,192,126047,1,8,0:0:0:0:
256,192,126399,1,8,0:0:0:0:
256,192,126752,1,8,0:0:0:0:
256,192,126929,1,0,0:0:0:0:
256,192,127105,1,8,0:0:0:0:
256,192,127458,1,0,0:0:0:0:
256,192,127811,1,8,0:0:0:0:
256,192,128164,1,8,0:0:0:0:
256,192,128341,1,0,0:0:0:0:
256,192,128517,1,8,0:0:0:0:
256,192,128694,1,0,0:0:0:0:
256,192,128870,1,8,0:0:0:0:
256,192,129223,1,8,0:0:0:0:
256,192,129576,1,8,0:0:0:0:
256,192,129752,1,0,0:0:0:0:
256,192,129929,1,8,0:0:0:0:
256,192,130282,1,0,0:0:0:0:
256,192,130458,1,8,0:0:0:0:
256,192,130634,1,8,0:0:0:0:
256,192,130811,1,8,0:0:0:0:
256,192,131164,1,8,0:0:0:0:
256,192,131340,1,8,0:0:0:0:
256,192,131517,1,8,0:0:0:0:
256,192,131871,1,8,0:0:0:0:
256,192,132047,1,8,0:0:0:0:
256,192,132223,1,8,0:0:0:0:
256,192,132400,1,0,0:0:0:0:
256,192,132576,1,8,0:0:0:0:
256,192,132753,1,8,0:0:0:0:
256,192,132929,1,8,0:0:0:0:
256,192,133282,1,8,0:0:0:0:
256,192,133459,1,8,0:0:0:0:
256,192,133635,1,8,0:0:0:0:
256,192,133811,1,8,0:0:0:0:
256,192,134076,1,8,0:0:0:0:
256,192,134341,1,8,0:0:0:0:
256,192,134517,1,4,0:0:0:0:
256,192,134694,2,4,L|316:192,10,35
256,192,135929,1,4,0:0:0:0:
256,192,136282,1,8,0:0:0:0:
256,192,136458,1,0,0:0:0:0:
256,192,136547,1,0,0:0:0:0:
256,192,136635,1,0,0:0:0:0:
256,192,136811,1,0,0:0:0:0:
256,192,136988,1,8,0:0:0:0:
256,192,137164,1,0,0:0:0:0:
256,192,137341,1,0,0:0:0:0:
256,192,137694,1,8,0:0:0:0:
256,192,137870,1,0,0:0:0:0:
256,192,137958,1,0,0:0:0:0:
256,192,138047,1,0,0:0:0:0:
256,192,138135,1,8,0:0:0:0:
256,192,138223,1,0,0:0:0:0:
256,192,138399,1,8,0:0:0:0:
256,192,138576,1,8,0:0:0:0:
256,192,138752,1,0,0:0:0:0:
256,192,139105,1,8,0:0:0:0:
256,192,139282,1,0,0:0:0:0:
256,192,139370,1,0,0:0:0:0:
256,192,139458,1,0,0:0:0:0:
256,192,139635,1,0,0:0:0:0:
256,192,139811,1,8,0:0:0:0:
256,192,139988,1,0,0:0:0:0:
256,192,140164,1,0,0:0:0:0:
256,192,140517,1,8,0:0:0:0:
256,192,140694,1,0,0:0:0:0:
256,192,140782,1,8,0:0:0:0:
256,192,140871,1,0,0:0:0:0:
256,192,140959,1,0,0:0:0:0:
256,192,141047,1,0,0:0:0:0:
256,192,141223,1,8,0:0:0:0:
256,192,141399,1,8,0:0:0:0:
256,192,141576,1,0,0:0:0:0:
256,192,141929,1,8,0:0:0:0:
256,192,142105,1,0,0:0:0:0:
256,192,142194,1,8,0:0:0:0:
256,192,142282,1,0,0:0:0:0:
256,192,142458,1,0,0:0:0:0:
256,192,142635,1,8,0:0:0:0:
256,192,142723,1,8,0:0:0:0:
256,192,142811,1,0,0:0:0:0:
256,192,142988,1,0,0:0:0:0:
256,192,143341,1,8,0:0:0:0:
256,192,143517,1,0,0:0:0:0:
256,192,143605,1,8,0:0:0:0:
256,192,143694,1,0,0:0:0:0:
256,192,143870,1,8,0:0:0:0:
256,192,144047,1,8,0:0:0:0:
256,192,144135,1,8,0:0:0:0:
256,192,144223,1,0,0:0:0:0:
256,192,144311,1,0,0:0:0:0:
256,192,144399,1,0,0:0:0:0:
256,192,144752,1,8,0:0:0:0:
256,192,144929,1,0,0:0:0:0:
256,192,145017,1,8,0:0:0:0:
256,192,145105,1,0,0:0:0:0:
256,192,145282,1,0,0:0:0:0:
256,192,145458,1,8,0:0:0:0:
256,192,145547,1,8,0:0:0:0:
256,192,145635,1,0,0:0:0:0:
256,192,145811,1,0,0:0:0:0:
256,192,146164,1,8,0:0:0:0:
256,192,146341,1,0,0:0:0:0:
256,192,146429,1,0,0:0:0:0:
256,192,146517,1,8,0:0:0:0:
256,192,146605,1,8,0:0:0:0:
256,192,146694,1,0,0:0:0:0:
256,192,146870,1,8,0:0:0:0:
256,192,147047,1,8,0:0:0:0:
256,192,147223,1,4,0:0:0:0:
256,192,147576,1,8,0:0:0:0:
256,192,147752,1,0,0:0:0:0:
256,192,147841,1,0,0:0:0:0:
256,192,147929,1,0,0:0:0:0:
256,192,148105,1,0,0:0:0:0:
256,192,148282,1,8,0:0:0:0:
256,192,148458,1,0,0:0:0:0:
256,192,148635,1,0,0:0:0:0:
256,192,148988,1,8,0:0:0:0:
256,192,149164,1,0,0:0:0:0:
256,192,149252,1,0,0:0:0:0:
256,192,149341,1,0,0:0:0:0:
256,192,149429,1,8,0:0:0:0:
256,192,149517,1,0,0:0:0:0:
256,192,149693,1,8,0:0:0:0:
256,192,149870,1,8,0:0:0:0:
256,192,150046,1,0,0:0:0:0:
256,192,150399,1,8,0:0:0:0:
256,192,150576,1,0,0:0:0:0:
256,192,150664,1,0,0:0:0:0:
256,192,150752,1,0,0:0:0:0:
256,192,150929,1,0,0:0:0:0:
256,192,151105,1,8,0:0:0:0:
256,192,151282,1,0,0:0:0:0:
256,192,151458,1,0,0:0:0:0:
256,192,151811,1,8,0:0:0:0:
256,192,151988,1,0,0:0:0:0:
256,192,152076,1,8,0:0:0:0:
256,192,152165,1,0,0:0:0:0:
256,192,152253,1,0,0:0:0:0:
256,192,152341,1,0,0:0:0:0:
256,192,152517,1,8,0:0:0:0:
256,192,152693,1,8,0:0:0:0:
256,192,152870,1,0,0:0:0:0:
256,192,153223,1,8,0:0:0:0:
256,192,153399,1,0,0:0:0:0:
256,192,153488,1,8,0:0:0:0:
256,192,153576,1,0,0:0:0:0:
256,192,153752,1,0,0:0:0:0:
256,192,153929,1,8,0:0:0:0:
256,192,154017,1,8,0:0:0:0:
256,192,154105,1,0,0:0:0:0:
256,192,154282,1,0,0:0:0:0:
256,192,154635,1,8,0:0:0:0:
256,192,154811,1,0,0:0:0:0:
256,192,154899,1,8,0:0:0:0:
256,192,154988,1,0,0:0:0:0:
256,192,155164,1,8,0:0:0:0:
256,192,155341,1,8,0:0:0:0:
256,192,155429,1,8,0:0:0:0:
256,192,155517,1,0,0:0:0:0:
256,192,155605,1,0,0:0:0:0:
256,192,155693,1,0,0:0:0:0:
256,192,156046,1,8,0:0:0:0:
256,192,156223,1,0,0:0:0:0:
256,192,156311,1,8,0:0:0:0:
256,192,156399,1,0,0:0:0:0:
256,192,156576,1,0,0:0:0:0:
256,192,156752,1,8,0:0:0:0:
256,192,156841,1,8,0:0:0:0:
256,192,156929,1,0,0:0:0:0:
256,192,157105,1,4,0:0:0:0:
256,192,157370,1,0,0:0:0:0:
256,192,157635,1,0,0:0:0:0:
256,192,157899,1,0,0:0:0:0:
256,192,158164,1,12,0:0:0:0:
256,192,158517,1,4,0:0:0:0:
256,192,158870,1,8,0:0:0:0:
256,192,159047,1,0,0:0:0:0:
256,192,159223,1,8,0:0:0:0:
256,192,159311,1,8,0:0:0:0:
256,192,159399,1,0,0:0:0:0:
256,192,159488,1,0,0:0:0:0:
256,192,159576,1,8,0:0:0:0:
256,192,159752,1,0,0:0:0:0:
256,192,159929,1,8,0:0:0:0:
256,192,160282,1,8,0:0:0:0:
256,192,160458,1,0,0:0:0:0:
256,192,160635,1,8,0:0:0:0:
256,192,160723,1,8,0:0:0:0:
256,192,160811,1,0,0:0:0:0:
256,192,160988,1,8,0:0:0:0:
256,192,161164,1,8,0:0:0:0:
256,192,161341,1,0,0:0:0:0:
256,192,161694,1,8,0:0:0:0:
256,192,161870,1,0,0:0:0:0:
256,192,162047,1,8,0:0:0:0:
256,192,162135,1,8,0:0:0:0:
256,192,162223,1,0,0:0:0:0:
256,192,162311,1,0,0:0:0:0:
256,192,162399,1,8,0:0:0:0:
256,192,162576,1,0,0:0:0:0:
256,192,162752,1,8,0:0:0:0:
256,192,163105,1,8,0:0:0:0:
256,192,163282,1,0,0:0:0:0:
256,192,163458,1,8,0:0:0:0:
256,192,163547,1,0,0:0:0:0:
256,192,163635,1,8,0:0:0:0:
256,192,163811,1,8,0:0:0:0:
256,192,163988,1,0,0:0:0:0:
256,192,164164,1,0,0:0:0:0:
256,192,164429,1,0,0:0:0:0:
256,192,164517,1,8,0:0:0:0:
256,192,164694,1,0,0:0:0:0:
256,192,164870,1,8,0:0:0:0:
256,192,164958,1,8,0:0:0:0:
256,192,165047,1,0,0:0:0:0:
256,192,165223,1,8,0:0:0:0:
256,192,165399,1,0,0:0:0:0:
256,192,165488,1,8,0:0:0:0:
256,192,165576,1,0,0:0:0:0:
256,192,165841,1,0,0:0:0:0:
256,192,165929,1,8,0:0:0:0:
256,192,166105,1,0,0:0:0:0:
256,192,166282,1,8,0:0:0:0:
256,192,166370,1,8,0:0:0:0:
256,192,166458,1,0,0:0:0:0:
256,192,166547,1,0,0:0:0:0:
256,192,166635,1,8,0:0:0:0:
256,192,166811,1,0,0:0:0:0:
256,192,166988,1,0,0:0:0:0:
256,192,167252,1,0,0:0:0:0:
256,192,167341,1,8,0:0:0:0:
256,192,167517,1,0,0:0:0:0:
256,192,167694,1,0,0:0:0:0:
256,192,167782,1,8,0:0:0:0:
256,192,167870,1,0,0:0:0:0:
256,192,168047,1,8,0:0:0:0:
256,192,168223,1,0,0:0:0:0:
256,192,168311,1,8,0:0:0:0:
256,192,168399,1,0,0:0:0:0:
256,192,168664,1,0,0:0:0:0:
256,192,168752,1,8,0:0:0:0:
256,192,168929,1,0,0:0:0:0:
256,192,169105,1,0,0:0:0:0:
256,192,169194,1,8,0:0:0:0:
256,192,169282,1,0,0:0:0:0:
256,192,169370,1,0,0:0:0:0:
256,192,169458,1,8,0:0:0:0:
256,192,169635,1,8,0:0:0:0:
256,192,169811,1,4,0:0:0:0:
256,192,170164,1,8,0:0:0:0:
256,192,170341,1,0,0:0:0:0:
256,192,170517,1,8,0:0:0:0:
256,192,170605,1,8,0:0:0:0:
256,192,170694,1,0,0:0:0:0:
256,192,170782,1,0,0:0:0:0:
256,192,170870,1,8,0:0:0:0:
256,192,171047,1,0,0:0:0:0:
256,192,171223,1,8,0:0:0:0:
256,192,171576,1,8,0:0:0:0:
256,192,171752,1,0,0:0:0:0:
256,192,171841,1,0,0:0:0:0:
256,192,171929,1,8,0:0:0:0:
256,192,172105,1,0,0:0:0:0:
256,192,172282,1,8,0:0:0:0:
256,192,172370,1,0,0:0:0:0:
256,192,172458,1,8,0:0:0:0:
256,192,172635,1,0,0:0:0:0:
256,192,172988,1,8,0:0:0:0:
256,192,173164,1,0,0:0:0:0:
256,192,173341,1,8,0:0:0:0:
256,192,173429,1,8,0:0:0:0:
256,192,173517,1,0,0:0:0:0:
256,192,173605,1,0,0:0:0:0:
256,192,173694,1,8,0:0:0:0:
256,192,173870,1,0,0:0:0:0:
256,192,174047,1,8,0:0:0:0:
256,192,174399,1,8,0:0:0:0:
256,192,174576,1,0,0:0:0:0:
256,192,174664,1,0,0:0:0:0:
256,192,174752,1,8,0:0:0:0:
256,192,174929,1,0,0:0:0:0:
256,192,175105,1,8,0:0:0:0:
256,192,175194,1,8,0:0:0:0:
256,192,175282,1,0,0:0:0:0:
256,192,175458,1,0,0:0:0:0:
256,192,175811,1,8,0:0:0:0:
256,192,176164,1,0,0:0:0:0:
256,192,176517,1,8,0:0:0:0:
256,192,176870,1,0,0:0:0:0:
256,192,177047,1,8,0:0:0:0:
256,192,177223,1,8,0:0:0:0:
256,192,177399,1,8,0:0:0:0:
256,192,177576,1,0,0:0:0:0:
256,192,177752,1,8,0:0:0:0:
256,192,177929,1,8,0:0:0:0:
256,192,178105,1,8,0:0:0:0:
256,192,178282,1,4,0:0:0:0:
256,192,178635,1,8,0:0:0:0:
256,192,178811,1,0,0:0:0:0:
256,192,178899,1,0,0:0:0:0:
256,192,178988,1,0,0:0:0:0:
256,192,179164,1,0,0:0:0:0:
256,192,179341,1,8,0:0:0:0:
256,192,179517,1,0,0:0:0:0:
256,192,179694,1,4,0:0:0:0:
256,192,179958,1,0,0:0:0:0:
256,192,180223,1,0,0:0:0:0:
256,192,180488,1,0,0:0:0:0:
256,192,180752,1,12,0:0:0:0:
256,192,181105,1,4,0:0:0:0:
256,192,181458,1,0,0:0:0:0:
256,192,181635,1,8,0:0:0:0:
256,192,181811,1,0,0:0:0:0:
256,192,181899,1,8,0:0:0:0:
256,192,182076,1,8,0:0:0:0:
256,192,182164,1,0,0:0:0:0:
256,192,182341,1,8,0:0:0:0:
256,192,182517,1,0,0:0:0:0:
256,192,182870,1,0,0:0:0:0:
256,192,183047,1,8,0:0:0:0:
256,192,183223,1,0,0:0:0:0:
256,192,183311,1,8,0:0:0:0:
256,192,183488,1,8,0:0:0:0:
256,192,183576,1,8,0:0:0:0:
256,192,183752,1,8,0:0:0:0:
256,192,183929,1,0,0:0:0:0:
256,192,184282,1,0,0:0:0:0:
256,192,184458,1,8,0:0:0:0:
256,192,184635,1,0,0:0:0:0:
256,192,184723,1,8,0:0:0:0:
256,192,184899,1,8,0:0:0:0:
256,192,184988,1,0,0:0:0:0:
256,192,185164,1,8,0:0:0:0:
256,192,185341,1,0,0:0:0:0:
256,192,185694,1,0,0:0:0:0:
256,192,185870,1,8,0:0:0:0:
256,192,186047,1,0,0:0:0:0:
256,192,186135,1,8,0:0:0:0:
256,192,186311,1,8,0:0:0:0:
256,192,186399,1,8,0:0:0:0:
256,192,186576,1,8,0:0:0:0:
256,192,186752,1,0,0:0:0:0:
256,192,187105,1,0,0:0:0:0:
256,192,187282,1,8,0:0:0:0:
256,192,187458,1,0,0:0:0:0:
256,192,187547,1,0,0:0:0:0:
256,192,187635,1,8,0:0:0:0:
256,192,187811,1,0,0:0:0:0:
256,192,187988,1,8,0:0:0:0:
256,192,188164,1,0,0:0:0:0:
256,192,188517,1,0,0:0:0:0:
256,192,188694,1,8,0:0:0:0:
256,192,188870,1,0,0:0:0:0:
256,192,188958,1,0,0:0:0:0:
256,192,189047,1,8,0:0:0:0:
256,192,189223,1,8,0:0:0:0:
256,192,189399,1,8,0:0:0:0:
256,192,189576,1,0,0:0:0:0:
256,192,189929,1,0,0:0:0:0:
256,192,190105,1,8,0:0:0:0:
256,192,190282,1,0,0:0:0:0:
256,192,190370,1,0,0:0:0:0:
256,192,190458,1,8,0:0:0:0:
256,192,190635,1,0,0:0:0:0:
256,192,190811,1,8,0:0:0:0:
256,192,190988,1,0,0:0:0:0:
256,192,191341,1,0,0:0:0:0:
256,192,191517,1,8,0:0:0:0:
256,192,191694,1,0,0:0:0:0:
256,192,191782,1,0,0:0:0:0:
256,192,191870,1,8,0:0:0:0:
256,192,192047,1,8,0:0:0:0:
256,192,192223,1,8,0:0:0:0:
256,192,192399,5,4,0:0:0:0:
256,192,192752,1,0,0:0:0:0:
256,192,192929,1,8,0:0:0:0:
256,192,193105,1,0,0:0:0:0:
256,192,193194,1,8,0:0:0:0:
256,192,193282,1,0,0:0:0:0:
256,192,193458,1,0,0:0:0:0:
256,192,193811,1,0,0:0:0:0:
256,192,194164,1,0,0:0:0:0:
256,192,194341,1,8,0:0:0:0:
256,192,194517,1,0,0:0:0:0:
256,192,194605,1,8,0:0:0:0:
256,192,194694,1,8,0:0:0:0:
256,192,194870,1,8,0:0:0:0:
256,192,195223,1,0,0:0:0:0:
256,192,195576,1,0,0:0:0:0:
256,192,195753,1,8,0:0:0:0:
256,192,195929,1,0,0:0:0:0:
256,192,196017,1,8,0:0:0:0:
256,192,196106,1,0,0:0:0:0:
256,192,196282,1,0,0:0:0:0:
256,192,196635,1,0,0:0:0:0:
256,192,196988,1,0,0:0:0:0:
256,192,197165,1,8,0:0:0:0:
256,192,197341,1,0,0:0:0:0:
256,192,197429,1,8,0:0:0:0:
256,192,197518,1,8,0:0:0:0:
256,192,197694,1,8,0:0:0:0:
256,192,198047,1,0,0:0:0:0:
256,192,198400,1,0,0:0:0:0:
256,192,198577,1,8,0:0:0:0:
256,192,198753,1,0,0:0:0:0:
256,192,198841,1,8,0:0:0:0:
256,192,198930,1,0,0:0:0:0:
256,192,199106,1,0,0:0:0:0:
256,192,199458,1,0,0:0:0:0:
256,192,199811,1,0,0:0:0:0:
256,192,199988,1,8,0:0:0:0:
256,192,200164,1,0,0:0:0:0:
256,192,200252,1,8,0:0:0:0:
256,192,200341,1,8,0:0:0:0:
256,192,200517,1,8,0:0:0:0:
256,192,200870,1,4,0:0:0:0:
256,192,201047,1,8,0:0:0:0:
256,192,201223,1,8,0:0:0:0:
256,192,201399,1,8,0:0:0:0:
256,192,201576,1,0,0:0:0:0:
256,192,201752,1,8,0:0:0:0:
256,192,201929,1,8,0:0:0:0:
256,192,202105,1,8,0:0:0:0:
256,192,202282,1,12,0:0:0:0:
256,192,202988,12,0,203605,0:0:0:0:
256,192,203694,5,4,0:0:0:0:
