osu file format v14

[General]
AudioFilename: audio.mp3
AudioLeadIn: 0
PreviewTime: 49297
Countdown: 0
SampleSet: Soft
StackLeniency: 0.7
Mode: 0
LetterboxInBreaks: 0
WidescreenStoryboard: 1

[Editor]
DistanceSpacing: 2.5
BeatDivisor: 4
GridSize: 4
TimelineZoom: 2.3

[Metadata]
Title:Destin Histoire -TV size-
TitleUnicode:Destin Histoire -TV size-
Artist:yoshiki*lisa
ArtistUnicode:yoshiki*lisa
Creator:Gottagof4st
Version:Insane
Source:GOSICK
Tags:吉木りさ opening story of fate gothic yoshiki risa original soundtrack poche destiny history crimmi crimmiskye aigoh
BeatmapID:1319308
BeatmapSetID:623776

[Difficulty]
HPDrainRate:6
CircleSize:4
OverallDifficulty:7
ApproachRate:8.5
SliderMultiplier:1.4
SliderTickRate:1

[Events]
//Background and Video events
0,0,"bg.jpg",0,0
//Break Periods
//Storyboard Layer 0 (Background)
//Storyboard Layer 1 (Fail)
//Storyboard Layer 2 (Pass)
//Storyboard Layer 3 (Foreground)
//Storyboard Sound Samples

[TimingPoints]
141,361.44578313253,4,2,4,20,1,0
141,-125,4,2,4,20,0,0
5924,358.208955223881,4,2,4,40,1,0
5924,-100,4,2,4,40,0,0
7715,361.44578313253,4,2,4,50,1,0
8799,361.44578313253,4,2,4,50,1,0
12774,368.098159509202,4,2,4,50,1,0
13878,355.029585798817,4,2,4,50,1,0
14588,361.44578313253,4,2,4,40,1,0
14588,-125,4,2,4,40,0,0
24708,356.612184249629,4,2,4,40,1,0
26134,361.554685146128,4,2,4,40,1,0
37706,-125,4,2,4,40,0,0
46019,-100,4,2,4,40,0,0
49297,361.44578313253,4,2,4,50,1,1
49297,-90.9090909090909,4,2,4,50,0,1
55065,357.142857142857,4,2,4,50,1,1
56136,352.941176470588,4,2,4,50,1,1
56136,-90.9090909090909,4,2,4,50,0,1
56841,366.07687614399,4,2,4,50,1,1
57939,-90.9090909090909,4,2,4,50,0,1
59402,361.44578313253,4,2,4,50,1,1
60847,-90.9090909090909,4,2,4,50,0,1
72414,-90.9090909090909,4,2,4,60,0,0
77654,-94.3396226415094,4,2,4,40,0,0
89408,-100,4,2,4,5,0,0

[Colours]
Combo1 : 128,108,0
Combo2 : 252,196,3
Combo3 : 255,255,83
Combo4 : 177,177,177
Combo5 : 95,95,95

[HitObjects]
168,128,141,38,0,L|124:168,2,56,2|0|0,0:0|0:0|0:0,0:0:0:0:
252,128,683,1,0,0:0:0:0:
252,128,1044,1,0,0:0:0:0:
164,272,1406,1,0,0:0:0:0:
236,316,1586,6,0,L|192:356,2,56,2|0|0,0:0|0:0|0:0,0:0:0:0:
252,232,2128,1,0,0:0:0:0:
252,232,2490,1,0,0:0:0:0:
388,136,2851,1,0,0:0:0:0:
384,52,3032,6,0,L|424:8,2,56,2|0|0,0:0|0:0|0:0,0:0:0:0:
300,60,3574,1,0,0:0:0:0:
300,60,3936,1,0,0:0:0:0:
152,136,4297,1,0,0:0:0:0:
84,184,4478,6,0,L|20:176,2,56
256,192,5201,5,0,1:0:0:0:
256,192,5381,1,0,1:0:0:0:
64,40,5924,6,0,L|152:48,1,70,4|0,3:2|0:0,0:0:0:0:
204,124,6282,2,0,L|292:116,1,70,0|0,1:0|0:0,0:0:0:0:
344,40,6640,1,2,3:1:0:0:
356,180,6819,1,2,3:1:0:0:
360,40,6998,1,0,1:0:0:0:
452,144,7177,6,0,P|460:200|408:272,1,140,4|2,0:0|3:1,0:0:0:0:
312,240,7715,2,0,L|232:260,1,70,0|0,1:0|0:0,0:0:0:0:
112,204,8076,1,2,3:1:0:0:
240,152,8257,1,2,3:1:0:0:
104,184,8437,1,0,1:0:0:0:
168,60,8618,1,0,0:0:0:0:
44,128,8799,38,0,P|24:180|32:216,1,70,4|0,3:2|0:0,0:0:0:0:
80,284,9160,2,0,L|172:252,1,70,0|0,1:0|0:0,0:0:0:0:
240,152,9521,1,2,3:1:0:0:
256,292,9702,1,2,3:1:0:0:
260,152,9883,1,0,1:0:0:0:
356,252,10064,6,0,L|376:156,1,70,4|0,3:2|0:0,0:0:0:0:
444,108,10425,1,2,3:1:0:0:
464,244,10606,1,0,1:1:0:0:
344,172,10786,2,0,L|364:76,1,70,4|0,3:2|0:0,0:0:0:0:
320,4,11148,1,2,3:1:0:0:
232,112,11329,1,0,1:0:0:0:
232,112,11690,6,0,L|72:96,1,140,4|0,3:2|1:0,0:0:0:0:
132,196,12232,2,0,L|271:209,1,140,4|8,3:2|3:0,0:0:0:0:
288,196,12684,1,8,3:0:0:0:
300,180,12774,38,0,P|368:200|408:260,1,140,4|0,3:2|0:0,0:0:0:0:
300,344,13326,2,0,L|296:384,2,35,2|2|2,3:1|3:1|3:1,0:0:0:0:
192,248,13694,1,2,3:1:0:0:
192,248,13786,1,2,3:1:0:0:
192,248,13878,5,0,1:0:0:0:
88,372,14055,1,0,1:0:0:0:
68,72,14588,22,0,L|196:60,1,112,10|8,0:0|0:2,0:0:0:0:
240,120,15130,1,0,0:0:0:0:
240,120,15310,2,0,L|351:130,1,112,8|8,0:0|0:0,0:0:0:0:
404,64,15853,1,0,0:0:0:0:
452,136,16033,6,0,P|436:188|372:228,1,112,8|8,0:0|0:0,0:0:0:0:
308,204,16575,1,0,0:0:0:0:
308,204,16756,2,0,L|236:116,1,112,8|8,0:0|0:0,0:0:0:0:
160,80,17298,1,0,0:0:0:0:
72,192,17479,54,0,B|88:256|156:264,1,112,10|8,0:0|0:0,0:0:0:0:
220,312,18021,1,0,0:0:0:0:
220,312,18202,2,0,L|332:288,1,112,8|8,0:0|0:0,0:0:0:0:
348,208,18744,1,0,0:0:0:0:
412,264,18925,6,0,P|428:196|396:140,1,112,8|8,0:0|0:0,0:0:0:0:
360,92,19467,1,0,0:0:0:0:
360,92,19648,2,0,L|296:84,1,56,8|0,0:0|0:0,0:0:0:0:
212,24,20009,1,8,0:0:0:0:
176,140,20190,1,0,0:0:0:0:
68,56,20371,54,0,L|56:184,1,112,10|8,0:0|0:0,0:0:0:0:
24,244,20913,1,0,0:0:0:0:
24,244,21094,2,0,L|156:232,1,112,8|8,0:0|0:0,0:0:0:0:
196,172,21636,1,0,0:0:0:0:
204,312,21816,6,0,L|336:300,1,112,10|8,0:0|0:0,0:0:0:0:
368,368,22359,1,0,0:0:0:0:
368,368,22539,2,0,P|392:340|380:252,1,112,8|8,0:0|0:0,0:0:0:0:
336,204,23081,1,0,0:0:0:0:
436,156,23262,54,0,L|504:156,1,56,10|0,0:0|0:0,0:0:0:0:
356,120,23624,1,8,0:0:0:0:
456,72,23804,2,0,L|524:72,1,56,0|8,0:0|0:0,0:0:0:0:
328,40,24166,2,0,L|260:40,1,56,0|8,0:0|0:0,0:0:0:0:
200,112,24527,1,0,0:0:0:0:
288,200,24708,6,0,L|200:312,1,140,10|0,0:0|0:0,0:0:0:0:
80,292,25242,1,0,0:0:0:0:
192,208,25421,1,2,3:0:0:0:
120,364,25599,5,0,1:0:0:0:
80,172,25777,1,0,1:0:0:0:
201,310,25956,1,0,1:0:0:0:
170,128,26134,6,0,P|236:96|308:88,1,140,4|8,3:0|0:3,0:0:0:0:
396,136,26676,1,0,0:0:0:0:
396,136,26857,2,0,L|440:280,1,140,2|8,0:1|0:3,0:0:0:0:
336,228,27399,1,0,0:0:0:0:
348,324,27580,6,0,P|273:312|204:280,1,140,2|8,0:1|0:3,0:0:0:0:
96,212,28122,1,0,0:0:0:0:
228,260,28303,1,2,0:1:0:0:
152,124,28484,1,0,0:0:0:0:
240,236,28664,1,8,0:3:0:0:
248,92,28845,1,0,0:0:0:0:
152,284,29026,38,0,P|76:300|20:264,1,140,2|8,0:1|0:3,0:0:0:0:
0,168,29568,1,0,0:0:0:0:
0,168,29749,2,0,L|124:88,1,140,2|8,0:1|0:3,0:0:0:0:
192,16,30291,1,0,0:0:0:0:
232,116,30472,6,0,P|264:172|352:212,1,140,2|8,0:1|0:3,0:0:0:0:
404,152,31014,1,0,0:0:0:0:
432,304,31195,1,0,0:0:0:0:
484,128,31376,1,0,0:0:0:0:
397,236,31557,1,8,0:3:0:0:
404,68,31738,1,0,0:0:0:0:
504,228,31918,6,0,B|508:328|508:328|480:376,1,140,2|8,0:1|0:3,0:0:0:0:
388,328,32461,1,0,0:0:0:0:
388,328,32641,2,0,L|244:296,1,140,2|8,0:1|0:3,0:0:0:0:
224,196,33184,1,0,0:0:0:0:
140,308,33365,38,0,L|88:160,1,140,2|8,0:1|0:3,0:0:0:0:
140,60,33907,1,0,0:0:0:0:
224,196,34088,1,2,0:1:0:0:
172,44,34268,1,0,0:0:0:0:
92,176,34449,1,8,0:3:0:0:
248,96,34630,1,0,0:0:0:0:
244,272,34811,6,0,L|336:248,1,70,2|0,0:1|0:0,0:0:0:0:
268,352,35172,1,8,0:3:0:0:
368,328,35353,2,0,L|460:304,1,70,0|2,0:0|0:1,0:0:0:0:
492,220,35715,1,0,0:0:0:0:
360,172,35895,1,8,0:3:0:0:
476,96,36076,1,0,0:0:0:0:
476,96,36257,6,0,L|324:64,1,140,2|0,0:1|1:0,0:0:0:0:
240,104,36799,1,0,0:0:0:0:
352,188,36980,1,0,1:0:0:0:
180,184,37161,1,0,1:0:0:0:
344,160,37342,1,0,1:0:0:0:
181,215,37522,1,0,1:0:0:0:
316,316,37703,6,0,P|398:303|432:262,1,140,4|2,3:0|3:0,0:0:0:0:
452,172,38246,1,2,0:1:0:0:
452,172,38426,2,0,L|416:60,1,112,8|2,0:3|3:0,0:0:0:0:
344,28,38969,1,0,0:0:0:0:
296,160,39149,6,0,P|256:144|188:96,1,112,2|0,0:1|0:0,0:0:0:0:
140,44,39692,1,2,0:1:0:0:
88,108,39873,2,0,L|120:168,1,56,8|0,0:3|0:0,0:0:0:0:
184,204,40234,2,0,L|152:264,1,56,2|0,3:0|0:0,0:0:0:0:
64,356,40596,54,0,B|92:384|92:384|184:376,1,112,2|2,0:1|3:0,0:0:0:0:
220,316,41138,1,2,0:1:0:0:
220,316,41319,2,0,L|292:332,1,56,8|0,0:3|0:0,0:0:0:0:
344,376,41680,2,0,L|416:360,1,56,2|0,3:0|0:0,0:0:0:0:
460,244,42042,5,2,0:1:0:0:
460,244,42223,2,0,L|432:124,1,112
376,76,42765,2,0,L|304:116,1,56,8|0,0:3|0:0,0:0:0:0:
272,36,43127,2,0,L|200:76,1,56,2|0,3:0|0:0,0:0:0:0:
100,132,43488,54,0,B|128:144|128:144|168:216,1,112,4|2,3:0|3:0,0:0:0:0:
196,296,44030,1,0,0:0:0:0:
196,296,44211,2,0,L|268:288,1,56,8|0,0:3|0:0,0:0:0:0:
344,356,44573,1,2,3:0:0:0:
352,244,44754,1,0,0:0:0:0:
488,268,44934,5,2,0:1:0:0:
488,268,45115,2,0,L|499:191,1,56,8|2,0:3|0:1,0:0:0:0:
508,100,45477,1,0,0:0:0:0:
400,136,45657,2,0,L|390:204,1,56,10|0,3:3|0:0,0:0:0:0:
284,280,46019,1,8,3:0:0:0:
284,280,46109,1,8,3:0:0:0:
284,280,46200,1,8,3:0:0:0:
284,280,46290,1,8,3:0:0:0:
284,280,46381,6,0,L|212:276,1,70,4|0,0:3|0:0,0:0:0:0:
120,172,46742,1,8,3:0:0:0:
120,172,46923,2,0,L|192:176,1,70,4|0,3:0|0:0,0:0:0:0:
316,116,47284,2,0,P|340:124|364:144,2,35,8|8|8,3:0|3:0|3:0,0:0:0:0:
196,44,47646,6,0,P|136:48|64:88,1,140,4|2,3:0|3:1,0:0:0:0:
60,104,48098,1,2,3:1:0:0:
56,121,48188,1,2,3:1:0:0:
54,138,48279,1,2,3:1:0:0:
55,156,48369,1,2,3:1:0:0:
57,173,48460,1,2,3:1:0:0:
61,190,48550,5,0,1:0:0:0:
192,140,48731,1,0,1:0:0:0:
112,324,49092,1,2,3:2:0:0:
112,324,49297,38,0,L|220:308,1,77.0000023498536,4|0,3:0|0:0,0:0:0:0:
244,208,49658,2,0,L|320:219,1,77.0000023498536,0|0,1:0|0:0,0:0:0:0:
404,300,50019,1,2,3:1:0:0:
368,152,50200,1,2,3:1:0:0:
368,304,50381,1,0,1:0:0:0:
468,188,50562,6,0,P|464:104|416:56,1,154.000004699707,4|2,3:0|3:1,0:0:0:0:
288,28,51104,2,0,L|200:48,1,77.0000023498536,0|0,1:0|0:0,0:0:0:0:
156,164,51465,2,0,L|244:144,1,77.0000023498536,2|2,3:1|3:1,0:0:0:0:
288,28,51827,1,0,1:0:0:0:
280,204,52007,1,0,0:0:0:0:
112,68,52188,6,0,P|64:112|52:172,1,115.50000352478,4|0,3:0|3:0,0:0:0:0:
48,196,52550,2,0,L|72:272,1,77.0000023498536,0|0,1:0|0:0,0:0:0:0:
212,348,52911,2,0,L|188:272,1,77.0000023498536,2|2,3:1|3:1,0:0:0:0:
231,146,53272,1,0,1:0:0:0:
276,296,53453,38,0,B|304:264|304:264|413:244,1,154.000004699707,4|0,3:0|0:0,0:0:0:0:
456,136,53995,1,8,1:3:0:0:
352,188,54176,2,0,P|332:248|408:328,1,154.000004699707,4|2,3:0|3:1,0:0:0:0:
487,206,54718,2,0,L|447:118,1,77.0000023498536,4|0,0:0|0:0,0:0:0:0:
352,24,55065,6,0,P|336:55|324:114,1,70,0|0,1:0|0:0,0:0:0:0:
228,184,55422,2,0,P|243:152|255:93,1,70,0|0,1:0|0:0,0:0:0:0:
208,8,55779,1,0,1:0:0:0:
92,104,55957,1,2,3:1:0:0:
256,112,56136,1,2,3:1:0:0:
96,112,56312,6,0,B|88:156|88:156|132:256,1,154.000004699707,4|2,3:0|3:1,0:0:0:0:
212,360,56841,2,0,L|312:340,1,70,0|0,1:0|0:0,0:0:0:0:
332,220,57207,2,0,L|432:240,1,70,2|2,3:1|3:1,0:0:0:0:
500,328,57573,1,0,1:0:0:0:
348,296,57756,1,0,0:0:0:0:
460,180,57939,38,0,L|398:129,1,77.0000023498536,4|2,3:0|3:1,0:0:0:0:
384,120,58213,1,2,3:1:0:0:
368,108,58305,1,2,3:1:0:0:
240,32,58488,2,0,B|172:96|228:108|160:176,1,154.000004699707,4|2,3:0|3:1,0:0:0:0:
284,108,59037,1,2,3:1:0:0:
104,96,59220,6,0,L|16:88,1,77.0000023498536,4|0,0:0|0:0,0:0:0:0:
84,232,59582,2,0,L|160:238,1,70,2|0,3:1|3:0,0:0:0:0:
276,212,59944,1,2,3:1:0:0:
300,324,60124,1,0,0:0:0:0:
316,328,60215,1,2,3:1:0:0:
336,334,60305,1,2,3:1:0:0:
356,336,60395,1,2,3:1:0:0:
375,336,60486,1,2,3:1:0:0:
394,334,60576,1,2,3:1:0:0:
413,331,60667,1,2,3:1:0:0:
431,325,60757,1,2,3:1:0:0:
449,317,60847,6,0,P|440:264|416:224,1,77.0000023498536,4|0,3:0|0:0,0:0:0:0:
276,212,61209,2,0,P|329:203|369:179,1,77.0000023498536,0|0,1:0|0:0,0:0:0:0:
364,40,61570,2,0,P|373:93|397:133,1,77.0000023498536,0|2,1:0|3:1,0:0:0:0:
512,176,61932,1,0,1:0:0:0:
440,33,62112,38,0,L|340:41,1,77.0000023498536,4|0,3:0|1:0,0:0:0:0:
216,80,62474,1,0,0:0:0:0:
383,113,62655,1,0,0:0:0:0:
220,156,62835,2,0,P|212:196|220:240,1,77.0000023498536,2|0,3:1|1:0,0:0:0:0:
384,264,63197,2,0,P|392:224|384:180,1,77.0000023498536,2|0,3:1|1:0,0:0:0:0:
280,56,63558,1,2,3:1:0:0:
128,80,63739,6,0,L|64:124,1,77.0000023498536,2|0,1:0|0:0,0:0:0:0:
146,251,64100,2,0,L|210:207,1,77.0000023498536,0|0,1:0|0:0,0:0:0:0:
96,188,64462,2,0,P|68:228|68:268,1,77.0000023498536,0|2,1:0|3:1,0:0:0:0:
144,376,64823,1,0,1:0:0:0:
256,276,65004,6,0,P|280:240|292:192,1,77.0000023498536,4|0,3:0|1:0,0:0:0:0:
320,36,65365,1,0,0:0:0:0:
376,204,65546,1,0,1:0:0:0:
344,28,65727,1,2,3:1:0:0:
200,132,65908,2,0,B|160:156|160:156|172:208|128:272,1,154.000004699707,0|0,1:0|1:0,0:0:0:0:
56,372,66450,1,2,3:1:0:0:
20,212,66630,38,0,L|52:128,1,77.0000023498536,4|0,3:0|0:0,0:0:0:0:
160,36,66992,2,0,L|236:56,1,77.0000023498536,0|0,1:0|0:0,0:0:0:0:
364,156,67353,2,0,L|288:136,1,77.0000023498536,0|2,1:0|3:1,0:0:0:0:
208,248,67715,1,0,1:0:0:0:
364,156,67895,1,4,3:0:0:0:
404,304,68076,6,0,L|383:228,1,77.0000023498536,0|0,1:0|0:0,0:0:0:0:
348,72,68438,1,0,1:0:0:0:
276,232,68618,1,0,0:0:0:0:
256,116,68799,1,0,1:0:0:0:
324,296,68980,1,2,3:1:0:0:
364,156,69161,1,0,1:0:0:0:
248,304,69341,1,0,0:0:0:0:
148,132,69522,6,0,L|236:16,1,115.50000352478,4|0,3:0|3:0,0:0:0:0:
212,12,69883,1,8,1:3:0:0:
76,108,70064,38,0,L|-12:224,1,115.50000352478,4|0,3:0|3:0,0:0:0:0:
8,228,70426,2,0,P|32:268|60:292,1,77.0000023498536,2|2,3:1|3:1,0:0:0:0:
196,236,70787,6,0,L|344:288,1,154.000004699707,4|2,0:0|3:1,0:0:0:0:
432,360,71329,1,8,1:3:0:0:
477,253,71510,1,8,3:0:0:0:
479,231,71600,1,8,3:0:0:0:
479,210,71691,1,8,3:0:0:0:
477,189,71781,1,8,3:0:0:0:
473,168,71871,1,8,3:0:0:0:
465,148,71962,1,8,3:0:0:0:
457,129,72052,1,8,3:0:0:0:
446,111,72142,1,8,3:0:0:0:
433,94,72233,1,8,3:0:0:0:
418,79,72323,1,8,3:0:0:0:
404,64,72414,6,0,B|280:60|280:60|244:72,1,154.000004699707,4|8,3:0|3:0,0:0:0:0:
140,140,72956,2,0,B|156:176|156:176|259:225,1,154.000004699707,4|8,3:0|3:0,0:0:0:0:
340,144,73498,2,0,P|372:204|360:276,1,115.50000352478,4|0,3:0|3:0,0:0:0:0:
332,292,73859,38,0,P|356:336|360:360,2,51.3333348999024,8|8|8,3:0|3:0|3:0,0:0:0:0:
283,270,74221,2,0,P|258:225|254:201,2,51.3333348999024,2|2|2,3:1|3:1|3:1,0:0:0:0:
262,319,74582,2,0,P|286:363|290:387,2,51.3333348999024,2|2|2,3:1|3:1|3:1,0:0:0:0:
210,320,74944,2,0,P|185:275|181:251,2,51.3333348999024,2|2|2,3:1|3:1|3:1,0:0:0:0:
184,364,75305,6,0,B|72:320|72:320|48:280,1,154.000004699707,4|8,3:0|3:0,0:0:0:0:
32,176,75847,2,0,B|72:188|72:188|168:130,1,154.000004699707,4|8,3:0|3:0,0:0:0:0:
152,16,76389,2,0,P|224:28|280:104,1,154.000004699707,4|0,0:0|0:0,0:0:0:0:
240,196,76932,5,2,1:0:0:0:
240,196,77293,1,2,1:0:0:0:
356,192,77474,1,2,3:1:0:0:
304,300,77655,1,0,0:0:0:0:
304,300,77745,1,0,0:0:0:0:
304,300,77835,1,0,0:0:0:0:
408,96,78197,5,4,0:0:0:0:
152,172,79642,5,2,3:2:0:0:
372,284,81088,53,2,3:2:0:0:
256,192,82353,12,0,89402,3:0:0:0:
