osu file format v14

[General]
AudioFilename: audio.mp3
AudioLeadIn: 0
PreviewTime: 49297
Countdown: 0
SampleSet: Soft
StackLeniency: 0.7
Mode: 0
LetterboxInBreaks: 0
WidescreenStoryboard: 0

[Editor]
DistanceSpacing: 2
BeatDivisor: 4
GridSize: 4
TimelineZoom: 2.3

[Metadata]
Title:Destin Histoire -TV size-
TitleUnicode:Destin Histoire -TV size-
Artist:yoshiki*lisa
ArtistUnicode:yoshiki*lisa
Creator:Gottagof4st
Version:Golden Fairy
Source:GOSICK
Tags:吉木りさ opening story of fate gothic yoshiki risa original soundtrack poche destiny history crimmi crimmiskye aigoh
BeatmapID:1324346
BeatmapSetID:623776

[Difficulty]
HPDrainRate:6
CircleSize:4
OverallDifficulty:8
ApproachRate:9
SliderMultiplier:1.4
SliderTickRate:1

[Events]
//Background and Video events
0,0,"bg.jpg",0,0
//Break Periods
//Storyboard Layer 0 (Background)
//Storyboard Layer 1 (Fail)
//Storyboard Layer 2 (Pass)
//Storyboard Layer 3 (Foreground)
//Storyboard Sound Samples

[TimingPoints]
141,361.44578313253,4,2,4,20,1,0
141,-125,4,2,4,20,0,0
5201,-125,4,2,4,40,0,0
5924,358.208955223881,4,2,4,40,1,0
5924,-100,4,2,4,40,0,0
7715,361.44578313253,4,2,4,50,1,0
8799,361.44578313253,4,2,4,50,1,0
12774,368.098159509202,4,2,4,50,1,0
13878,355.029585798817,4,2,4,50,1,0
14588,361.44578313253,4,2,4,40,1,0
14588,-125,4,2,4,40,0,0
24708,356.612184249629,4,2,4,40,1,0
26134,361.554685146128,4,2,4,40,1,0
37703,-125,4,2,4,40,0,0
46019,-100,4,2,4,40,0,0
49297,361.44578313253,4,2,4,50,1,1
49297,-83.3333333333333,4,2,4,50,0,1
55065,357.142857142857,4,2,4,50,1,1
55065,-83.3333333333333,4,2,4,50,0,1
56136,352.941176470588,4,2,4,50,1,1
56312,-83.3333333333333,4,2,4,50,0,1
56841,366.07687614399,4,2,4,50,1,1
56841,-83.3333333333333,4,2,4,50,0,1
59220,-82.9875518672199,4,2,4,50,0,1
59402,361.44578313253,4,2,4,50,1,1
59582,-83.3333333333333,4,2,4,50,0,1
72414,-83.3333333333333,4,2,4,40,0,0
89401,-100,4,2,4,5,0,0

[Colours]
Combo1 : 128,108,0
Combo2 : 252,196,3
Combo3 : 255,255,83
Combo4 : 177,177,177
Combo5 : 95,95,95

[HitObjects]
140,48,141,38,0,P|100:40|64:36,2,56,2|0|0,0:0|0:0|0:0,0:0:0:0:
212,92,683,1,0,0:0:0:0:
212,92,1044,1,0,0:0:0:0:
164,252,1406,1,0,0:0:0:0:
183,338,1586,6,0,P|155:333|128:328,2,56,2|0|0,0:0|0:0|0:0,0:0:0:0:
264,316,2128,1,0,0:0:0:0:
264,316,2490,1,0,0:0:0:0:
344,168,2851,1,0,0:0:0:0:
408,112,3032,54,0,P|418:138|426:164,2,56,2|0|0,0:0|0:0|0:0,0:0:0:0:
352,48,3574,1,0,0:0:0:0:
352,48,3936,1,0,0:0:0:0:
188,88,4297,1,0,0:0:0:0:
124,140,4478,2,0,L|84:88,2,56
368,152,5201,53,0,1:0:0:0:
144,232,5381,1,0,1:0:0:0:
285,105,5924,38,0,L|176:104,1,105,4|0,3:2|0:0,0:0:0:0:
148,120,6282,2,0,P|124:164|124:196,1,70,0|0,1:0|0:0,0:0:0:0:
208,296,6640,1,2,3:1:0:0:
180,104,6819,1,2,3:1:0:0:
124,264,6998,1,0,1:0:0:0:
308,232,7177,6,0,L|459:212,1,140,4|2,0:0|3:1,0:0:0:0:
512,76,7715,2,0,L|421:87,1,70,4|2,0:0|3:1,0:0:0:0:
288,48,8075,1,2,3:1:0:0:
200,188,8256,1,0,0:0:0:0:
288,24,8437,1,0,1:0:0:0:
308,232,8618,1,2,3:1:0:0:
120,144,8799,6,0,P|108:180|120:228,1,70,4|0,3:2|3:0,0:0:0:0:
192,352,9160,2,0,L|276:344,1,70,0|0,1:0|0:0,0:0:0:0:
408,268,9521,2,0,P|420:232|408:184,1,70,4|0,3:2|3:0,0:0:0:0:
364,92,9883,1,0,1:0:0:0:
228,196,10063,38,0,L|336:220,1,105,4|0,3:2|3:0,0:0:0:0:
408,268,10425,1,2,3:1:0:0:
276,128,10605,1,0,1:1:0:0:
124,268,10786,2,0,L|232:292,1,105,4|0,3:2|3:0,0:0:0:0:
304,340,11148,1,2,3:1:0:0:
480,300,11328,2,0,P|484:252|476:216,1,70,0|0,1:0|0:0,0:0:0:0:
380,36,11690,6,0,L|330:128,1,105,4|0,3:2|3:0,0:0:0:0:
256,184,12051,1,0,1:0:0:0:
224,20,12232,2,0,L|184:95,1,70,4|0,3:2|3:0,0:0:0:0:
68,256,12593,1,8,3:0:0:0:
68,256,12684,1,8,3:0:0:0:
68,256,12774,6,0,P|140:252|220:256,1,140,4|0,3:2|0:0,0:0:0:0:
396,364,13326,1,2,3:1:0:0:
396,364,13418,1,2,3:1:0:0:
396,364,13510,1,2,3:1:0:0:
372,160,13694,2,0,L|348:216,1,35
296,352,13878,5,0,0:0:0:0:
208,92,14055,1,0,1:0:0:0:
356,40,14588,38,0,P|384:80|408:152,1,112,10|8,0:0|0:2,0:0:0:0:
372,228,15130,1,0,0:0:0:0:
372,228,15310,2,0,P|376:276|361:350,1,112,10|8,0:0|0:2,0:0:0:0:
272,356,15853,1,0,0:0:0:0:
272,356,16033,54,0,L|192:348,1,56,8|0,0:0|0:0,0:0:0:0:
164,268,16395,2,0,L|84:276,1,56,8|0,0:0|0:0,0:0:0:0:
28,220,16756,2,0,P|32:156|48:92,1,112,8|8,0:0|0:0,0:0:0:0:
112,44,17298,1,0,0:0:0:0:
156,176,17479,6,0,P|216:184|280:148,1,112,10|8,0:0|0:0,0:0:0:0:
300,76,18021,1,0,0:0:0:0:
300,76,18202,6,0,P|360:68|424:104,1,112,10|8,0:0|0:0,0:0:0:0:
472,156,18744,1,0,0:0:0:0:
472,156,18925,54,0,P|472:184|452:220,1,56,8|0,0:0|0:0,0:0:0:0:
384,264,19286,2,0,P|373:238|373:210,1,56,8|0,0:0|0:0,0:0:0:0:
292,164,19648,2,0,L|212:180,1,56,8|0,0:0|0:0,0:0:0:0:
200,272,20009,1,8,0:0:0:0:
108,200,20190,1,0,0:0:0:0:
32,336,20370,6,0,P|8:276|8:204,1,112,10|8,0:0|0:0,0:0:0:0:
32,136,20913,1,0,0:0:0:0:
32,136,21094,2,0,P|92:112|164:112,1,112,10|8,0:0|0:0,0:0:0:0:
208,172,21636,1,0,0:0:0:0:
248,36,21816,6,0,P|311:45|374:81,1,112,10|8,0:0|0:0,0:0:0:0:
404,148,22359,1,0,0:0:0:0:
404,148,22539,2,0,L|396:259,1,112,8|8,0:0|0:0,0:0:0:0:
332,332,23081,1,0,0:0:0:0:
240,252,23262,6,0,L|236:188,1,56,10|0,0:0|0:0,0:0:0:0:
332,332,23623,1,8,0:0:0:0:
208,280,23804,2,0,L|204:216,1,56,10|0,0:0|0:0,0:0:0:0:
204,80,24166,2,0,P|224:55|256:40,2,56,0|2|0,0:0|0:0|0:0,0:0:0:0:
108,228,24708,53,10,0:0:0:0:
108,228,25064,1,0,0:0:0:0:
104,80,25242,1,0,0:0:0:0:
16,200,25421,1,2,3:0:0:0:
212,236,25599,21,0,1:0:0:0:
0,124,25777,1,0,1:0:0:0:
232,84,25956,1,0,1:0:0:0:
12,8,26134,6,0,P|88:0|168:0,1,140,4|8,3:0|0:3,0:0:0:0:
296,16,26676,1,0,0:0:0:0:
296,16,26857,2,0,P|328:80|296:160,1,140,4|8,3:0|0:3,0:0:0:0:
188,224,27399,1,0,0:0:0:0:
272,372,27580,6,0,L|424:352,1,140,2|8,0:1|0:3,0:0:0:0:
505,188,28122,1,0,0:0:0:0:
357,284,28303,1,2,0:1:0:0:
501,172,28484,1,0,0:0:0:0:
328,192,28664,1,8,0:3:0:0:
410,353,28845,1,0,0:0:0:0:
392,84,29026,38,0,P|336:64|252:96,1,140,2|8,0:1|0:3,0:0:0:0:
156,188,29568,1,0,0:0:0:0:
156,188,29749,2,0,P|212:168|296:200,1,140,2|8,0:1|0:3,0:0:0:0:
396,288,30291,1,0,0:0:0:0:
396,288,30472,38,0,P|340:268|256:300,1,140,2|8,0:1|0:3,0:0:0:0:
144,364,31014,1,0,0:0:0:0:
80,188,31195,1,0,0:0:0:0:
160,364,31376,1,0,0:0:0:0:
180,160,31557,1,8,0:3:0:0:
36,288,31738,1,0,0:0:0:0:
284,208,31918,6,0,P|288:124|248:68,1,140,2|8,0:1|0:3,0:0:0:0:
116,36,32461,1,0,0:0:0:0:
116,36,32641,2,0,P|41:74|12:137,1,140,2|8,0:1|0:3,0:0:0:0:
84,200,33184,1,0,0:0:0:0:
0,320,33365,38,0,P|72:328|156:320,1,140,2|8,0:1|0:3,0:0:0:0:
280,151,33907,1,0,0:0:0:0:
116,215,34088,1,2,0:1:0:0:
304,239,34268,1,0,0:0:0:0:
208,87,34449,1,8,0:3:0:0:
208,303,34630,1,0,0:0:0:0:
208,303,34811,6,0,L|116:323,1,70,2|0,0:1|0:0,0:0:0:0:
276,351,35172,1,8,0:3:0:0:
144,239,35353,2,0,L|52:259,1,70,0|2,0:0|0:1,0:0:0:0:
0,216,35715,1,0,0:0:0:0:
176,156,35895,1,8,0:3:0:0:
12,68,36076,1,0,0:0:0:0:
12,68,36257,6,0,P|84:40|172:36,1,140,2|0,0:1|1:0,0:0:0:0:
336,56,36799,1,0,0:0:0:0:
136,128,36980,5,0,1:0:0:0:
228,124,37161,1,0,1:0:0:0:
296,184,37342,1,0,1:0:0:0:
300,280,37522,1,0,1:0:0:0:
300,280,37703,6,0,L|428:296,1,112,4|2,3:0|3:0,0:0:0:0:
484,212,38246,1,2,0:1:0:0:
484,212,38426,2,0,P|476:176|456:152,1,56,8|0,0:3|0:0,0:0:0:0:
396,88,38788,2,0,P|359:83|330:93,1,56,8|0,0:3|0:0,0:0:0:0:
256,168,39149,1,0,0:0:0:0:
256,168,39330,6,0,L|196:144,1,56,2|2,0:1|3:0,0:0:0:0:
108,108,39692,1,2,0:1:0:0:
108,108,39873,2,0,L|100:176,1,56,8|0,0:3|0:0,0:0:0:0:
180,244,40234,2,0,L|188:312,1,56,2|0,3:0|0:0,0:0:0:0:
288,348,40596,54,0,L|424:324,1,112,2|2,0:1|3:0,0:0:0:0:
440,224,41138,1,2,0:1:0:0:
440,224,41319,2,0,P|448:188|448:156,1,56,8|0,0:3|0:0,0:0:0:0:
400,68,41680,2,0,P|370:45|341:32,1,56,8|0,0:3|0:0,0:0:0:0:
244,52,42042,5,2,0:1:0:0:
244,52,42223,2,0,L|124:72,1,112
48,144,42765,2,0,L|124:160,1,56,8|0,0:3|0:0,0:0:0:0:
196,220,43127,2,0,L|120:236,1,56,8|0,0:3|0:0,0:0:0:0:
284,328,43488,54,0,P|324:284|332:216,1,112,4|2,3:0|3:0,0:0:0:0:
256,152,44030,1,0,0:0:0:0:
256,152,44211,2,0,P|252:104|260:72,1,56,8|0,0:3|0:0,0:0:0:0:
312,0,44573,1,2,3:0:0:0:
328,120,44754,1,0,0:0:0:0:
184,72,44934,5,2,0:1:0:0:
184,72,45115,2,0,L|113:45,1,56,8|2,0:3|0:1,0:0:0:0:
56,52,45477,1,0,0:0:0:0:
104,160,45657,2,0,L|180:188,1,56,10|0,3:3|0:0,0:0:0:0:
324,212,46019,1,8,3:0:0:0:
356,180,46109,1,8,3:0:0:0:
368,136,46200,1,8,3:0:0:0:
368,92,46290,1,8,3:0:0:0:
340,52,46381,6,0,P|300:24|256:20,1,70,4|0,0:3|0:0,0:0:0:0:
108,52,46742,1,8,3:0:0:0:
264,101,46923,2,0,P|264:137|252:177,1,70,4|0,3:0|0:0,0:0:0:0:
160,296,47284,1,8,3:0:0:0:
160,296,47375,1,8,3:0:0:0:
160,296,47465,1,8,3:0:0:0:
187,161,47646,6,0,P|223:161|263:173,1,70,4|0,3:0|0:0,0:0:0:0:
400,336,48008,2,0,L|416:288,1,35,2|2,3:1|3:1,0:0:0:0:
340,180,48188,2,0,L|324:228,1,35,2|2,3:1|3:1,0:0:0:0:
432,308,48369,2,0,L|448:260,1,35,2|2,3:1|3:1,0:0:0:0:
460,112,48550,5,0,1:0:0:0:
304,344,48731,1,0,1:0:0:0:
252,60,49092,5,2,3:2:0:0:
252,60,49297,38,0,L|152:76,1,83.9999974365235,4|0,3:0|0:0,0:0:0:0:
20,224,49658,2,0,L|120:208,1,83.9999974365235,0|0,1:0|0:0,0:0:0:0:
296,128,50019,1,2,3:1:0:0:
144,276,50200,1,2,3:1:0:0:
316,156,50381,1,0,1:0:0:0:
232,372,50562,6,0,L|408:352,1,167.999994873047,4|2,3:0|3:1,0:0:0:0:
316,156,51104,2,0,L|274:263,1,83.9999974365235,0|0,1:0|0:0,0:0:0:0:
398,353,51465,1,2,3:1:0:0:
448,148,51646,1,2,3:1:0:0:
452,300,51827,1,0,1:0:0:0:
391,99,52007,1,0,0:0:0:0:
336,300,52188,6,0,P|260:312|204:260,1,125.999996154785,4|0,3:0|3:0,0:0:0:0:
188,260,52550,2,0,L|188:176,1,83.9999974365235,0|0,1:0|0:0,0:0:0:0:
264,52,52911,1,2,3:1:0:0:
100,180,53092,1,2,3:1:0:0:
284,80,53272,1,0,1:0:0:0:
64,88,53453,38,0,P|4:160|20:236,1,167.999994873047,4|0,3:0|0:0,0:0:0:0:
170,327,53995,1,8,1:3:0:0:
170,327,54176,2,0,L|338:299,1,167.999994873047,4|2,3:0|3:1,0:0:0:0:
480,212,54718,2,0,L|494:128,1,83.9999974365235,4|0,0:0|0:0,0:0:0:0:
384,0,55065,6,0,L|370:84,1,83.9999974365235,0|0,1:0|0:0,0:0:0:0:
284,236,55422,1,0,1:0:0:0:
180,64,55600,1,0,0:0:0:0:
312,228,55779,1,2,3:1:0:0:
272,4,55957,1,2,3:1:0:0:
80,128,56136,1,0,1:0:0:0:
332,136,56312,6,0,P|392:176|384:288,1,167.999994873047,4|2,3:0|3:1,0:0:0:0:
188,276,56841,1,0,1:0:0:0:
268,80,57024,1,0,0:0:0:0:
268,252,57207,1,2,3:1:0:0:
188,56,57391,1,2,3:1:0:0:
104,248,57573,2,0,L|24:208,1,83.9999974365235,0|0,1:0|0:0,0:0:0:0:
236,144,57939,38,0,P|268:176|276:244,1,83.9999974365235,4|2,3:0|3:1,0:0:0:0:
276,232,58213,1,2,3:1:0:0:
268,252,58305,1,2,3:1:0:0:
100,236,58488,2,0,L|20:196,1,83.9999974365235,4|0,3:0|0:0,0:0:0:0:
160,132,58854,1,2,3:1:0:0:
204,340,59037,1,2,3:1:0:0:
384,232,59220,6,0,P|400:164|392:108,1,125.999996154785,4|0,0:0|3:0,0:0:0:0:
372,72,59582,2,0,L|284:80,1,83.9999974365235,2|0,3:1|3:0,0:0:0:0:
144,168,59944,1,2,3:1:0:0:
224,316,60124,2,0,L|280:312,1,41.9999987182618,2|2,3:1|3:1,0:0:0:0:
340,160,60305,2,0,L|284:164,1,41.9999987182618,2|2,3:1|3:1,0:0:0:0:
296,332,60486,2,0,L|352:328,1,41.9999987182618,2|2,3:1|3:1,0:0:0:0:
408,176,60667,2,0,L|352:180,1,41.9999987182618,2|2,3:1|3:1,0:0:0:0:
428,348,60847,6,0,L|496:264,1,83.9999974365235,4|0,3:0|0:0,0:0:0:0:
412,84,61209,1,0,1:0:0:0:
268,240,61389,1,0,0:0:0:0:
496,192,61570,1,0,1:0:0:0:
243,136,61751,1,2,3:1:0:0:
480,282,61932,1,0,1:0:0:0:
316,40,62112,38,0,L|208:72,1,83.9999974365235,4|0,3:0|1:0,0:0:0:0:
100,224,62474,2,0,L|208:256,1,83.9999974365235,0|0,0:0|1:0,0:0:0:0:
312,320,62835,1,0,0:0:0:0:
364,116,63016,1,0,1:0:0:0:
324,324,63197,1,2,3:1:0:0:
284,116,63377,1,0,1:0:0:0:
456,276,63558,1,2,3:1:0:0:
180,247,63739,6,0,L|100:224,1,83.9999974365235,0|0,0:0|1:0,0:0:0:0:
141,46,64100,2,0,L|221:69,1,83.9999974365235,0|0,0:0|1:0,0:0:0:0:
427,128,64462,1,0,1:0:0:0:
212,176,64642,1,2,3:1:0:0:
334,6,64823,1,0,1:0:0:0:
352,244,65004,5,4,3:0:0:0:
260,44,65185,1,0,1:0:0:0:
248,256,65365,1,4,3:0:0:0:
427,128,65546,1,0,1:0:0:0:
228,112,65727,1,0,3:0:0:0:
308,308,65908,2,0,L|340:388,1,83.9999974365235,0|0,1:0|0:0,0:0:0:0:
472,376,66269,1,0,1:0:0:0:
348,168,66450,1,2,3:1:0:0:
348,168,66630,38,0,B|219:138|219:138|176:156,1,167.999994873047,4|0,3:0|1:0,0:0:0:0:
72,328,67173,1,0,0:0:0:0:
112,104,67353,1,0,1:0:0:0:
196,332,67534,1,2,3:1:0:0:
4,156,67715,1,0,1:0:0:0:
240,220,67895,6,0,L|220:116,1,83.9999974365235,4|0,3:0|1:0,0:0:0:0:
342,18,68257,1,0,0:0:0:0:
410,247,68438,1,0,1:0:0:0:
410,77,68618,1,0,0:0:0:0:
342,307,68799,1,0,1:0:0:0:
470,151,68980,1,2,3:1:0:0:
224,137,69161,1,0,1:0:0:0:
479,160,69341,1,0,0:0:0:0:
208,256,69522,6,0,P|132:236|80:204,1,125.999996154785,4|0,3:0|3:0,0:0:0:0:
64,180,69883,1,8,1:3:0:0:
113,336,70064,2,0,P|73:268|59:208,1,125.999996154785,4|0,3:0|3:0,0:0:0:0:
64,180,70426,2,0,L|136:120,1,83.9999974365235,2|2,3:1|3:1,0:0:0:0:
272,28,70787,38,0,L|444:76,1,167.999994873047,4|2,0:0|3:1,0:0:0:0:
436,260,71329,1,8,1:3:0:0:
280,224,71510,2,0,L|280:172,1,41.9999987182618,8|8,3:0|3:0,0:0:0:0:
404,280,71691,2,0,L|404:332,1,41.9999987182618,8|8,3:0|3:0,0:0:0:0:
216,352,71871,1,8,3:0:0:0:
184,344,71962,1,8,3:0:0:0:
156,324,72052,1,8,3:0:0:0:
132,300,72142,1,8,3:0:0:0:
116,272,72233,1,8,3:0:0:0:
108,240,72323,1,8,3:0:0:0:
104,208,72414,6,0,P|108:136|132:80,1,125.999996154785,4|0,3:0|3:0,0:0:0:0:
148,52,72775,1,8,3:0:0:0:
228,195,72956,2,0,P|179:141|157:84,1,125.999996154785,4|0,3:0|3:0,0:0:0:0:
148,52,73317,1,8,3:0:0:0:
328,120,73498,2,0,P|376:173|398:230,1,125.999996154785,4|0,3:0|3:0,0:0:0:0:
408,272,73859,6,0,L|460:324,2,55.9999982910157,8|8|8,3:0|3:0|3:0,0:0:0:0:
340,272,74221,2,0,L|288:220,2,55.9999982910157,2|2|2,3:1|3:1|3:1,0:0:0:0:
328,340,74582,2,0,L|380:392,2,55.9999982910157,2|2|2,3:1|3:1|3:1,0:0:0:0:
276,308,74944,1,2,3:1:0:0:
224,288,75064,1,2,3:1:0:0:
168,288,75185,1,2,3:1:0:0:
120,316,75305,38,0,P|116:240|144:176,1,125.999996154785,4|0,3:0|3:0,0:0:0:0:
156,160,75667,1,8,3:0:0:0:
20,232,75847,2,0,P|71:176|136:152,1,125.999996154785,4|0,3:0|3:0,0:0:0:0:
156,160,76209,1,8,3:0:0:0:
264,224,76389,6,0,L|436:180,1,167.999994873047,4|0,0:0|0:0,0:0:0:0:
328,108,76932,1,2,1:0:0:0:
328,108,77293,1,2,1:0:0:0:
224,40,77474,1,2,3:1:0:0:
168,152,77655,1,2,3:1:0:0:
168,152,77745,1,2,3:1:0:0:
168,152,77835,1,2,3:1:0:0:
396,316,78197,21,4,0:0:0:0:
336,84,79642,5,2,3:2:0:0:
136,208,81088,53,2,3:2:0:0:
256,192,82353,12,0,89401,3:0:0:0:
