osu file format v14

[General]
AudioFilename: audio.mp3
AudioLeadIn: 0
PreviewTime: 49097
Countdown: 0
SampleSet: Soft
StackLeniency: 0.7
Mode: 0
LetterboxInBreaks: 0
WidescreenStoryboard: 1

[Editor]
Bookmarks: 60850,69518
DistanceSpacing: 1.5
BeatDivisor: 8
GridSize: 32
TimelineZoom: 3.099999

[Metadata]
Title:Destin Histoire (TV Size)
TitleUnicode:Destin Histoire (TV Size)
Artist:yoshiki*lisa
ArtistUnicode:yoshiki*lisa
Creator:Froskya
Version:kxlman's Another
Source:GOSICK
Tags:吉木りさ -ゴシック- japanese anime pop jpop j-pop opening op story of fate gothic yoshiki risa lisa original soundtrack ost destiny history female vocals vocalist Victorique de Blois ヴィクトリカ・ド・ブロワ ヴィクトリカ ド ブロワ revialink kxlman original3s fackel theoneforce 1force
BeatmapID:3524598
BeatmapSetID:1713118

[Difficulty]
HPDrainRate:5.6
CircleSize:3.6
OverallDifficulty:8.8
ApproachRate:9
SliderMultiplier:1.7
SliderTickRate:1

[Events]
//Background and Video events
0,0,"uwu.jpg",0,0
Video,-425,"celeste vibes.mp4"
//Break Periods
//Storyboard Layer 0 (Background)
//Storyboard Layer 1 (Fail)
//Storyboard Layer 2 (Pass)
//Storyboard Layer 3 (Foreground)
//Storyboard Layer 4 (Overlay)
//Storyboard Sound Samples

[TimingPoints]
137,361.44578313253,4,2,1,40,1,0
317,-166.666666666667,4,2,1,40,0,0
1582,-166.666666666667,4,2,1,50,0,0
3028,-166.666666666667,4,2,1,60,0,0
5197,-166.666666666667,4,2,2,70,0,0
5920,355.029585798817,4,2,1,75,1,0
7162,375,4,2,1,75,1,0
7706,361.44578313253,4,2,1,75,1,0
8067,419.58041958042,4,2,1,75,1,0
8276,340.909090909091,4,2,1,75,1,0
8446,379.746835443038,4,2,1,75,1,0
8809,355.029585798817,4,2,1,75,1,0
10051,365.853658536585,4,2,1,75,1,0
10782,361.44578313253,4,2,1,75,1,0
11307,361.44578313253,4,2,1,75,1,0
11668,372.670807453416,4,2,1,75,1,0
12599,359.281437125748,4,2,1,80,1,0
12778,365.853658536585,4,2,1,80,1,0
13875,370.37037037037,4,2,1,80,1,0
14605,355.029585798817,4,2,3,50,1,0
14605,-142.857142857143,4,2,3,50,0,0
15315,361.44578313253,4,2,3,40,1,0
15315,-166.666666666667,4,2,3,40,0,0
16037,357.142857142857,4,2,3,50,1,0
16037,-166.666666666667,4,2,3,50,0,0
16747,361.44578313253,4,2,3,50,1,0
16747,-166.666666666667,4,2,3,50,0,0
17463,375,4,2,3,50,1,0
17463,-166.666666666667,4,2,3,50,0,0
18213,357.142857142857,4,2,3,50,1,0
18213,-142.857142857143,4,2,3,50,0,0
18570,354.50516986706,4,2,3,50,1,0
18924,361.44578313253,4,2,3,50,1,0
18924,-142.857142857143,4,2,3,50,0,0
19646,350.877192982456,4,2,3,50,1,0
19646,-142.857142857143,4,2,3,50,0,0
19996,373.250388802488,4,2,3,50,1,0
20369,363.636363636364,4,2,3,50,1,0
20369,-142.857142857143,4,2,3,50,0,0
21823,357.142857142857,4,2,3,50,1,0
21823,-142.857142857143,4,2,3,50,0,0
22537,363.636363636364,4,2,3,40,1,0
22537,-142.857142857143,4,2,3,40,0,0
23264,357.142857142857,4,2,3,50,1,0
23264,-142.857142857143,4,2,3,50,0,0
24692,368.098159509202,4,2,3,60,1,0
25060,-142.857142857143,4,2,3,60,0,0
25244,359.281437125748,4,2,2,60,1,0
25423,-100,4,2,2,60,0,0
25603,342.857142857143,4,2,1,70,1,0
26117,370.37037037037,4,2,1,75,1,0
26117,-111.111111111111,4,2,1,75,0,0
26857,-100,4,2,1,75,0,0
27598,365.853658536585,4,2,1,75,1,0
27598,-111.111111111111,4,2,1,75,0,0
27963,363.636363636363,4,2,1,75,1,0
28326,-111.111111111111,4,2,1,75,0,0
28681,368.098159509202,4,2,1,75,1,0
29049,-111.111111111111,4,2,1,75,0,0
29785,355.029585798817,4,2,1,75,1,0
29785,-111.111111111111,4,2,1,75,0,0
30495,363.636363636364,4,2,1,75,1,0
30495,-111.111111111111,4,2,1,75,0,0
31206,368.098159509202,4,2,1,75,1,0
31206,-111.111111111111,4,2,1,75,0,0
31930,361.44578313253,4,2,1,75,1,0
31930,-111.111111111111,4,2,1,75,0,0
32277,365.853658536585,4,2,1,75,1,0
32642,-111.111111111111,4,2,1,75,0,0
33374,363.636363636364,4,2,1,75,1,0
33374,-111.111111111111,4,2,1,75,0,0
34828,361.44578313253,4,2,1,75,1,0
34828,-111.111111111111,4,2,1,75,0,0
37357,352.941176470588,4,2,1,75,1,0
37709,372.670807453416,4,2,2,70,1,0
37709,-133.333333333333,4,2,2,70,0,0
38081,387.096774193548,4,2,2,70,1,0
38274,-133.333333333333,4,2,2,70,0,0
38468,355.029585798816,4,2,2,70,1,0
38978,355.029585798816,4,2,2,70,1,0
39156,379.746835443038,4,2,2,70,1,0
39156,-133.333333333333,4,2,2,70,0,0
39522,350.877192982456,4,2,2,70,1,0
39697,-133.333333333333,4,2,2,70,0,0
39872,379.746835443038,4,2,2,70,1,0
40251,-133.333333333333,4,2,2,70,0,0
40616,361.44578313253,4,2,2,70,1,0
40616,-133.333333333333,4,2,2,70,0,0
42061,352.941176470588,4,2,2,70,1,0
42237,-133.333333333333,4,2,2,70,0,0
42413,370.37037037037,4,2,2,70,1,0
42598,-133.333333333333,4,2,2,70,0,0
42783,362.187613183629,4,2,2,70,1,0
42964,-133.333333333333,4,2,2,70,0,0
43507,365.853658536585,4,2,2,70,1,0
43507,-133.333333333333,4,2,2,70,0,0
44604,357.142857142857,4,2,2,70,1,0
44961,-133.333333333333,4,2,2,70,0,0
45318,377.358490566038,4,2,2,70,1,0
45506,-133.333333333333,4,2,2,70,0,0
45695,342.857142857143,4,2,2,70,1,0
46037,335.195530726257,4,2,2,70,1,0
46387,379.746835443038,4,2,2,75,1,0
46387,-111.111111111111,4,2,2,75,0,0
46766,338.983050847457,4,2,2,75,1,0
46935,357.142857142857,4,2,2,75,1,0
47649,361.44578313253,4,2,2,75,1,0
48010,350.877192982456,4,2,2,75,1,0
49097,384.615384615384,4,2,2,75,1,0
49289,363.636363636364,4,2,2,85,1,1
49289,-90.9090909090909,4,2,2,85,0,1
49652,335.195530726257,4,2,2,85,1,1
49819,387.096774193548,4,2,2,85,1,1
49819,-90.9090909090909,4,2,2,85,0,1
50182,402.684563758389,4,2,2,85,1,1
50182,-90.9090909090909,4,2,2,85,0,1
50383,348.837209302325,4,2,2,85,1,1
50557,361.44578313253,4,2,2,85,1,1
50557,-90.9090909090909,4,2,2,85,0,1
50828,-90.9090909090909,4,2,2,5,0,1
50918,359.281437125748,4,2,2,80,1,1
51277,363.636363636364,4,2,2,80,1,1
51277,-90.9090909090909,4,2,2,80,0,1
52186,340.909090909091,4,2,2,85,1,1
52186,-90.9090909090909,4,2,2,85,0,1
52441,-90.9090909090909,4,2,2,5,0,1
52526,-90.9090909090909,4,2,2,85,0,1
52698,387.096774193548,4,2,2,85,1,1
53085,344.827586206896,4,2,2,85,1,1
53085,-90.9090909090909,4,2,2,85,0,1
53429,344.827586206897,4,2,2,80,1,1
53601,361.44578313253,4,2,2,85,1,1
53962,342.857142857143,4,2,2,85,1,1
54133,385.232744783307,4,2,2,85,1,1
54133,-90.9090909090909,4,2,2,85,0,1
54518,357.142857142857,4,2,2,85,1,1
55053,368.098159509202,4,2,2,85,1,1
55053,-90.9090909090909,4,2,2,85,0,1
55421,352.941176470588,4,2,2,85,1,1
55597,-90.9090909090909,4,2,2,85,0,1
55950,363.636363636364,4,2,2,85,1,1
55950,-90.9090909090909,4,2,2,85,0,1
56309,359.281437125748,4,2,2,85,1,1
56578,-100,4,2,2,5,0,1
56668,-100,4,2,2,85,0,1
57027,-90.9090909090909,4,2,2,85,0,1
57386,363.636363636364,4,2,2,85,1,1
57386,-90.9090909090909,4,2,2,85,0,1
57931,369.230769230769,4,2,2,80,1,0
57931,-90.9090909090909,4,2,2,80,0,0
58854,365.853658536585,4,2,2,80,1,0
59220,361.44578313253,4,2,2,80,1,0
59220,-90.9090909090909,4,2,2,80,0,0
59942,365.853658536585,4,2,2,80,1,0
60673,355.029585798817,4,2,2,80,1,0
60673,-90.9090909090909,4,2,2,80,0,0
60850,361.44578313253,4,2,2,85,1,1
60850,-89.2857142857143,4,2,2,85,0,1
61572,365.853658536585,4,2,2,85,1,1
62120,-90.9090909090909,4,2,2,85,0,1
62303,350.877192982456,4,2,2,85,1,1
62829,363.636363636364,4,2,2,85,1,1
63374,357.142857142857,4,2,2,85,1,1
63740,372.670807453416,4,2,2,85,1,1
63740,-90.9090909090909,4,2,2,85,0,1
64485,338.983050847457,4,2,2,85,1,1
64654,361.44578313253,4,2,2,85,1,1
64834,-90.9090909090909,4,2,2,85,0,1
65005,350.877192982456,4,2,2,85,1,1
65355,363.636363636364,4,2,2,85,1,1
65902,375,4,2,2,85,1,1
65902,-90.9090909090909,4,2,2,85,0,1
66464,320.855614973262,4,2,2,85,1,1
66624,365.853658536585,4,2,2,85,1,1
66624,-90.9090909090909,4,2,2,85,0,1
66989,377.358490566038,4,2,2,85,1,1
67542,361.44578313253,4,2,2,85,1,1
67903,357.142857142857,4,2,2,85,1,1
67903,-90.9090909090909,4,2,2,85,0,1
68081,375,4,2,2,85,1,1
68456,357.142857142857,4,2,2,85,1,1
68634,-90.9090909090909,4,2,2,85,0,1
68813,346.820809248555,4,2,2,85,1,1
68986,-90.9090909090909,4,2,2,85,0,1
69159,359.281437125748,4,2,2,85,1,1
69518,-89.2857142857143,4,2,2,80,0,1
70057,346.820809248555,4,2,2,80,1,1
70057,-90.9090909090909,4,2,2,80,0,1
70403,379.746835443038,4,2,2,80,1,1
70403,-90.9090909090909,4,2,2,80,0,1
70782,368.098159509202,4,2,2,80,1,1
70782,-92.5925925925926,4,2,2,80,0,1
71518,352.941176470588,4,2,2,85,1,1
72417,384.615384615385,4,2,2,80,1,0
72801,338.983050847457,4,2,2,80,1,0
72970,363.636363636364,4,2,2,80,1,0
73502,375,4,2,2,80,1,0
73877,333.333333333333,4,2,2,70,1,0
74432,370.370370370371,4,2,2,70,1,0
75310,363.636363636364,4,2,2,80,1,0
76380,361.44578313253,4,2,2,80,1,0
76922,365.853658536585,4,2,2,70,1,0
76967,-100,4,2,2,70,0,0
77470,382.165605095541,4,2,2,70,1,0
77852,370.37037037037,4,2,2,70,1,0
78222,352.941176470588,4,2,1,60,1,0
78222,-133.333333333333,4,2,1,60,0,0
78751,-153.846153846154,4,2,1,60,0,0
78927,357.142857142857,4,2,2,60,1,0
78927,-133.333333333333,4,2,2,60,0,0
79462,-100,4,2,1,60,0,0
79641,361.44578313253,4,2,2,60,1,0
79641,-133.333333333333,4,2,2,60,0,0
80002,-133.333333333333,4,2,1,60,0,0
80363,375,4,2,2,60,1,0
80363,-133.333333333333,4,2,2,60,0,0
80925,-100,4,2,1,60,0,0
81113,365.853658536585,4,2,2,60,1,0
81113,-133.333333333333,4,2,2,60,0,0
81478,-133.333333333333,4,2,1,60,0,0
81661,375,4,2,1,60,1,0
81661,-133.333333333333,4,2,1,60,0,0
82411,416.666666666667,4,2,1,60,1,0
82411,-161.290322580645,4,2,1,60,0,0
83452,359.281437125748,4,2,1,60,1,0

[Colours]
Combo1 : 182,129,254
Combo2 : 128,255,128
Combo3 : 255,255,128
Combo4 : 128,255,255

[HitObjects]
97,249,137,5,2,0:0:0:0:
177,172,317,2,0,L|187:238,1,50.9999999999999,2|2,0:0|0:0,0:0:0:0:
265,140,679,2,0,P|226:92|165:81,1,102,2|2,0:0|0:0,0:0:0:0:
189,80,1402,1,2,0:0:0:0:
127,181,1582,6,0,L|183:171,1,50.9999999999999,2|2,0:0|0:0,0:0:0:0:
258,229,1944,1,2,0:0:0:0:
308,118,2124,2,0,L|423:138,1,102,2|2,0:0|0:0,0:0:0:0:
408,135,2847,1,2,0:0:0:0:
353,258,3028,6,0,L|343:200,1,50.9999999999999,2|2,0:0|0:0,0:0:0:0:
452,242,3390,1,2,0:0:0:0:
376,349,3570,2,0,B|313:363|324:328|262:344,1,102,2|2,0:0|0:0,0:0:0:0:
276,340,4293,1,2,0:0:0:0:
256,246,4655,5,2,0:0:0:0:
91,126,5197,5,14,1:2:0:0:
143,317,5377,1,14,1:2:0:0:
143,317,5920,6,0,L|59:302,1,85,4|0,1:0|0:0,0:0:0:0:
174,176,6275,2,0,L|257:161,1,85,10|0,0:0|0:0,0:0:0:0:
357,309,6630,2,0,P|314:307|278:286,1,85,2|0,1:2|1:0,0:0:0:0:
410,142,6985,1,10,0:0:0:0:
246,34,7162,6,0,B|221:54|192:63|192:63|217:183,1,170,4|0,1:0|1:0,0:0:0:0:
357,309,7706,2,0,L|371:225,1,85,10|0,0:0|0:0,0:0:0:0:
196,263,8067,2,0,L|210:346,1,85,2|0,1:2|1:0,0:0:0:0:
299,187,8446,1,10,0:0:0:0:
124,197,8635,1,0,0:0:0:0:
287,291,8809,6,0,P|329:289|366:265,1,85,4|0,1:0|0:0,0:0:0:0:
454,76,9164,2,0,L|439:159,1,85,10|0,0:0|0:0,0:0:0:0:
429,319,9519,1,2,1:2:0:0:
314,162,9696,1,0,1:0:0:0:
506,222,9874,1,10,0:0:0:0:
275,257,10051,6,0,P|214:192|230:102,1,170,4|2,1:0|1:2,0:0:0:0:
431,120,10599,1,8,1:2:0:0:
325,331,10782,2,0,B|233:370|251:304|160:341,1,170,4|2,1:0|1:2,0:0:0:0:
43,229,11307,2,0,L|126:214,1,85,8|0,0:0|0:0,0:0:0:0:
235,32,11668,6,0,L|220:115,1,85,4|0,1:0|0:0,0:0:0:0:
238,303,12040,1,8,0:0:0:0:
137,122,12227,2,0,P|94:123|58:144,1,85,4|0,1:0|0:0,0:0:0:0:
71,332,12599,1,8,0:0:0:0:
71,332,12688,1,8,0:0:0:0:
71,332,12778,2,0,L|243:303,1,170,4|0,1:0|0:0,0:0:0:0:
327,189,13326,5,8,1:3:0:0:
327,189,13418,1,8,1:3:0:0:
327,189,13509,2,0,L|243:174,1,85,4|8,1:3|1:3,0:0:0:0:
216,174,13784,1,4,1:3:0:0:
216,174,13875,5,14,1:2:0:0:
415,62,14060,1,14,1:2:0:0:
415,62,14605,6,0,L|436:184,1,119,2|0,3:2|3:0,0:0:0:0:
393,274,15137,1,2,0:0:0:0:
393,274,15315,2,0,P|331:277|284:248,1,102,2|0,3:2|3:0,0:0:0:0:
199,184,15857,1,2,0:0:0:0:
199,184,16037,6,0,L|177:303,1,102,2|0,3:2|3:0,0:0:0:0:
80,249,16572,1,2,0:0:0:0:
80,249,16747,2,0,L|60:132,1,102,2|0,3:2|3:0,0:0:0:0:
115,39,17289,1,2,0:0:0:0:
115,39,17463,6,0,B|156:33|156:33|177:41|177:41|228:34,1,101.999996887207,2|0,3:2|3:0,0:0:0:0:
339,6,18025,1,2,0:0:0:0:
339,6,18213,2,0,P|305:58|308:120,1,118.999996368408,2|0,3:2|3:0,0:0:0:0:
408,197,18747,1,2,0:0:0:0:
408,197,18924,6,0,L|386:74,1,119,2|0,3:2|3:0,0:0:0:0:
502,32,19466,1,2,0:0:0:0:
502,32,19646,2,0,L|478:149,1,118.999996368408,2|0,3:2|3:0,0:0:0:0:
442,280,20182,1,2,0:0:0:0:
442,280,20369,6,0,P|383:279|334:248,1,119,2|0,3:2|3:0,0:0:0:0:
251,180,20914,1,2,0:0:0:0:
251,180,21096,2,0,L|229:300,1,119,2|0,3:2|3:0,0:0:0:0:
140,225,21641,1,2,0:0:0:0:
140,225,21823,6,0,B|94:216|94:216|72:232|72:232|24:222,1,119,2|0,3:2|3:0,0:0:0:0:
50,111,22358,1,2,0:0:0:0:
50,111,22537,2,0,P|98:78|157:80,1,119,2|0,3:2|3:0,0:0:0:0:
254,152,23082,1,2,0:0:0:0:
254,152,23264,6,0,L|274:35,1,119,2|2,3:2|3:2,0:0:0:0:
367,107,23799,2,0,L|381:167,1,59.4999999999999,2|0,0:0|3:2,0:0:0:0:
462,240,24156,2,0,L|477:174,1,59.4999999999999,2|0,0:0|3:0,0:0:0:0:
364,270,24514,6,0,P|315:236|255:237,1,120.665996368408,2|0,0:0|0:0,0:0:0:0:
278,377,25060,2,0,L|291:313,1,59.4999981842042,0|0,3:0|0:0,0:0:0:0:
162,246,25423,1,2,3:2:0:0:
364,270,25603,5,8,1:2:0:0:
228,133,25774,1,8,1:2:0:0:
204,328,25945,1,8,1:2:0:0:
333,128,26117,6,0,P|304:59|232:30,1,153,4|8,1:0|0:0,0:0:0:0:
152,146,26672,1,2,0:0:0:0:
152,146,26857,2,0,L|235:131,1,85,2|0,1:2|0:0,0:0:0:0:
127,29,27228,1,8,0:0:0:0:
39,138,27413,1,2,0:0:0:0:
39,138,27598,6,0,L|52:214,1,76.5000000000001,2|0,1:2|0:0,0:0:0:0:
131,354,27963,1,8,0:0:0:0:
194,225,28144,1,2,0:0:0:0:
194,225,28326,2,0,P|233:225|266:244,1,76.5000000000001,2|0,1:2|0:0,0:0:0:0:
360,345,28681,1,8,0:0:0:0:
225,382,28865,1,2,0:0:0:0:
225,382,29049,6,0,L|211:305,1,76.5000000000001,2|0,1:2|0:0,0:0:0:0:
364,250,29417,1,8,0:0:0:0:
456,374,29601,1,2,0:0:0:0:
509,189,29785,2,0,L|356:160,1,153,2|8,1:2|0:0,0:0:0:0:
279,57,30317,1,2,0:0:0:0:
279,57,30495,6,0,L|354:44,1,76.5000000000001,2|0,1:2|0:0,0:0:0:0:
260,152,30858,1,8,0:0:0:0:
178,37,31040,1,2,0:0:0:0:
178,37,31206,2,0,P|140:37|104:56,1,76.5000000000001,2|0,1:2|0:0,0:0:0:0:
38,172,31574,1,8,0:0:0:0:
185,166,31758,1,2,0:0:0:0:
185,166,31930,6,0,L|261:150,1,76.5000000000001,2|0,1:2|0:0,0:0:0:0:
355,41,32277,1,8,0:0:0:0:
438,173,32459,1,2,0:0:0:0:
438,173,32642,2,0,P|387:237|400:313,1,153,2|8,1:2|0:0,0:0:0:0:
512,229,33191,1,2,0:0:0:0:
439,78,33374,6,0,L|286:104,1,153,2|8,1:2|0:0,0:0:0:0:
212,232,33919,1,2,0:0:0:0:
158,87,34101,2,0,P|120:92|91:116,1,76.5000000000001,2|0,1:2|0:0,0:0:0:0:
52,271,34464,1,8,0:0:0:0:
154,172,34646,1,2,0:0:0:0:
1,103,34828,6,0,L|17:177,1,76.5000000000001,2|0,1:2|0:0,0:0:0:0:
140,254,35189,1,8,0:0:0:0:
235,132,35370,2,0,L|310:145,1,76.5000000000001,2|0,0:0|1:0,0:0:0:0:
388,273,35731,2,0,L|314:288,1,76.5000000000001,2|8,0:0|0:0,0:0:0:0:
405,175,36093,1,2,0:0:0:0:
451,363,36273,6,0,B|502:338|502:338|480:238,1,153,2|8,1:2|0:0,0:0:0:0:
381,164,36815,1,0,3:0:0:0:
370,358,36996,1,4,1:3:0:0:
488,163,37177,1,4,1:3:0:0:
351,280,37357,1,8,1:3:0:0:
498,319,37533,1,8,1:3:0:0:
381,164,37709,6,0,L|252:187,1,127.500004863739,4|2,1:0|0:0,0:0:0:0:
206,298,38274,2,0,B|98:260|129:340|24:298,1,180.975631991625,0|2,1:0|0:0,0:0:0:0:
70,206,38978,1,0,1:0:0:0:
70,206,39156,6,0,L|133:195,1,63.7500000000002,2|8,1:2|0:0,0:0:0:0:
198,98,39522,1,2,0:0:0:0:
198,98,39697,2,0,L|113:84,1,63.7500024318696,0|10,1:0|0:0,0:0:0:0:
288,180,40251,2,0,P|320:180|349:167,1,63.7500000000002,2|0,0:0|0:0,0:0:0:0:
464,124,40616,6,0,L|440:251,1,127.5,2|2,1:2|0:0,0:0:0:0:
364,327,41158,2,0,L|355:264,1,63.7500000000002,0|10,1:0|0:0,0:0:0:0:
255,320,41519,2,0,L|245:382,1,63.7500000000001,0|2,0:0|0:0,0:0:0:0:
183,251,41881,2,0,P|207:230|237:220,1,63.75,0|2,1:0|1:2,0:0:0:0:
163,345,42237,6,0,L|101:334,1,63.7500000000002,8|2,0:0|0:0,0:0:0:0:
20,243,42598,2,0,L|86:231,1,63.7500024318696,0|10,1:0|0:0,0:0:0:0:
179,138,42964,2,0,B|129:129|129:129|106:142|106:142|47:130,1,127.5
197,56,43507,6,0,P|251:90|258:160,1,127.5,4|2,1:0|0:0,0:0:0:0:
283,245,44055,2,0,B|400:224|400:224|434:258|412:292,1,191.250007295609,0|2,1:0|0:0,0:0:0:0:
349,384,44782,1,0,1:0:0:0:
349,384,44961,6,0,L|286:373,1,63.7500000000002,2|8,1:2|0:0,0:0:0:0:
232,310,45318,1,2,0:0:0:0:
232,310,45506,2,0,L|152:325,1,64.0878774318696,0|10,1:0|0:0,0:0:0:0:
49,360,46037,1,0,1:0:0:0:
49,360,46120,1,0,3:0:0:0:
49,360,46204,1,0,1:0:0:0:
49,360,46288,1,0,3:0:0:0:
49,360,46387,6,0,L|35:281,1,76.5000000000001,4|0,1:0|0:0,0:0:0:0:
82,109,46766,1,8,0:0:0:0:
214,273,46935,2,0,P|289:285|349:238,1,170,4|8,1:0|0:0,0:0:0:0:
373,204,47381,1,8,0:0:0:0:
373,204,47470,1,0,1:0:0:0:
228,2,47649,6,0,L|255:158,1,170,4|0,1:0|1:0,0:0:0:0:
265,199,48097,1,0,1:0:0:0:
265,199,48185,2,0,L|222:206,3,42.5,8|8|4|4,1:3|1:3|1:3|1:3,0:0:0:0:
82,109,48536,5,14,1:2:0:0:
146,339,48711,1,14,1:2:0:0:
146,339,49097,5,2,0:1:0:0:
0,195,49289,2,0,L|16:290,1,93.5,6|0,1:0|0:0,0:0:0:0:
191,180,49652,1,10,0:0:0:0:
255,379,49819,2,0,P|304:381|347:353,1,93.5,2|2,0:1|1:2,0:0:0:0:
328,145,50182,2,0,L|309:242,1,93.5000028533936,2|10,1:1|0:0,0:0:0:0:
512,76,50557,6,0,L|373:52,1,140.25,6|0,1:0|0:0,0:0:0:0:
346,50,50918,1,2,1:1:0:0:
211,230,51097,1,10,0:0:0:0:
189,13,51277,2,0,P|139:10|97:40,1,93.5,2|2,0:1|1:2,0:0:0:0:
211,230,51640,2,0,L|306:208,1,93.5,2|10,1:1|0:0,0:0:0:0:
105,127,52004,1,2,0:1:0:0:
144,361,52186,6,0,P|215:369|272:326,1,140.25,6|0,1:0|0:0,0:0:0:0:
270,302,52526,1,10,0:0:0:0:
63,225,52698,2,0,L|46:315,1,85,2|2,0:1|1:2,0:0:0:0:
249,192,53085,2,0,L|231:101,1,93.5,2|10,1:1|1:2,0:0:0:0:
174,250,53429,1,6,1:0:0:0:
333,225,53601,5,2,0:1:0:0:
158,157,53781,1,2,1:1:0:0:
252,353,53962,1,10,0:0:0:0:
326,133,54133,2,0,B|453:110|453:110|484:139|464:181,1,187.000005706787,6|0,1:0|1:0,0:0:0:0:
373,320,54696,1,10,0:0:0:0:
249,192,54875,1,2,0:1:0:0:
470,162,55053,6,0,L|453:256,1,93.5,6|0,1:0|0:0,0:0:0:0:
315,43,55421,1,10,0:0:0:0:
276,272,55597,2,0,P|227:274|181:243,1,93.5,2|2,0:1|1:2,0:0:0:0:
50,78,55950,2,0,L|144:62,1,93.5,2|10,1:1|0:0,0:0:0:0:
124,328,56309,6,0,B|80:308|80:308|95:208,1,127.5,6|0,1:1|0:0,0:0:0:0:
102,187,56668,1,2,1:0:0:0:
201,384,56847,1,10,0:0:0:0:
255,168,57027,2,0,P|295:146|341:148,1,93.5,2|2,0:1|1:2,0:0:0:0:
460,356,57386,2,0,L|365:337,1,93.5,2|10,1:1|0:0,0:0:0:0:
178,236,57749,1,2,0:1:0:0:
409,59,57931,6,0,L|442:245,1,187,6|4,1:1|1:3,0:0:0:0:
221,125,58484,2,0,B|117:89|141:165|39:127,1,187.50646404012,6|8,1:0|1:3,0:0:0:0:
17,128,58945,1,0,0:0:0:0:
17,128,59036,1,8,1:3:0:0:
227,307,59220,6,0,B|354:284|354:284|385:313|361:351,1,187,6|8,1:0|1:3,0:0:0:0:
418,186,59762,2,0,L|435:95,1,93.5000028533936,0|4,0:0|1:3,0:0:0:0:
323,15,60124,1,8,1:3:0:0:
309,206,60307,5,8,1:3:0:0:
275,222,60399,1,8,1:3:0:0:
238,226,60490,1,4,1:3:0:0:
202,217,60582,1,4,1:3:0:0:
171,195,60673,2,0,L|160:141,1,46.75,4|4,1:3|1:3,0:0:0:0:
80,8,60850,6,0,L|63:100,1,95.2,6|0,1:0|0:0,0:0:0:0:
159,283,61211,5,10,0:0:0:0:
166,74,61392,1,2,0:1:0:0:
40,273,61572,5,10,0:0:0:0:
252,164,61754,1,2,1:0:0:0:
0,106,61937,5,10,0:0:0:0:
141,364,62120,2,0,P|187:362|228:330,1,94.0111361867269,6|10,1:0|0:0,0:0:0:0:
355,139,62478,1,2,1:0:0:0:
159,283,62653,5,10,0:0:0:0:
384,306,62829,1,2,0:1:0:0:
287,77,63010,5,10,0:0:0:0:
308,344,63192,1,2,1:0:0:0:
426,89,63374,5,10,0:0:0:0:
164,194,63552,1,2,1:0:0:0:
406,363,63740,6,0,L|419:271,1,93.5,6|0,1:0|0:0,0:0:0:0:
283,54,64112,5,10,0:0:0:0:
238,303,64299,1,2,0:1:0:0:
165,39,64485,5,10,0:0:0:0:
353,233,64654,1,2,1:0:0:0:
69,211,64834,2,0,L|162:194,1,88.8437028533936,10|6,0:0|1:0,0:0:0:0:
353,233,65180,5,10,0:0:0:0:
195,120,65355,1,2,0:1:0:0:
398,124,65536,1,10,0:0:0:0:
236,272,65718,1,6,1:0:0:0:
325,54,65902,2,0,P|363:27|408:24,1,93.5,10|0,0:0|1:0,0:0:0:0:
461,240,66277,1,10,0:0:0:0:
512,22,66464,1,2,1:0:0:0:
340,231,66624,6,0,P|293:229|253:203,1,93.5,6|0,1:0|0:0,0:0:0:0:
121,22,66989,1,10,0:0:0:0:
323,149,67177,1,2,0:1:0:0:
72,168,67366,5,10,0:0:0:0:
277,24,67542,1,2,1:0:0:0:
9,70,67722,5,10,0:0:0:0:
158,312,67903,2,0,L|251:295,1,93.5000028533936,6|10,1:0|0:0,0:0:0:0:
413,171,68268,1,2,0:1:0:0:
177,122,68456,5,10,0:0:0:0:
369,324,68634,2,0,L|349:228,1,94.0236028533936,2|10,0:1|0:0,0:0:0:0:
111,191,68986,2,0,L|95:283,1,93.5000028533936,2|10,1:0|0:0,0:0:0:0:
268,80,69338,1,2,0:1:0:0:
330,358,69518,6,0,P|377:362|418:339,1,95.2,6|0,1:0|0:0,0:0:0:0:
182,250,69877,1,8,0:0:0:0:
428,155,70057,2,0,L|332:137,1,93.5,6|0,1:0|0:0,0:0:0:0:
197,335,70403,2,0,P|239:314|263:274,1,93.5,8|8,1:3|1:3,0:0:0:0:
67,93,70782,6,0,B|42:112|11:122|11:122|31:253,1,183.6,6|8,1:0|1:3,0:0:0:0:
210,158,71334,1,8,0:0:0:0:
150,343,71518,1,8,2:3:0:0:
150,343,71606,1,8,2:3:0:0:
150,343,71694,2,0,L|195:335,1,42.5,8|8,2:0|2:0,0:0:0:0:
348,180,71870,2,0,L|302:172,1,42.5,8|8,2:0|2:0,0:0:0:0:
328,384,72047,5,8,1:2:0:0:
374,376,72135,1,8,1:2:0:0:
420,368,72223,1,8,1:2:0:0:
466,360,72312,1,8,1:2:0:0:
512,352,72417,6,0,L|482:183,1,170,4|8,1:0|0:0,0:0:0:0:
327,26,72970,2,0,B|220:45|220:45|197:79|226:119,1,170,4|8,1:0|0:0,0:0:0:0:
311,295,73502,2,0,L|393:280,1,85,4|0,1:0|0:0,0:0:0:0:
301,171,73877,6,0,L|240:181,2,56.6666666666667,8|8|8,2:0|1:3|1:3,0:0:0:0:
163,265,74210,6,0,L|219:274,2,56.6666666666667,4|4|4,1:3|1:3|1:3,0:0:0:0:
41,203,74555,6,0,L|50:262,2,56.6666666666667,8|0|8,1:3|1:0|1:3,0:0:0:0:
142,158,74925,6,0,L|150:99,2,56.6666666666667,8|0|4,1:3|1:3|1:3,0:0:0:0:
218,274,75310,6,0,L|387:244,1,170,4|8,1:0|0:0,0:0:0:0:
356,22,75855,2,0,P|285:72|276:159,1,170,4|8,1:0|0:0,0:0:0:0:
430,315,76380,2,0,B|481:292|481:292|455:163,1,170,4|0,1:0|0:0,0:0:0:0:
362,114,76922,6,0,L|369:147,1,21.25,8|0,1:3|0:0,0:0:0:0:
318,308,77287,1,8,1:3:0:0:
185,251,77470,2,0,L|177:294,3,42.5,4|0|0|8,1:3|0:0|0:0|1:3,0:0:0:0:
244,191,77852,1,8,1:3:0:0:
75,127,78222,6,0,L|98:265,1,127.5,4|2,1:0|0:0,0:0:0:0:
177,124,78751,1,2,0:0:0:0:
177,124,78927,2,0,P|223:81|298:88,1,127.500004863739,2|0,0:0|0:0,0:0:0:0:
385,183,79462,1,2,0:0:0:0:
385,183,79641,6,0,L|361:317,1,127.5,2|2,0:0|0:0,0:0:0:0:
260,358,80183,1,2,0:0:0:0:
260,358,80363,2,0,B|207:348|207:348|191:329|191:329|140:320,1,127.500004863739,2|0,0:0|0:0,0:0:0:0:
27,258,80925,1,2,0:0:0:0:
27,258,81113,6,0,L|164:232,1,127.5,2|2,0:0|0:0,0:0:0:0:
215,167,81661,2,0,L|226:101,1,63.7500000000002,2|0,0:0|0:0,0:0:0:0:
317,43,82036,2,0,L|326:109,1,63.7500000000002,2|0,0:0|0:0,0:0:0:0:
456,235,82411,6,0,B|385:133|168:212|285:351|134:358,1,399.560844057961,2|2,0:0|0:0,0:0:0:0:
