osu file format v14

[General]
AudioFilename: audio.mp3
AudioLeadIn: 0
PreviewTime: 49097
Countdown: 0
SampleSet: Soft
StackLeniency: 0
Mode: 0
LetterboxInBreaks: 0
WidescreenStoryboard: 1

[Editor]
DistanceSpacing: 1
BeatDivisor: 4
GridSize: 32
TimelineZoom: 2

[Metadata]
Title:Destin Histoire (TV Size)
TitleUnicode:Destin Histoire (TV Size)
Artist:yoshiki*lisa
ArtistUnicode:yoshiki*lisa
Creator:Froskya
Version:Ori's Extra
Source:GOSICK
Tags:吉木りさ -ゴシック- japanese anime pop jpop j-pop opening op story of fate gothic yoshiki risa lisa original soundtrack ost destiny history female vocals vocalist Victorique de Blois ヴィクトリカ・ド・ブロワ ヴィクトリカ ド ブロワ revialink kxlman original3s fackel theoneforce 1force
BeatmapID:3503653
BeatmapSetID:1713118

[Difficulty]
HPDrainRate:5.2
CircleSize:4.2
OverallDifficulty:7.8
ApproachRate:9.1
SliderMultiplier:2.03
SliderTickRate:1

[Events]
//Background and Video events
0,0,"uwu.jpg",0,0
Video,-425,"celeste vibes.mp4"
//Break Periods
//Storyboard Layer 0 (Background)
//Storyboard Layer 1 (Fail)
//Storyboard Layer 2 (Pass)
//Storyboard Layer 3 (Foreground)
//Storyboard Layer 4 (Overlay)
//Storyboard Sound Samples

[TimingPoints]
137,361.44578313253,4,2,1,40,1,0
1582,-100,4,2,1,50,0,0
3028,-100,4,2,1,60,0,0
4474,-250,4,2,1,60,0,0
5197,-100,4,2,2,70,0,0
5920,355.029585798817,4,2,1,75,1,0
5920,-166.666666666667,4,2,1,75,0,0
6275,-100,4,2,1,75,0,0
7162,375,4,2,1,75,1,0
7706,361.44578313253,4,2,1,75,1,0
7706,-142.857142857143,4,2,1,75,0,0
8067,419.58041958042,4,2,1,75,1,0
8276,340.909090909091,4,2,1,75,1,0
8446,379.746835443038,4,2,1,75,1,0
8446,-200,4,2,1,75,0,0
8809,355.029585798817,4,2,1,75,1,0
8809,-166.666666666667,4,2,1,75,0,0
9164,-83.3333333333333,4,2,1,75,0,0
10051,365.853658536585,4,2,1,75,1,0
10782,361.44578313253,4,2,1,75,1,0
10782,-76.9230769230769,4,2,1,75,0,0
11307,361.44578313253,4,2,1,75,1,0
11668,372.670807453416,4,2,1,75,1,0
11668,-71.4285714285714,4,2,1,75,0,0
12040,-142.857142857143,4,2,1,75,0,0
12227,-62.5,4,2,1,75,0,0
12599,359.281437125748,4,2,1,80,1,0
12778,365.853658536585,4,2,1,80,1,0
12778,-90.9090909090909,4,2,1,80,0,0
13875,370.37037037037,4,2,1,80,1,0
13875,-62.5,4,2,1,80,0,0
14605,355.029585798817,4,2,3,50,1,0
14605,-125,4,2,3,50,0,0
15315,361.44578313253,4,2,3,40,1,0
15315,-166.666666666667,4,2,3,40,0,0
16037,357.142857142857,4,2,3,50,1,0
16037,-166.666666666667,4,2,3,50,0,0
16747,361.44578313253,4,2,3,50,1,0
16747,-166.666666666667,4,2,3,50,0,0
17463,375,4,2,3,50,1,0
17463,-125,4,2,3,50,0,0
18213,357.142857142857,4,2,3,50,1,0
18213,-166.666666666667,4,2,3,50,0,0
18570,354.50516986706,4,2,3,50,1,0
18924,361.44578313253,4,2,3,50,1,0
18924,-166.666666666667,4,2,3,50,0,0
19646,350.877192982456,4,2,3,50,1,0
19996,373.250388802488,4,2,3,50,1,0
20182,-166.666666666667,4,2,3,50,0,0
20369,363.636363636364,4,2,3,50,1,0
20369,-125,4,2,3,50,0,0
21096,-166.666666666667,4,2,3,50,0,0
21823,357.142857142857,4,2,3,50,1,0
21823,-125,4,2,3,50,0,0
22537,363.636363636364,4,2,3,40,1,0
22537,-166.666666666667,4,2,3,40,0,0
23264,357.142857142857,4,2,3,50,1,0
23264,-125,4,2,3,50,0,0
24692,368.098159509202,4,2,3,60,1,0
25244,359.281437125748,4,2,2,60,1,0
25244,-76.9230769230769,4,2,2,60,0,0
25423,-62.5,4,2,2,60,0,0
25603,342.857142857143,4,2,1,70,1,0
26117,370.37037037037,4,2,1,75,1,0
26117,-83.3333333333333,4,2,1,75,0,0
27413,-100,4,2,1,75,0,0
27598,365.853658536585,4,2,1,75,1,0
27963,363.636363636363,4,2,1,75,1,0
28681,368.098159509202,4,2,1,75,1,0
29785,355.029585798817,4,2,1,75,1,0
30495,363.636363636364,4,2,1,75,1,0
31206,368.098159509202,4,2,1,75,1,0
31930,361.44578313253,4,2,1,75,1,0
32277,365.853658536585,4,2,1,75,1,0
33374,363.636363636364,4,2,1,75,1,0
34646,-125,4,2,1,75,0,0
34828,361.44578313253,4,2,1,75,1,0
35189,-76.9230769230769,4,2,1,75,0,0
35370,-90.9090909090909,4,2,1,75,0,0
36273,-71.4285714285714,4,2,1,75,0,0
36635,-100,4,2,1,75,0,0
37357,352.941176470588,4,2,1,75,1,0
37357,-76.9230769230769,4,2,1,75,0,0
37533,-100,4,2,1,75,0,0
37709,372.670807453416,4,2,2,70,1,0
37709,-76.9230769230769,4,2,2,70,0,0
38081,387.096774193548,4,2,2,70,1,0
38468,355.029585798816,4,2,2,70,1,0
38978,355.029585798816,4,2,2,70,1,0
39156,379.746835443038,4,2,2,70,1,0
39522,350.877192982456,4,2,2,70,1,0
39872,379.746835443038,4,2,2,70,1,0
39872,-83.3333333333333,4,2,2,70,0,0
40441,-100,4,2,2,70,0,0
40616,361.44578313253,4,2,2,70,1,0
41158,-142.857142857143,4,2,2,70,0,0
42061,352.941176470588,4,2,2,70,1,0
42237,-90.909090909091,4,2,2,70,0,0
42413,370.37037037037,4,2,2,70,1,0
42598,-142.857142857143,4,2,2,70,0,0
42783,362.187613183629,4,2,2,70,1,0
43507,365.853658536585,4,2,2,70,1,0
43507,-76.9230769230769,4,2,2,70,0,0
44238,-125,4,2,2,70,0,0
44604,357.142857142857,4,2,2,70,1,0
45318,377.358490566038,4,2,2,70,1,0
45506,-200,4,2,2,70,0,0
45695,342.857142857143,4,2,2,70,1,0
45695,-71.4285714285714,4,2,2,70,0,0
46037,335.195530726257,4,2,2,70,1,0
46037,-90.9090909090909,4,2,2,70,0,0
46387,379.746835443038,4,2,2,75,1,0
46387,-76.9230769230769,4,2,2,75,0,0
46766,338.983050847457,4,2,2,75,1,0
46766,-125,4,2,2,75,0,0
46935,357.142857142857,4,2,2,75,1,0
46935,-66.6666666666667,4,2,2,75,0,0
47292,-83.3333333333333,4,2,2,75,0,0
47649,361.44578313253,4,2,2,75,1,0
47649,-50,4,2,2,75,0,0
48010,350.877192982456,4,2,2,75,1,0
48097,-55.5555555555556,4,2,2,75,0,0
48273,-66.6666666666667,4,2,2,75,0,0
49097,384.615384615384,4,2,2,75,1,0
49097,-142.857142857143,4,2,2,75,0,0
49289,363.636363636364,4,2,2,85,1,1
49289,-58.8235294117647,4,2,2,85,0,1
49652,335.195530726257,4,2,2,85,1,1
49652,-58.8235294117647,4,2,2,85,0,1
49819,387.096774193548,4,2,2,85,1,1
50182,402.684563758389,4,2,2,85,1,1
50383,348.837209302325,4,2,2,85,1,1
50557,361.44578313253,4,2,2,85,1,1
50557,-58.8235294117647,4,2,2,85,0,1
50918,359.281437125748,4,2,2,80,1,1
50918,-71.4285714285714,4,2,2,80,0,1
51277,363.636363636364,4,2,2,80,1,1
51277,-71.4285714285714,4,2,2,80,0,1
52186,340.909090909091,4,2,2,85,1,1
52186,-58.8235294117647,4,2,2,85,0,1
52526,-52.6315789473684,4,2,2,85,0,1
52698,387.096774193548,4,2,2,85,1,1
53085,344.827586206896,4,2,2,85,1,1
53429,344.827586206897,4,2,2,80,1,1
53601,361.44578313253,4,2,2,85,1,1
53962,342.857142857143,4,2,2,85,1,1
53962,-66.6666666666667,4,2,2,85,0,1
54133,385.232744783307,4,2,2,85,1,1
54133,-62.5,4,2,2,85,0,1
54518,357.142857142857,4,2,2,85,1,1
54518,-83.3333333333333,4,2,2,85,0,1
54696,-66.6666666666667,4,2,2,85,0,1
54875,-55.5555555555556,4,2,2,85,0,1
55053,368.098159509202,4,2,2,85,1,1
55053,-90.9090909090909,4,2,2,85,0,1
55421,352.941176470588,4,2,2,85,1,1
55421,-71.4285714285714,4,2,2,85,0,1
55950,363.636363636364,4,2,2,85,1,1
56309,359.281437125748,4,2,2,85,1,1
56309,-58.8235294117647,4,2,2,85,0,1
56668,-83.3333333333333,4,2,2,85,0,1
57386,363.636363636364,4,2,2,85,1,1
57931,369.230769230769,4,2,2,80,1,0
57931,-58.8235294117647,4,2,2,80,0,0
58300,-83.3333333333333,4,2,2,80,0,0
58484,-52.6315789473684,4,2,2,80,0,0
58854,365.853658536585,4,2,2,80,1,0
58854,-62.5,4,2,2,80,0,0
59036,-100,4,2,2,80,0,0
59220,361.44578313253,4,2,2,80,1,0
59220,-50,4,2,2,80,0,0
59581,-55.5555555555556,4,2,2,80,0,0
59762,-71.4285714285714,4,2,2,80,0,0
59942,365.853658536585,4,2,2,80,1,0
59942,-90.9090909090909,4,2,2,80,0,0
60124,-76.9230769230769,4,2,2,80,0,0
60307,-66.6666666666667,4,2,2,80,0,0
60673,355.029585798817,4,2,2,80,1,0
60850,361.44578313253,4,2,2,85,1,1
60850,-58.8235294117647,4,2,2,85,0,1
61211,-66.6666666666667,4,2,2,85,0,1
61572,365.853658536585,4,2,2,85,1,1
62120,-58.8235294117647,4,2,2,85,0,1
62303,350.877192982456,4,2,2,85,1,1
62829,363.636363636364,4,2,2,85,1,1
63374,357.142857142857,4,2,2,85,1,1
63552,-83.3333333333333,4,2,2,85,0,1
63740,372.670807453416,4,2,2,85,1,1
63740,-66.6666666666667,4,2,2,85,0,1
64112,-83.3333333333333,4,2,2,85,0,1
64485,338.983050847457,4,2,2,85,1,1
64485,-66.6666666666667,4,2,2,85,0,1
64654,361.44578313253,4,2,2,85,1,1
64834,-55.5555555555556,4,2,2,85,0,1
65005,350.877192982456,4,2,2,85,1,1
65355,363.636363636364,4,2,2,85,1,1
65902,375,4,2,2,85,1,1
66464,320.855614973262,4,2,2,85,1,1
66464,-83.3333333333333,4,2,2,85,0,1
66624,365.853658536585,4,2,2,85,1,1
66624,-58.8235294117647,4,2,2,85,0,1
66989,377.358490566038,4,2,2,85,1,1
66989,-76.9230769230769,4,2,2,85,0,1
67542,361.44578313253,4,2,2,85,1,1
67903,357.142857142857,4,2,2,85,1,1
67903,-66.6666666666667,4,2,2,85,0,1
68081,375,4,2,2,85,1,1
68268,-58.8235294117647,4,2,2,85,0,1
68456,357.142857142857,4,2,2,85,1,1
68456,-90.9090909090909,4,2,2,85,0,1
68634,-52.6315789473684,4,2,2,85,0,1
68813,346.820809248555,4,2,2,85,1,1
68813,-76.9230769230769,4,2,2,85,0,1
68986,-47.6190476190476,4,2,2,85,0,1
69159,359.281437125748,4,2,2,85,1,1
69159,-66.6666666666667,4,2,2,85,0,1
69518,-62.5,4,2,2,80,0,1
69877,-125,4,2,2,80,0,1
70057,346.820809248555,4,2,2,80,1,1
70057,-55.5555555555556,4,2,2,80,0,1
70403,379.746835443038,4,2,2,80,1,1
70403,-66.6666666666667,4,2,2,80,0,1
70592,-100,4,2,2,80,0,1
70782,368.098159509202,4,2,2,80,1,1
70782,-50,4,2,2,80,0,1
71150,-55.5555555555556,4,2,2,80,0,1
71334,-76.9230769230769,4,2,2,80,0,1
71518,352.941176470588,4,2,2,85,1,1
71518,-125,4,2,2,85,0,1
72417,384.615384615385,4,2,2,80,1,0
72417,-76.9230769230769,4,2,2,80,0,0
72801,338.983050847457,4,2,2,80,1,0
72801,-111.111111111111,4,2,2,80,0,0
72970,363.636363636364,4,2,2,80,1,0
72970,-66.6666666666667,4,2,2,80,0,0
73333,-90.9090909090909,4,2,2,80,0,0
73502,375,4,2,2,80,1,0
73502,-58.8235294117647,4,2,2,80,0,0
73877,333.333333333333,4,2,2,70,1,0
74432,370.370370370371,4,2,2,70,1,0
74555,-90.9090909090909,4,2,2,70,0,0
74925,-142.857142857143,4,2,2,70,0,0
75310,363.636363636364,4,2,2,80,1,0
75310,-76.9230769230769,4,2,2,80,0,0
75673,-142.857142857143,4,2,2,80,0,0
75855,-66.6666666666667,4,2,2,80,0,0
76219,-111.111111111111,4,2,2,80,0,0
76380,361.44578313253,4,2,2,80,1,0
76380,-90.9090909090909,4,2,2,80,0,0
76922,365.853658536585,4,2,2,70,1,0
76922,-200,4,2,2,70,0,0
77287,-142.857142857143,4,2,2,70,0,0
77470,382.165605095541,4,2,2,70,1,0
77470,-200,4,2,2,70,0,0
77852,370.37037037037,4,2,2,70,1,0
77852,-111.111111111111,4,2,2,70,0,0
78037,-76.9230769230769,4,2,2,70,0,0
78222,352.941176470588,4,2,1,60,1,0
78222,-125,4,2,1,60,0,0
78927,357.142857142857,4,2,2,60,1,0
78927,-125,4,2,2,60,0,0
79462,-125,4,2,1,60,0,0
79641,361.44578313253,4,2,2,60,1,0
79641,-125,4,2,2,60,0,0
80002,-125,4,2,1,60,0,0
80363,375,4,2,2,60,1,0
80363,-125,4,2,2,60,0,0
80925,-125,4,2,1,60,0,0
81113,365.853658536585,4,2,2,60,1,0
81478,-100,4,2,1,60,0,0
81661,375,4,2,1,60,1,0
81661,-125,4,2,1,60,0,0
82036,-166.666666666667,4,2,1,60,0,0
82411,416.666666666667,4,2,1,60,1,0
82411,-250,4,2,1,60,0,0
83452,359.281437125748,4,2,1,60,1,0
89919,-100,4,2,1,5,0,0

[Colours]
Combo1 : 182,129,254
Combo2 : 128,255,128
Combo3 : 255,255,128
Combo4 : 128,255,255

[HitObjects]
4,194,137,5,2,0:0:0:0:
73,173,317,5,2,0:0:0:0:
149,190,498,5,2,0:0:0:0:
262,173,679,5,2,0:0:0:0:
4,194,1040,5,2,0:0:0:0:
4,194,1402,5,2,0:0:0:0:
89,167,1582,5,2,0:0:0:0:
173,186,1763,5,2,0:0:0:0:
277,167,1944,5,2,0:0:0:0:
415,178,2124,5,2,0:0:0:0:
4,194,2486,5,2,0:0:0:0:
4,194,2847,5,2,0:0:0:0:
123,170,3028,5,2,0:0:0:0:
229,198,3209,5,2,0:0:0:0:
364,171,3390,5,2,0:0:0:0:
512,192,3570,5,2,0:0:0:0:
4,194,3932,5,2,0:0:0:0:
261,2,4293,5,2,0:0:0:0:
226,65,4474,2,0,P|272:119|290:187,1,142.1,2|0,0:0|0:0,0:0:0:0:
288,200,5197,6,0,P|266:182|278:125,1,50.75,14|0,1:2|0:0,0:0:0:0:
261,2,5377,1,14,1:2:0:0:
442,254,5920,6,0,B|422:246|426:218|426:218|429:242|459:262,1,91.3499999999998,4|0,1:0|0:0,0:0:0:0:
512,351,6275,6,0,P|465:305|371:311,1,152.25,10|0,0:0|0:0,0:0:0:0:
316,332,6630,1,2,1:2:0:0:
246,312,6807,1,0,1:0:0:0:
390,209,6985,2,0,P|367:226|335:231,1,50.75,10|0,0:0|0:0,0:0:0:0:
262,384,7162,6,0,B|267:267|311:303|322:176,1,203,4|0,1:0|1:0,0:0:0:0:
235,8,7706,6,0,P|259:17|292:45,1,35.525,10|0,0:0|0:0,0:0:0:0:
438,87,7886,1,0,0:0:0:0:
378,120,8067,1,2,1:2:0:0:
315,97,8276,1,0,1:0:0:0:
455,0,8446,6,0,P|446:9|430:17,1,25.375,10|0,0:0|0:0,0:0:0:0:
371,42,8635,1,0,0:0:0:0:
163,72,8809,6,0,P|139:93|168:80,1,91.3499999999998,4|0,1:0|0:0,0:0:0:0:
267,22,9164,6,0,P|207:87|208:227,1,182.7,10|0,0:0|0:0,0:0:0:0:
220,244,9519,1,2,1:2:0:0:
330,151,9696,1,0,1:0:0:0:
180,0,9874,1,10,0:0:0:0:
223,261,10051,6,0,B|312:279|265:323|367:355,1,152.25,4|0,1:0|0:0,0:0:0:0:
323,272,10416,2,0,P|334:252|386:253,1,50.75,2|0,1:2|0:0,0:0:0:0:
343,346,10599,1,8,1:2:0:0:
343,357,10782,6,0,P|300:308|267:146,1,197.925,4|0,1:0|0:0,0:0:0:0:
279,108,11143,5,2,1:2:0:0:
202,30,11307,5,8,0:0:0:0:
128,44,11487,5,0,0:0:0:0:
279,185,11668,6,0,B|279:159|304:127|356:127|356:127|301:142|283:171|287:231,1,213.15,4|0,1:0|0:0,0:0:0:0:
357,119,12040,2,0,P|383:138|414:149,1,35.525,8|0,0:0|0:0,0:0:0:0:
145,79,12227,6,0,B|110:75|82:41|91:-10|91:-10|96:47|122:69|182:76,1,243.6,4|0,1:0|0:0,0:0:0:0:
229,242,12599,1,8,0:0:0:0:
212,261,12688,1,8,0:0:0:0:
222,276,12778,6,0,B|281:256|295:197|242:75|224:184|159:105|185:18|251:3,1,334.95,4|8,1:0|1:3,0:0:0:0:
254,8,13418,1,8,1:3:0:0:
261,12,13509,1,4,1:3:0:0:
294,80,13692,1,8,1:3:0:0:
161,268,13875,6,0,P|183:302|198:342,1,81.2,14|0,1:2|0:0,0:0:0:0:
263,142,14060,1,14,1:2:0:0:
45,16,14605,6,0,P|116:49|221:76,1,162.4,2|0,3:2|3:0,0:0:0:0:
18,124,15137,1,2,0:0:0:0:
12,132,15315,2,0,P|53:89|128:112,1,121.8,2|0,3:2|3:0,0:0:0:0:
179,133,15857,1,2,0:0:0:0:
65,229,16037,6,0,P|121:184|171:164,1,121.8,2|0,3:2|3:0,0:0:0:0:
270,75,16572,1,2,0:0:0:0:
314,144,16747,2,0,P|296:168|288:206,2,60.8999999999999,2|0|0,3:2|0:0|3:0,0:0:0:0:
264,67,17289,2,0,P|256:48|237:26,1,30.4499999999999,2|0,0:0|0:0,0:0:0:0:
166,164,17463,6,0,P|218:181|276:278,1,162.4,2|0,3:2|3:0,0:0:0:0:
172,320,18025,1,2,0:0:0:0:
194,328,18213,2,0,P|123:348|93:386,1,121.799996282959,2|0,3:2|3:0,0:0:0:0:
67,202,18747,1,2,0:0:0:0:
0,232,18924,2,0,P|62:241|60:289,1,121.8,2|0,3:2|3:0,0:0:0:0:
129,323,19466,1,2,0:0:0:0:
205,302,19646,5,2,3:2:0:0:
285,319,19821,1,0,0:0:0:0:
361,303,19996,1,0,3:0:0:0:
342,231,20182,2,0,P|328:226|314:221,1,30.4499999999999,2|0,0:0|0:0,0:0:0:0:
251,384,20369,6,0,B|239:293|303:311|291:198,1,162.4,2|0,3:2|3:0,0:0:0:0:
217,171,20914,1,2,0:0:0:0:
202,143,21096,2,0,P|244:90|224:32,1,121.8,2|0,3:2|3:0,0:0:0:0:
145,65,21641,1,2,0:0:0:0:
229,46,21823,6,0,B|321:55|268:113|388:117,1,162.4,2|0,3:2|3:0,0:0:0:0:
465,71,22358,1,2,0:0:0:0:
294,194,22537,2,0,B|365:174|329:143|410:130,1,121.8,2|0,3:2|3:0,0:0:0:0:
394,60,23082,6,0,P|383:43|380:23,1,30.4499999999999,2|0,0:0|0:0,0:0:0:0:
464,71,23264,6,0,P|417:116|412:222,1,162.4,2|2,3:2|3:2,0:0:0:0:
384,277,23799,1,2,0:0:0:0:
457,272,23978,1,0,3:2:0:0:
485,206,24156,1,2,0:0:0:0:
408,209,24335,1,0,3:0:0:0:
496,214,24514,6,0,B|411:230|462:278|352:320,1,164.6736,2|0,0:0|0:0,0:0:0:0:
266,286,25060,6,0,P|254:281|267:293,1,50.75,0|0,3:0|0:0,0:0:0:0:
155,331,25244,6,0,P|131:334|152:322,1,65.975
38,262,25423,6,0,P|7:257|34:272,1,81.2,2|0,3:2|0:0,0:0:0:0:
254,375,25603,5,8,1:2:0:0:
140,216,25774,5,8,1:2:0:0:
8,352,25945,5,8,1:2:0:0:
152,322,26117,6,0,B|146:216|213:257|193:118,1,182.7,4|0,1:0|0:0,0:0:0:0:
155,90,26487,1,8,0:0:0:0:
317,7,26672,1,2,0:0:0:0:
363,62,26857,1,2,1:2:0:0:
304,97,27042,1,0,0:0:0:0:
256,46,27228,1,8,0:0:0:0:
374,72,27413,6,0,P|388:59|370:69,1,50.75,2|0,0:0|0:0,0:0:0:0:
246,39,27598,6,0,P|339:103|352:177,1,152.25,2|0,1:2|0:0,0:0:0:0:
342,208,27963,1,8,0:0:0:0:
442,360,28144,1,2,0:0:0:0:
480,298,28326,5,2,1:2:0:0:
404,323,28508,1,0,0:0:0:0:
296,290,28681,1,8,0:0:0:0:
296,290,28865,6,0,P|290:281|296:289,1,50.75,2|0,0:0|0:0,0:0:0:0:
335,384,29049,6,0,P|248:316|169:324,1,152.25,2|0,1:2|0:0,0:0:0:0:
124,366,29417,1,8,0:0:0:0:
0,196,29601,1,2,0:0:0:0:
78,234,29785,5,2,1:2:0:0:
119,166,29962,1,0,0:0:0:0:
36,120,30140,1,8,0:0:0:0:
78,234,30317,6,0,P|80:252|83:235,1,50.75,2|0,0:0|0:0,0:0:0:0:
27,377,30495,6,0,P|87:308|174:318,1,152.25,2|0,1:2|0:0,0:0:0:0:
248,350,30858,1,8,0:0:0:0:
452,325,31040,1,2,0:0:0:0:
391,379,31206,5,2,1:2:0:0:
478,250,31390,1,0,0:0:0:0:
389,117,31574,1,8,0:0:0:0:
437,52,31758,2,0,P|426:37|432:54,1,50.75,2|0,0:0|0:0,0:0:0:0:
512,82,31930,6,0,P|449:98|381:200,1,152.25,2|0,1:2|0:0,0:0:0:0:
368,263,32277,1,8,0:0:0:0:
219,55,32459,1,2,0:0:0:0:
338,0,32642,1,2,1:2:0:0:
389,117,32825,1,0,0:0:0:0:
278,159,33008,1,8,0:0:0:0:
412,46,33191,6,0,P|415:28|406:44,1,50.75,2|0,0:0|0:0,0:0:0:0:
251,0,33374,6,0,P|367:62|384:115,1,152.25,2|0,1:2|0:0,0:0:0:0:
377,194,33737,1,8,0:0:0:0:
271,253,33919,5,2,0:0:0:0:
170,218,34101,5,2,1:2:0:0:
93,241,34283,5,0,0:0:0:0:
80,236,34464,1,8,0:0:0:0:
8,252,34646,6,0,P|-5:255|7:247,1,40.6,2|0,0:0|0:0,0:0:0:0:
25,159,34828,6,0,P|12:108|90:127,1,152.25,2|0,1:2|0:0,0:0:0:0:
104,123,35189,6,0,P|115:105|110:122,1,65.975,8|0,0:0|0:0,0:0:0:0:
8,252,35370,6,0,P|19:336|75:276,1,167.475,2|0,0:0|0:0,0:0:0:0:
105,234,35731,1,2,0:0:0:0:
224,307,35912,1,8,0:0:0:0:
291,236,36093,6,0,P|304:206|346:187,1,55.825,2|0,0:0|0:0,0:0:0:0:
269,384,36273,6,0,P|258:300|185:162,1,213.15,2|0,1:2|0:0,0:0:0:0:
261,143,36635,2,0,B|264:118|275:125|280:70,1,50.75,8|0,0:0|0:0,0:0:0:0:
284,14,36815,1,0,3:0:0:0:
284,5,36906,1,8,3:0:0:0:
276,2,36996,5,4,1:3:0:0:
346,66,37177,1,4,1:3:0:0:
357,258,37357,6,0,P|354:282|367:262,1,65.975,8|0,1:3|0:0,0:0:0:0:
273,356,37533,6,0,P|256:363|268:347,1,50.75,8|0,1:3|0:0,0:0:0:0:
491,246,37709,6,0,P|369:268|296:379,1,263.899987919617,4|2,1:0|0:0,0:0:0:0:
407,338,38274,1,0,1:0:0:0:
357,258,38468,2,0,B|316:198|359:126|379:193|431:122|368:38,1,203,10|2,0:0|0:0,0:0:0:0:
378,79,38978,6,0,P|371:109|412:121,1,50.75,0|0,1:0|1:0,0:0:0:0:
508,259,39156,1,2,1:2:0:0:
508,259,39345,6,0,P|484:249|433:221,1,50.75,8|0,0:0|0:0,0:0:0:0:
407,192,39522,1,2,0:0:0:0:
481,97,39697,2,0,P|465:87|473:100,1,50.75,0|0,1:0|0:0,0:0:0:0:
374,377,39872,6,0,P|414:256|505:165,1,243.6,10|2,0:0|0:0,0:0:0:0:
492,173,40441,6,0,P|486:203|448:211,1,50.75
226,42,40616,6,0,B|243:101|331:85|281:66|377:41|392:120,1,203,2|2,1:2|0:0,0:0:0:0:
207,134,41158,6,0,P|225:120|263:123,1,35.525,0|0,1:0|0:0,0:0:0:0:
451,61,41338,1,10,0:0:0:0:
297,44,41519,2,0,P|307:82|328:130,1,71.0499999999999,0|2,0:0|0:0,0:0:0:0:
184,273,41881,6,0,P|199:288|212:331,1,35.525,0|0,1:0|0:0,0:0:0:0:
230,369,42061,5,2,1:2:0:0:
281,194,42237,2,0,P|230:243|232:308,1,111.354627844915,8|2,0:0|0:0,0:0:0:0:
190,197,42598,6,0,P|166:192|139:168,1,35.525,0|0,1:0|0:0,0:0:0:0:
230,369,42783,5,10,0:0:0:0:
206,300,42964,5,0,0:0:0:0:
256,221,43145,5,2,0:0:0:0:
197,116,43326,5,0,0:0:0:0:
230,369,43507,6,0,B|262:213|155:269|200:104,1,263.9,4|2,1:0|0:0,0:0:0:0:
197,116,44055,1,0,1:0:0:0:
221,38,44238,2,0,B|219:6|257:1|257:1|222:14|222:63,1,121.8,10|0,0:0|0:0,0:0:0:0:
197,116,44604,1,2,0:0:0:0:
102,15,44782,6,0,P|126:22|146:37,1,50.75,0|0,1:0|1:0,0:0:0:0:
268,104,44961,1,2,1:2:0:0:
46,165,45139,6,0,P|82:132|115:126,1,50.75,8|0,0:0|0:0,0:0:0:0:
168,108,45318,1,2,0:0:0:0:
0,67,45506,6,0,P|24:74|46:79,1,25.375,0|0,1:0|0:0,0:0:0:0:
180,0,45695,6,0,B|209:62|156:116|112:58|94:185|157:207,1,213.15,10|0,0:0|0:0,0:0:0:0:
197,243,46037,6,0,P|217:224|247:213,1,55.825,0|0,1:0|3:0,0:0:0:0:
349,32,46204,1,0,1:0:0:0:
376,39,46288,1,0,3:0:0:0:
391,11,46387,6,0,B|352:106|286:28|227:167,1,197.925,4|0,1:0|0:0,0:0:0:0:
244,132,46766,2,0,P|240:145|246:135,1,40.6,8|0,0:0|0:0,0:0:0:0:
507,305,46935,6,0,B|478:229|400:217|437:272|348:273|306:163,1,228.375,4|0,1:0|0:0,0:0:0:0:
317,204,47292,2,0,P|306:193|322:203,1,60.9,8|8,0:0|0:0,0:0:0:0:
401,336,47470,1,0,1:0:0:0:
401,336,47649,6,0,B|382:236|463:282|509:102|310:14|340:156|238:88|242:23,1,406,4|0,1:0|1:0,0:0:0:0:
163,12,48097,6,0,B|128:3|128:3|171:39,1,91.3499999999999,8|8,1:3|1:3,0:0:0:0:
397,144,48273,6,0,B|379:127|379:127|404:183,1,76.1249999999999,4|4,1:3|1:3,0:0:0:0:
401,336,48536,5,14,1:2:0:0:
244,43,48711,5,14,1:2:0:0:
25,137,49097,6,0,P|45:146|54:182,1,35.525,2|0,0:1|0:0,0:0:0:0:
41,354,49289,6,0,B|29:204|109:260|121:38,1,258.825,6|0,1:0|0:0,0:0:0:0:
64,58,49652,2,0,P|58:38|62:61,1,86.275,10|0,0:0|0:0,0:0:0:0:
159,241,49819,1,2,0:1:0:0:
219,201,50012,5,2,1:2:0:0:
52,156,50182,1,2,1:1:0:0:
0,329,50383,1,10,0:0:0:0:
87,376,50557,6,0,B|142:305|63:232|77:312|-46:204|88:126,1,258.825,6|0,1:0|0:0,0:0:0:0:
115,112,50918,2,0,P|154:106|188:86,1,71.05,2|0,1:1|0:0,0:0:0:0:
391,60,51097,1,10,0:0:0:0:
455,160,51277,2,0,P|405:145|368:112,1,71.05,2|0,0:1|0:0,0:0:0:0:
209,25,51458,5,2,1:2:0:0:
316,228,51640,1,2,1:1:0:0:
512,102,51822,1,10,0:0:0:0:
469,40,52004,1,2,0:1:0:0:
230,32,52186,6,0,P|348:143|413:293,1,258.825,6|0,1:0|0:0,0:0:0:0:
454,283,52526,2,0,B|477:305|500:291|500:291|470:288|414:247,1,96.425,10|0,0:0|0:0,0:0:0:0:
361,326,52698,5,2,0:1:0:0:
466,192,52891,1,2,1:2:0:0:
330,60,53085,1,2,1:1:0:0:
268,95,53257,1,10,1:2:0:0:
71,22,53429,5,6,1:0:0:0:
252,94,53601,1,2,0:1:0:0:
98,181,53781,5,2,1:1:0:0:
157,223,53962,2,0,P|185:251|192:287,1,76.1249999999999,10|0,0:0|0:0,0:0:0:0:
187,28,54133,6,0,P|128:129|6:150,1,243.6,6|0,1:0|0:0,0:0:0:0:
8,145,54518,2,0,P|13:116|41:111,1,60.9,0|0,1:0|0:0,0:0:0:0:
216,30,54696,6,0,P|237:12|225:36,1,76.1249999999999,10|0,0:0|0:0,0:0:0:0:
349,159,54875,6,0,P|373:146|351:168,1,91.3499999999999,2|0,0:1|0:0,0:0:0:0:
264,241,55053,6,0,P|201:309|191:394,1,167.475,6|0,1:0|0:0,0:0:0:0:
325,181,55421,2,0,B|336:179|347:163|347:163|339:184|316:202,1,71.05,10|0,0:0|0:0,0:0:0:0:
265,240,55597,1,2,0:1:0:0:
231,151,55773,5,2,1:2:0:0:
359,313,55950,1,2,1:1:0:0:
512,155,56131,5,10,0:0:0:0:
277,384,56309,6,0,B|250:228|386:281|335:97,1,258.825,6|0,1:1|0:0,0:0:0:0:
318,76,56668,2,0,P|284:69|238:35,1,60.9,2|0,1:0|0:0,0:0:0:0:
487,310,56847,1,10,0:0:0:0:
423,339,57027,5,2,0:1:0:0:
359,313,57207,1,2,1:2:0:0:
259,243,57386,5,2,1:1:0:0:
130,222,57567,5,10,0:0:0:0:
16,342,57749,5,2,0:1:0:0:
416,361,57931,6,0,P|398:278|333:144,1,172.55,6|8,1:1|1:3,0:0:0:0:
394,128,58207,1,8,1:3:0:0:
400,116,58300,2,0,P|405:100|402:118,1,60.9,4|0,1:3|0:0,0:0:0:0:
512,384,58484,6,0,P|381:277|232:290,1,289.275,6|8,1:0|1:3,0:0:0:0:
203,247,58854,6,0,P|167:225|165:171,1,81.2,8|0,1:3|0:0,0:0:0:0:
166,192,59036,6,0,P|185:166|213:165,1,50.75,8|0,1:3|0:0,0:0:0:0:
483,383,59220,6,0,B|379:386|335:279|428:314|351:188|265:196,1,304.5,6|0,1:0|0:0,0:0:0:0:
270,122,59581,6,0,P|295:93|252:41,1,91.3499999999999,8|0,1:3|0:0,0:0:0:0:
291,40,59762,6,0,P|236:42|236:90,1,71.05
238,57,59942,6,0,P|244:87|286:90,1,55.825,4|0,1:3|0:0,0:0:0:0:
116,0,60124,6,0,P|131:28|142:60,1,65.975,8|8,1:3|1:3,0:0:0:0:
278,195,60307,2,0,P|260:229|253:268,1,76.1249999999999,8|8,1:3|1:3,0:0:0:0:
20,357,60490,5,4,1:3:0:0:
26,320,60582,5,4,1:3:0:0:
74,293,60673,5,4,1:3:0:0:
143,308,60761,5,4,1:3:0:0:
86,375,60850,6,0,P|160:243|197:117,1,258.825,6|0,1:0|0:0,0:0:0:0:
238,57,61211,6,0,P|313:23|269:108,1,228.375,10|0,0:0|0:0,0:0:0:0:
192,141,61572,1,10,0:0:0:0:
384,265,61754,1,2,1:0:0:0:
242,360,61937,1,10,0:0:0:0:
160,336,62120,6,0,P|134:236|221:293,1,255.051906666667,6|0,1:0|0:0,0:0:0:0:
242,360,62478,1,2,1:0:0:0:
342,378,62653,1,10,0:0:0:0:
454,313,62829,1,2,0:1:0:0:
493,115,63010,1,10,0:0:0:0:
450,339,63192,5,2,1:0:0:0:
349,185,63374,1,10,0:0:0:0:
385,121,63552,2,0,P|402:90|420:33,1,60.9,2|0,1:0|0:0,0:0:0:0:
411,251,63740,6,0,B|271:273|342:349|198:404,1,228.375,6|0,1:0|0:0,0:0:0:0:
173,348,64112,6,0,P|184:314|239:292,1,60.9,10|0,0:0|0:0,0:0:0:0:
108,380,64299,1,2,0:1:0:0:
63,223,64485,6,0,P|37:199|8:122,1,76.1249999999999,10|0,0:0|0:0,0:0:0:0:
29,327,64654,1,2,1:0:0:0:
170,175,64834,6,0,P|200:121|281:78,1,91.3499999999999,10|0,0:0|0:0,0:0:0:0:
108,380,65005,5,6,1:0:0:0:
80,240,65180,5,10,0:0:0:0:
115,99,65355,5,2,0:1:0:0:
86,11,65536,5,10,0:0:0:0:
96,0,65718,5,6,1:0:0:0:
184,27,65902,5,10,0:0:0:0:
28,172,66089,1,0,1:0:0:0:
179,291,66277,1,10,0:0:0:0:
217,231,66464,2,0,P|231:205|206:155,1,60.9,2|0,1:0|0:0,0:0:0:0:
222,384,66624,6,0,B|248:231|118:289|149:94,1,258.825,6|0,1:0|0:0,0:0:0:0:
201,94,66989,6,0,B|201:81|216:65|216:65|209:85|208:134,1,65.975,10|0,0:0|0:0,0:0:0:0:
314,226,67177,1,2,0:1:0:0:
467,142,67366,1,10,0:0:0:0:
326,0,67542,5,2,1:0:0:0:
350,66,67722,1,10,0:0:0:0:
337,233,67903,6,0,P|399:41|453:-7,1,231.785408711815,6|0,1:0|0:0,0:0:0:0:
239,243,68268,6,0,P|201:262|200:303,1,86.275,2|0,0:1|0:0,0:0:0:0:
265,337,68456,2,0,P|287:322|289:292,1,55.825,10|0,0:0|0:0,0:0:0:0:
440,225,68634,6,0,P|401:193|409:144,1,96.425,2|0,0:1|0:0,0:0:0:0:
492,118,68813,2,0,P|515:140|513:172,1,65.975,10|0,0:0|0:0,0:0:0:0:
287,125,68986,6,0,P|331:88|323:31,1,106.575,2|0,1:0|0:0,0:0:0:0:
226,0,69159,2,0,P|196:26|199:64,1,76.1249999999999,10|0,0:0|0:0,0:0:0:0:
209,136,69338,1,2,0:1:0:0:
498,354,69518,6,0,P|410:251|296:217,1,243.6,6|0,1:0|0:0,0:0:0:0:
309,221,69877,2,0,P|297:210|311:215,1,40.6,8|0,0:0|0:0,0:0:0:0:
512,365,70057,6,0,P|404:288|405:156,1,274.05,6|0,1:0|0:0,0:0:0:0:
413,84,70403,6,0,P|429:71|405:79,1,76.125,8|0,1:3|0:0,0:0:0:0:
320,57,70592,2,0,P|312:42|327:54,1,50.75,8|0,1:3|0:0,0:0:0:0:
72,10,70782,6,0,B|103:114|221:124|161:21|310:63|316:150,1,304.5,6|0,1:0|0:0,0:0:0:0:
88,92,71150,6,0,P|65:102|92:95,1,91.3499999999999,8|0,1:3|0:0,0:0:0:0:
194,48,71334,6,0,P|191:26|198:45,1,65.975,8|0,0:0|0:0,0:0:0:0:
240,117,71518,6,0,P|238:132|244:120,1,40.6,8|8,2:3|2:3,0:0:0:0:
148,219,71694,5,8,2:0:0:0:
94,219,71782,5,8,2:0:0:0:
63,254,71870,5,8,2:0:0:0:
65,297,71959,5,8,2:0:0:0:
52,332,72047,5,8,1:2:0:0:
28,349,72135,5,8,1:2:0:0:
10,344,72223,5,8,1:2:0:0:
12,336,72312,5,8,1:2:0:0:
3,252,72417,6,0,B|-1:317|85:327|54:284|134:290|142:370,1,197.925,4|0,1:0|0:0,0:0:0:0:
139,370,72801,2,0,P|114:350|129:320,1,45.675,8|0,0:0|0:0,0:0:0:0:
243,63,72970,6,0,B|181:25|124:102|182:96|132:169|53:132,1,228.375,4|0,1:0|0:0,0:0:0:0:
54,119,73333,2,0,P|89:126|102:169,1,55.825,8|0,0:0|0:0,0:0:0:0:
263,383,73502,6,0,B|335:328|293:242|269:296|225:207|329:119,1,258.825,4|0,1:0|0:0,0:0:0:0:
343,74,73877,5,8,2:0:0:0:
414,52,73988,5,8,1:3:0:0:
476,90,74099,5,8,1:3:0:0:
481,131,74210,5,4,1:3:0:0:
458,159,74321,5,4,1:3:0:0:
432,151,74432,5,4,1:3:0:0:
427,139,74555,6,0,P|404:152|402:202,2,74.4333333333333,8|0|8,1:3|1:0|1:3,0:0:0:0:
478,257,74925,6,0,P|488:243|483:258,2,47.3666666666666,8|0|4,1:3|1:3|1:3,0:0:0:0:
312,218,75310,6,0,P|411:246|450:344,1,197.925,4|0,1:0|0:0,0:0:0:0:
439,323,75673,2,0,P|451:342|481:351,1,35.525,8|0,0:0|0:0,0:0:0:0:
399,71,75855,6,0,P|342:173|237:206,1,228.375,4|0,1:0|0:0,0:0:0:0:
243,225,76219,2,0,P|221:216|213:174,1,45.675,8|0,0:0|0:0,0:0:0:0:
390,193,76380,6,0,B|427:134|503:155|475:269|587:210|582:54|468:86|468:125,1,279.125,4|0,1:0|0:0,0:0:0:0:
474,112,76922,2,0,P|463:135|478:114,1,76.125,8|0,1:3|0:0,0:0:0:0:
399,71,77287,2,0,P|394:58|401:69,1,35.525,8|0,1:3|0:0,0:0:0:0:
330,108,77470,2,0,P|326:117|332:109,3,25.375,4|0|0|8,1:3|0:0|0:0|1:3,0:0:0:0:
244,91,77852,6,0,P|234:76|240:92,1,45.675,8|0,1:3|0:0,0:0:0:0:
153,147,78037,6,0,P|142:167|149:146,1,65.975,0|0,1:0|0:0,0:0:0:0:
1,50,78222,6,0,B|-25:23|0:-6|0:-6|3:54|66:87,1,162.4,4|2,1:0|0:0,0:0:0:0:
133,45,78751,1,2,0:0:0:0:
148,64,78927,2,0,P|98:73|57:168,1,162.4,2|0,0:0|0:0,0:0:0:0:
115,323,79462,1,2,0:0:0:0:
0,328,79641,6,0,P|81:301|148:256,1,162.4,2|2,0:0|0:0,0:0:0:0:
205,126,80183,1,2,0:0:0:0:
190,148,80363,2,0,P|244:168|257:268,1,162.4,2|0,0:0|0:0,0:0:0:0:
260,262,80925,6,0,P|267:247|257:258,1,40.6,2|0,0:0|0:0,0:0:0:0:
285,159,81113,6,0,B|264:91|332:48|340:97|393:76|407:-6,1,203,2|2,0:0|0:0,0:0:0:0:
192,203,81661,6,0,B|194:156|169:166|179:100,1,81.2,2|0,0:0|0:0,0:0:0:0:
223,309,82036,6,0,B|259:282|233:277|282:244,1,60.8999999999999,2|0,0:0|0:0,0:0:0:0:
132,372,82411,6,0,B|98:264|48:324|22:226,1,182.7,2|0,0:0|0:0,0:0:0:0:
35,221,83452,5,2,0:0:0:0:
143,235,83631,5,2,0:0:0:0:
208,202,83811,5,2,0:0:0:0:
208,202,83990,6,0,P|217:200|210:205,1,25.375,2|0,0:0|0:0,0:0:0:0:
256,192,84170,12,0,89919,0:0:0:0:
