osu file format v14

[General]
AudioFilename: audio.mp3
AudioLeadIn: 0
PreviewTime: 49097
Countdown: 0
SampleSet: Soft
StackLeniency: 0.7
Mode: 0
LetterboxInBreaks: 0
WidescreenStoryboard: 1

[Editor]
DistanceSpacing: 1
BeatDivisor: 4
GridSize: 32
TimelineZoom: 3.499999

[Metadata]
Title:Destin Histoire (TV Size)
TitleUnicode:Destin Histoire (TV Size)
Artist:yoshiki*lisa
ArtistUnicode:yoshiki*lisa
Creator:Froskya
Version:Hard
Source:GOSICK
Tags:吉木りさ -ゴシック- japanese anime pop jpop j-pop opening op story of fate gothic yoshiki risa lisa original soundtrack ost destiny history female vocals vocalist Victorique de Blois ヴィクトリカ・ド・ブロワ ヴィクトリカ ド ブロワ revialink kxlman original3s fackel theoneforce 1force
BeatmapID:3521103
BeatmapSetID:1713118

[Difficulty]
HPDrainRate:4.5
CircleSize:3.6
OverallDifficulty:6.5
ApproachRate:7.5
SliderMultiplier:1.4
SliderTickRate:1

[Events]
//Background and Video events
0,0,"uwu.jpg",0,0
Video,-425,"celeste vibes.mp4"
//Break Periods
//Storyboard Layer 0 (Background)
//Storyboard Layer 1 (Fail)
//Storyboard Layer 2 (Pass)
//Storyboard Layer 3 (Foreground)
//Storyboard Layer 4 (Overlay)
//Storyboard Sound Samples

[TimingPoints]
137,361.44578313253,4,2,1,40,1,0
137,-131.578947368421,4,2,1,40,0,0
1582,-131.578947368421,4,2,1,50,0,0
3028,-131.578947368421,4,2,1,60,0,0
4835,-111.111111111111,4,2,1,60,0,0
5197,-111.111111111111,4,2,2,70,0,0
5920,355.029585798817,4,2,1,75,1,0
7162,375,4,2,1,75,1,0
7706,361.44578313253,4,2,1,75,1,0
8067,419.58041958042,4,2,1,75,1,0
8276,340.909090909091,4,2,1,75,1,0
8446,379.746835443038,4,2,1,75,1,0
8809,355.029585798817,4,2,1,75,1,0
10051,365.853658536585,4,2,1,75,1,0
10782,361.44578313253,4,2,1,75,1,0
11307,361.44578313253,4,2,1,75,1,0
11668,372.670807453416,4,2,1,75,1,0
12599,359.281437125748,4,2,1,80,1,0
12778,365.853658536585,4,2,1,80,1,0
12778,-125,4,2,1,80,0,0
13875,370.37037037037,4,2,1,80,1,0
14605,355.029585798817,4,2,3,50,1,0
14605,-125,4,2,3,50,0,0
15315,361.44578313253,4,2,3,40,1,0
15315,-125,4,2,3,40,0,0
16037,357.142857142857,4,2,3,50,1,0
16037,-125,4,2,3,50,0,0
16747,361.44578313253,4,2,3,50,1,0
16747,-125,4,2,3,50,0,0
17463,375,4,2,3,50,1,0
17463,-125,4,2,3,50,0,0
18213,357.142857142857,4,2,3,50,1,0
18213,-125,4,2,3,50,0,0
18570,354.50516986706,4,2,3,50,1,0
18924,361.44578313253,4,2,3,50,1,0
18924,-125,4,2,3,50,0,0
19646,350.877192982456,4,2,3,50,1,0
19646,-125,4,2,3,50,0,0
19996,373.250388802488,4,2,3,50,1,0
19996,-125,4,2,3,50,0,0
20369,363.636363636364,4,2,3,50,1,0
20369,-125,4,2,3,50,0,0
21823,357.142857142857,4,2,3,50,1,0
21823,-125,4,2,3,50,0,0
22537,363.636363636364,4,2,3,40,1,0
22537,-125,4,2,3,40,0,0
23264,357.142857142857,4,2,3,50,1,0
23264,-125,4,2,3,50,0,0
24692,368.098159509202,4,2,3,60,1,0
25060,-125,4,2,3,60,0,0
25244,359.281437125748,4,2,2,60,1,0
25423,-100,4,2,2,60,0,0
25603,342.857142857143,4,2,1,70,1,0
25603,-125,4,2,1,70,0,0
26117,370.37037037037,4,2,1,75,1,0
27598,365.853658536585,4,2,1,75,1,0
27963,363.636363636363,4,2,1,75,1,0
28681,368.098159509202,4,2,1,75,1,0
29785,355.029585798817,4,2,1,75,1,0
30495,363.636363636364,4,2,1,75,1,0
31206,368.098159509202,4,2,1,75,1,0
31930,361.44578313253,4,2,1,75,1,0
32277,365.853658536585,4,2,1,75,1,0
33374,363.636363636364,4,2,1,75,1,0
34828,361.44578313253,4,2,1,75,1,0
37357,352.941176470588,4,2,1,75,1,0
37709,372.670807453416,4,2,2,70,1,0
37709,-125,4,2,2,70,0,0
38081,387.096774193548,4,2,2,70,1,0
38468,355.029585798816,4,2,2,70,1,0
38468,-125,4,2,2,70,0,0
38978,355.029585798816,4,2,2,70,1,0
39156,379.746835443038,4,2,2,70,1,0
39156,-125,4,2,2,70,0,0
39522,350.877192982456,4,2,2,70,1,0
39872,379.746835443038,4,2,2,70,1,0
39872,-125,4,2,2,70,0,0
40616,361.44578313253,4,2,2,70,1,0
40616,-125,4,2,2,70,0,0
42061,352.941176470588,4,2,2,70,1,0
42237,-125,4,2,2,70,0,0
42413,370.37037037037,4,2,2,70,1,0
42598,-125,4,2,2,70,0,0
42783,362.187613183629,4,2,2,70,1,0
43507,365.853658536585,4,2,2,70,1,0
43507,-125,4,2,2,70,0,0
44604,357.142857142857,4,2,2,70,1,0
44961,-125,4,2,2,70,0,0
45318,377.358490566038,4,2,2,70,1,0
45695,342.857142857143,4,2,2,70,1,0
45695,-125,4,2,2,70,0,0
46037,335.195530726257,4,2,2,70,1,0
46204,-125,4,2,2,70,0,0
46387,379.746835443038,4,2,2,75,1,0
46766,338.983050847457,4,2,2,75,1,0
46935,357.142857142857,4,2,2,75,1,0
47649,361.44578313253,4,2,2,75,1,0
48010,350.877192982456,4,2,2,75,1,0
49097,384.615384615384,4,2,2,75,1,0
49289,363.636363636364,4,2,2,85,1,1
49652,335.195530726257,4,2,2,85,1,1
49819,387.096774193548,4,2,2,85,1,1
50182,402.684563758389,4,2,2,85,1,1
50383,348.837209302325,4,2,2,85,1,1
50557,361.44578313253,4,2,2,85,1,1
50918,359.281437125748,4,2,2,80,1,1
51277,363.636363636364,4,2,2,80,1,1
52186,340.909090909091,4,2,2,85,1,1
52698,387.096774193548,4,2,2,85,1,1
53085,344.827586206896,4,2,2,85,1,1
53429,344.827586206897,4,2,2,80,1,1
53601,361.44578313253,4,2,2,85,1,1
53962,342.857142857143,4,2,2,85,1,1
54133,385.232744783307,4,2,2,85,1,1
54518,357.142857142857,4,2,2,85,1,1
55053,368.098159509202,4,2,2,85,1,1
55421,352.941176470588,4,2,2,85,1,1
55950,363.636363636364,4,2,2,85,1,1
56309,359.281437125748,4,2,2,85,1,1
57386,363.636363636364,4,2,2,85,1,1
57931,369.230769230769,4,2,2,80,1,0
58854,365.853658536585,4,2,2,80,1,0
59220,361.44578313253,4,2,2,80,1,0
59942,365.853658536585,4,2,2,80,1,0
60673,355.029585798817,4,2,2,80,1,0
60850,361.44578313253,4,2,2,85,1,1
60850,-86.9565217391304,4,2,2,85,0,1
61572,365.853658536585,4,2,2,85,1,1
62120,-86.9565217391304,4,2,2,85,0,1
62303,350.877192982456,4,2,2,85,1,1
62478,-86.9565217391304,4,2,2,85,0,1
62829,363.636363636364,4,2,2,85,1,1
62829,-86.9565217391304,4,2,2,85,0,1
63374,357.142857142857,4,2,2,85,1,1
63740,372.670807453416,4,2,2,85,1,1
63740,-86.9565217391304,4,2,2,85,0,1
64485,338.983050847457,4,2,2,85,1,1
64654,361.44578313253,4,2,2,85,1,1
65005,350.877192982456,4,2,2,85,1,1
65180,-86.9565217391304,4,2,2,85,0,1
65355,363.636363636364,4,2,2,85,1,1
65536,-86.9565217391304,4,2,2,85,0,1
65902,375,4,2,2,85,1,1
65902,-86.9565217391304,4,2,2,85,0,1
66464,320.855614973262,4,2,2,85,1,1
66624,365.853658536585,4,2,2,85,1,1
66624,-86.9565217391304,4,2,2,85,0,1
66989,377.358490566038,4,2,2,85,1,1
67542,361.44578313253,4,2,2,85,1,1
67903,357.142857142857,4,2,2,85,1,1
67903,-86.9565217391304,4,2,2,85,0,1
68081,375,4,2,2,85,1,1
68268,-86.9565217391304,4,2,2,85,0,1
68456,357.142857142857,4,2,2,85,1,1
68634,-86.9565217391304,4,2,2,85,0,1
68813,346.820809248555,4,2,2,85,1,1
68986,-86.9565217391304,4,2,2,85,0,1
69159,359.281437125748,4,2,2,85,1,1
69518,-100,4,2,2,80,0,1
70057,346.820809248555,4,2,2,80,1,1
70403,379.746835443038,4,2,2,80,1,1
70782,368.098159509202,4,2,2,80,1,1
71518,352.941176470588,4,2,2,85,1,1
72417,384.615384615385,4,2,2,80,1,0
72417,-111.111111111111,4,2,2,80,0,0
72801,338.983050847457,4,2,2,80,1,0
72970,363.636363636364,4,2,2,80,1,0
72970,-111.111111111111,4,2,2,80,0,0
73502,375,4,2,2,80,1,0
73502,-111.111111111111,4,2,2,80,0,0
73877,333.333333333333,4,2,2,70,1,0
73877,-125,4,2,2,70,0,0
74432,370.370370370371,4,2,2,70,1,0
74555,-125,4,2,2,70,0,0
75310,363.636363636364,4,2,2,80,1,0
75310,-111.111111111111,4,2,2,80,0,0
76380,361.44578313253,4,2,2,80,1,0
76380,-125,4,2,2,80,0,0
76922,365.853658536585,4,2,2,70,1,0
77470,382.165605095541,4,2,2,70,1,0
77470,-125,4,2,2,70,0,0
77852,370.37037037037,4,2,2,70,1,0
78222,352.941176470588,4,2,1,60,1,0
78222,-111.111111111111,4,2,1,60,0,0
78927,357.142857142857,4,2,2,60,1,0
79462,-100,4,2,1,60,0,0
79641,361.44578313253,4,2,2,60,1,0
79641,-111.111111111111,4,2,2,60,0,0
80002,-111.111111111111,4,2,1,60,0,0
80363,375,4,2,2,60,1,0
80925,-100,4,2,1,60,0,0
81113,365.853658536585,4,2,2,60,1,0
81113,-111.111111111111,4,2,2,60,0,0
81478,-111.111111111111,4,2,1,60,0,0
81661,375,4,2,1,60,1,0
81661,-111.111111111111,4,2,1,60,0,0
82411,416.666666666667,4,2,1,60,1,0
82411,-142.857142857143,4,2,1,60,0,0
83452,359.281437125748,4,2,1,60,1,0
89919,-100,4,2,1,5,0,0

[Colours]
Combo1 : 182,129,254
Combo2 : 128,255,128
Combo3 : 255,255,128
Combo4 : 128,255,255

[HitObjects]
133,325,137,6,0,P|173:318|197:313,1,53.2,2|2,0:0|0:0,0:0:0:0:
233,286,498,1,2,0:0:0:0:
233,286,679,2,0,P|281:291|345:298,1,106.4,2|2,0:0|0:0,0:0:0:0:
422,365,1402,5,2,0:0:0:0:
422,365,1582,2,0,P|428:341|434:313,1,53.2,2|2,0:0|0:0,0:0:0:0:
460,281,1944,1,2,0:0:0:0:
460,281,2124,2,0,P|455:233|447:168,1,106.4,2|2,0:0|0:0,0:0:0:0:
386,101,2847,5,2,0:0:0:0:
386,101,3028,2,0,P|362:107|333:113,1,53.2,2|2,0:0|0:0,0:0:0:0:
302,139,3390,1,2,0:0:0:0:
302,139,3570,2,0,P|254:134|191:126,1,106.4,2|2,0:0|0:0,0:0:0:0:
107,87,4293,5,2,0:0:0:0:
107,87,4474,2,0,P|96:108|97:138,1,53.2,2|2,0:0|0:0,0:0:0:0:
53,213,4835,2,0,P|61:243|92:264,1,63.0000000000001,2|2,0:0|0:0,0:0:0:0:
180,312,5197,1,14,1:2:0:0:
180,312,5377,1,14,1:2:0:0:
180,312,5920,6,0,L|325:292,2,140,4|10|2,1:0|0:0|1:2,0:0:0:0:
121,373,6807,1,0,1:0:0:0:
46,335,6985,1,10,0:0:0:0:
98,243,7162,6,0,P|82:174|56:109,1,140,4|0,1:0|1:0,0:0:0:0:
114,49,7706,2,0,P|141:70|175:73,1,70,10|0,0:0|0:0,0:0:0:0:
173,157,8067,2,0,P|207:153|234:132,1,70,2|0,1:2|1:0,0:0:0:0:
295,190,8446,2,0,P|317:162|321:128,1,70,10|0,0:0|0:0,0:0:0:0:
401,59,8809,6,0,P|345:19|277:34,2,140,4|10|2,1:0|0:0|1:2,0:0:0:0:
452,126,9696,1,0,1:0:0:0:
405,195,9874,1,10,0:0:0:0:
452,288,10051,6,0,B|396:273|396:273|372:285|372:285|303:267,1,140,4|2,1:0|1:2,0:0:0:0:
296,190,10599,1,8,1:2:0:0:
200,234,10782,2,0,L|182:94,1,140,4|2,1:0|1:2,0:0:0:0:
170,11,11307,2,0,L|93:39,1,70,8|0,0:0|0:0,0:0:0:0:
7,76,11668,6,0,B|36:113|36:113|23:162|11:209,1,140,4|8,1:0|0:0,0:0:0:0:
75,287,12227,2,0,B|154:298|123:246|207:258,1,140,4|8,1:0|0:0,0:0:0:0:
243,279,12688,5,8,0:0:0:0:
243,278,12778,2,0,P|300:222|380:237,1,168,4|8,1:0|1:3,0:0:0:0:
404,261,13418,1,8,1:3:0:0:
404,261,13509,2,0,P|390:298|382:333,1,56,4|8,1:3|1:3,0:0:0:0:
318,371,13875,1,14,1:2:0:0:
318,371,14060,1,14,1:2:0:0:
318,371,14605,6,0,L|196:351,1,112,2|0,3:2|3:0,0:0:0:0:
155,365,15137,1,2,0:0:0:0:
155,365,15315,2,0,B|135:311|135:311|176:253,1,112,2|0,3:2|3:0,0:0:0:0:
210,231,15857,5,2,0:0:0:0:
210,231,16037,2,0,P|206:176|151:154,1,112,2|0,3:2|3:0,0:0:0:0:
107,164,16572,1,2,0:0:0:0:
106,164,16747,2,0,P|68:150|54:84,1,112,2|0,3:2|3:0,0:0:0:0:
132,15,17463,6,0,P|188:25|249:51,1,112,2|0,3:2|3:0,0:0:0:0:
259,102,18025,1,2,0:0:0:0:
259,102,18213,2,0,B|267:143|267:143|261:161|261:161|275:226,1,112,2|0,3:2|3:0,0:0:0:0:
315,255,18747,5,2,0:0:0:0:
315,255,18924,2,0,B|380:260|352:300|429:302,1,112,2|0,3:2|3:0,0:0:0:0:
459,268,19466,1,2,0:0:0:0:
459,268,19646,1,2,3:2:0:0:
469,163,19996,1,0,3:0:0:0:
377,94,20369,6,0,P|338:54|285:60,1,112,2|0,3:2|3:0,0:0:0:0:
237,80,20914,1,2,0:0:0:0:
237,80,21096,2,0,B|254:113|254:113|239:191,1,112,2|0,3:2|3:0,0:0:0:0:
230,243,21641,5,2,0:0:0:0:
230,243,21823,2,0,P|165:254|107:279,1,112,2|0,3:2|3:0,0:0:0:0:
89,316,22358,1,2,0:0:0:0:
89,316,22537,2,0,P|75:254|15:228,1,112,2|0,3:2|3:0,0:0:0:0:
20,116,23264,6,0,P|85:105|142:79,1,112,2|2,3:2|3:2,0:0:0:0:
172,54,23799,1,2,0:0:0:0:
222,153,24156,1,2,0:0:0:0:
330,114,24514,1,2,0:0:0:0:
330,114,24692,1,0,3:2:0:0:
427,173,25060,6,0,P|419:200|411:242,1,56,0|0,3:0|0:0,0:0:0:0:
373,266,25423,1,2,3:2:0:0:
373,266,25603,2,0,P|381:293|386:335,2,56,8|8|8,1:2|1:2|1:2,0:0:0:0:
300,240,26117,6,0,L|135:276,1,140,4|8,1:0|0:0,0:0:0:0:
101,316,26672,1,2,0:0:0:0:
47,222,26857,2,0,B|61:184|61:184|161:160,1,140,2|8,1:2|0:0,0:0:0:0:
232,143,27413,1,2,0:0:0:0:
211,36,27598,6,0,B|282:19|272:66|357:38,1,140,2|8,1:2|0:0,0:0:0:0:
415,81,28144,1,2,0:0:0:0:
350,168,28326,2,0,P|380:198|390:232,1,70,2|0,1:2|0:0,0:0:0:0:
441,298,28681,2,0,P|410:328|372:338,1,70,8|2,0:0|0:0,0:0:0:0:
287,291,29049,6,0,P|303:222|314:153,1,140,2|8,1:2|0:0,0:0:0:0:
331,78,29601,1,2,0:0:0:0:
224,58,29785,2,0,B|195:18|195:18|152:32|101:39,1,140,2|8,1:2|0:0,0:0:0:0:
52,93,30317,1,2,0:0:0:0:
100,190,30495,6,0,B|159:209|159:209|167:223|167:223|230:243,1,140,2|8,1:2|0:0,0:0:0:0:
287,291,31040,1,2,0:0:0:0:
368,218,31206,2,0,P|421:235|447:249,1,70,2|0,1:2|0:0,0:0:0:0:
462,155,31574,2,0,P|409:138|383:126,1,70,8|2,0:0|0:0,0:0:0:0:
324,48,31930,6,0,P|257:35|208:84,1,134.703333333333,2|8,1:2|0:0,0:0:0:0:
228,157,32459,1,2,0:0:0:0:
329,197,32642,2,0,P|394:171|471:153,1,140,2|8,1:2|0:0,0:0:0:0:
507,216,33191,1,2,0:0:0:0:
449,308,33374,6,0,B|430:278|430:278|361:268|361:268|335:293,1,140,2|8,1:2|0:0,0:0:0:0:
290,356,33919,1,2,0:0:0:0:
197,299,34101,2,0,B|171:275|171:275|137:283,1,70,2|0,1:2|0:0,0:0:0:0:
122,359,34464,2,0,B|148:383|148:383|181:374,1,70,8|2,0:0|0:0,0:0:0:0:
290,356,34828,6,0,L|260:232,1,105,2|0,1:2|0:0,0:0:0:0:
257,219,35189,1,8,0:0:0:0:
296,118,35370,2,0,L|224:97,1,70,2|0,0:0|1:0,0:0:0:0:
162,35,35731,2,0,L|94:54,1,70,2|8,0:0|0:0,0:0:0:0:
50,134,36093,1,2,0:0:0:0:
138,204,36273,2,0,B|220:191|170:150|253:135,1,140,2|8,1:2|0:0,0:0:0:0:
334,196,36815,5,0,3:0:0:0:
334,196,36906,1,8,3:0:0:0:
334,196,36996,1,4,1:3:0:0:
424,142,37177,1,4,1:3:0:0:
447,267,37357,5,8,1:3:0:0:
357,213,37533,1,8,1:3:0:0:
294,312,37709,6,0,P|247:296|191:277,1,84,4|0,1:0|0:0,0:0:0:0:
189,273,38081,1,2,0:0:0:0:
131,334,38274,1,0,1:0:0:0:
131,334,38468,2,0,P|102:301|127:220,1,112,10|2,0:0|0:0,0:0:0:0:
227,176,38978,5,0,1:0:0:0:
227,176,39156,2,0,L|169:190,1,56,2|8,1:2|0:0,0:0:0:0:
104,139,39522,1,2,0:0:0:0:
170,72,39697,1,0,1:0:0:0:
170,72,39872,2,0,P|218:82|292:100,1,112,10|2,0:0|0:0,0:0:0:0:
367,226,40441,5,0,0:0:0:0:
367,226,40616,2,0,B|350:200|350:200|366:135,1,84,2|0,1:2|0:0,0:0:0:0:
371,121,40977,1,2,0:0:0:0:
444,55,41158,2,0,L|375:44,1,56,0|10,1:0|0:0,0:0:0:0:
318,0,41519,2,0,L|254:13,1,56,0|2,0:0|0:0,0:0:0:0:
292,89,41881,6,0,L|280:152,1,56,0|2,1:0|1:2,0:0:0:0:
211,191,42237,2,0,L|221:250,1,56,8|2,0:0|0:0,0:0:0:0:
295,284,42598,2,0,L|285:345,1,56,0|10,1:0|0:0,0:0:0:0:
202,357,42964,1,0,0:0:0:0:
202,357,43145,2,0,L|130:345,1,70,2|0,0:0|0:0,0:0:0:0:
30,256,43507,6,0,P|74:237|119:228,1,84,4|0,1:0|0:0,0:0:0:0:
137,229,43872,1,2,0:0:0:0:
110,149,44055,1,0,1:0:0:0:
110,149,44238,2,0,B|162:127|162:127|219:173,1,112.306133333333,10|2,0:0|0:0,0:0:0:0:
254,288,44782,5,0,1:0:0:0:
254,288,44961,2,0,L|265:226,1,56,2|8,1:2|0:0,0:0:0:0:
302,152,45318,1,2,0:0:0:0:
372,248,45506,1,0,1:0:0:0:
372,248,45695,2,0,L|388:364,1,112,10|0,0:0|1:0,0:0:0:0:
432,376,46120,1,0,3:0:0:0:
432,376,46204,2,0,L|467:369,1,28,0|0,1:0|3:0,0:0:0:0:
489,341,46387,6,0,B|479:278|479:278|473:271|473:271|461:198,1,140,4|8,1:0|0:0,0:0:0:0:
507,113,46935,2,0,P|456:85|425:93,1,70,4|0,1:0|0:0,0:0:0:0:
387,147,47292,1,8,0:0:0:0:
387,147,47381,1,8,0:0:0:0:
387,147,47470,1,0,1:0:0:0:
339,37,47649,6,0,P|287:47|199:65,1,140,4|0,1:0|1:0,0:0:0:0:
172,79,48097,1,0,1:0:0:0:
172,79,48185,1,8,1:3:0:0:
251,147,48360,1,4,1:3:0:0:
171,239,48536,1,14,1:2:0:0:
171,239,48711,1,14,1:2:0:0:
33,89,49097,5,2,0:1:0:0:
33,89,49289,2,0,P|79:57|132:82,1,105,6|0,1:0|0:0,0:0:0:0:
165,108,49652,1,10,0:0:0:0:
97,190,49819,2,0,P|85:228|78:279,1,70,2|2,0:1|1:2,0:0:0:0:
185,285,50182,2,0,P|197:323|204:374,1,70.0466690165203,2|10,1:1|0:0,0:0:0:0:
334,347,50557,6,0,P|312:289|297:215,1,105,6|0,1:0|0:0,0:0:0:0:
312,190,50918,2,0,P|348:204|385:195,1,70,2|10,1:1|0:0,0:0:0:0:
440,102,51277,2,0,P|433:64|407:37,1,70,2|2,0:1|1:2,0:0:0:0:
298,35,51640,2,0,P|271:62|265:99,1,70,2|10,1:1|0:0,0:0:0:0:
349,163,52004,1,2,0:1:0:0:
244,242,52186,6,0,B|194:236|194:236|181:223|181:223|132:217,1,105,6|0,1:0|0:0,0:0:0:0:
93,236,52526,1,10,0:0:0:0:
52,136,52698,2,0,B|42:98|42:98|59:64,1,70,2|2,0:1|1:2,0:0:0:0:
166,75,53085,2,0,B|174:111|174:111|158:151,1,70,2|10,1:1|1:2,0:0:0:0:
89,256,53429,5,6,1:0:0:0:
173,310,53601,1,2,0:1:0:0:
244,242,53781,1,2,1:1:0:0:
328,296,53962,1,10,0:0:0:0:
384,177,54133,6,0,B|361:140|361:140|234:158,1,140,6|0,1:0|1:0,0:0:0:0:
254,56,54696,2,0,L|337:45,1,70,10|2,0:0|0:1,0:0:0:0:
456,7,55053,6,0,B|429:33|429:33|448:118,1,105,6|0,1:0|0:0,0:0:0:0:
477,142,55421,1,10,0:0:0:0:
443,244,55597,2,0,P|413:266|375:267,1,70,2|2,0:1|1:2,0:0:0:0:
377,375,55950,2,0,P|339:374|308:351,1,70,2|10,1:1|0:0,0:0:0:0:
215,257,56309,6,0,B|234:144,1,105,6|0,1:1|0:0,0:0:0:0:
242,96,56668,2,0,L|167:113,1,70,2|10,1:0|0:0,0:0:0:0:
59,101,57027,2,0,L|77:178,1,70,2|2,0:1|1:2,0:0:0:0:
65,283,57386,2,0,L|139:265,1,70,2|10,1:1|0:0,0:0:0:0:
225,203,57749,1,2,0:1:0:0:
297,296,57931,6,0,P|310:241|316:171,1,105,6|8,1:1|1:3,0:0:0:0:
344,160,58300,1,4,1:3:0:0:
284,91,58484,2,0,P|311:70|345:70,1,70,6|0,1:0|0:0,0:0:0:0:
404,0,58854,2,0,P|438:0|468:22,1,70,8|8,1:3|1:3,0:0:0:0:
480,124,59220,6,0,P|459:191|443:283,2,140,6|8|4,1:0|1:3|1:3,0:0:0:0:
465,21,60124,2,0,P|435:26|403:35,3,35,8|8|8|8,1:3|1:3|1:3|1:3,0:0:0:0:
385,54,60490,2,0,P|367:50|350:47,1,35,4|4,1:3|1:3,0:0:0:0:
299,20,60673,1,4,1:3:0:0:
299,20,60761,1,4,1:3:0:0:
299,20,60850,6,0,L|156:43,1,120.75,6|0,1:0|0:0,0:0:0:0:
143,15,61211,1,10,0:0:0:0:
102,113,61392,1,2,0:1:0:0:
102,113,61572,1,10,0:0:0:0:
182,188,61754,1,2,1:0:0:0:
182,188,61937,1,10,0:0:0:0:
278,107,62120,6,0,L|366:89,1,80.9400682020824,6|10,1:0|0:0,0:0:0:0:
298,186,62478,2,0,L|376:169,1,80.5,2|10,1:0|0:0,0:0:0:0:
442,260,62829,2,0,L|359:281,1,80.5,2|10,0:1|0:0,0:0:0:0:
459,339,63192,2,0,L|381:357,1,80.9427515354157,2|10,1:0|0:0,0:0:0:0:
261,374,63552,5,2,1:0:0:0:
261,374,63740,2,0,P|222:332|234:271,1,120.75,6|0,1:0|0:0,0:0:0:0:
248,246,64112,1,10,0:0:0:0:
153,213,64299,1,2,0:1:0:0:
153,213,64485,1,10,0:0:0:0:
119,314,64654,1,2,1:0:0:0:
119,314,64834,1,10,0:0:0:0:
48,216,65005,5,6,1:0:0:0:
48,216,65180,2,0,B|41:177|41:177|68:146,1,80.5000015354157,10|2,0:0|0:1,0:0:0:0:
71,44,65536,2,0,B|111:36|111:36|141:64,1,80.5,10|6,0:0|1:0,0:0:0:0:
214,160,65902,2,0,B|260:146|260:146|314:180|281:249,1,161,10|10,0:0|0:0,0:0:0:0:
240,340,66464,5,2,1:0:0:0:
240,340,66624,2,0,B|300:324|285:360|358:345,1,120.75,6|0,1:0|0:0,0:0:0:0:
385,339,66989,1,10,0:0:0:0:
370,239,67177,1,2,0:1:0:0:
370,239,67366,1,10,0:0:0:0:
457,180,67542,1,2,1:0:0:0:
457,180,67722,1,10,0:0:0:0:
424,58,67903,6,0,P|385:72|336:80,1,80.5000015354157,6|10,1:0|0:0,0:0:0:0:
310,172,68268,2,0,P|275:164|232:147,1,80.929334868749,2|10,0:1|0:0,0:0:0:0:
227,47,68634,2,0,P|188:32|137:24,1,80.9508015354157,2|10,0:1|0:0,0:0:0:0:
95,110,68986,2,0,P|60:117|17:135,1,80.5000015354157,2|10,1:0|0:0,0:0:0:0:
99,235,69338,5,2,0:1:0:0:
99,235,69518,2,0,P|156:235|178:317,1,140,6|8,1:0|0:0,0:0:0:0:
272,357,70057,2,0,P|315:307|380:333,1,140,6|8,1:0|1:3,0:0:0:0:
483,359,70592,5,8,1:3:0:0:
483,359,70782,2,0,B|472:299|472:299|457:285|457:285|446:213,1,140,6|8,1:0|1:3,0:0:0:0:
433,122,71334,1,8,0:0:0:0:
346,175,71518,1,8,2:3:0:0:
346,175,71606,1,8,2:3:0:0:
346,175,71694,2,0,L|340:220,3,35,8|8|8|8,2:0|2:0|2:0|2:0,0:0:0:0:
300,241,72047,2,0,L|304:275,3,35,8|8|8|8,1:2|1:2|1:2|1:2,0:0:0:0:
275,312,72417,6,0,B|205:298|224:352|133:326,1,125.999996154785,4|8,1:0|0:0,0:0:0:0:
84,266,72970,2,0,B|117:231|117:231|96:139,1,126,4|8,1:0|0:0,0:0:0:0:
53,87,73502,2,0,P|79:70|115:75,1,63.0000000000001,4|0,1:0|0:0,0:0:0:0:
187,138,73877,6,0,L|203:192,2,37.3333333333333,8|8|8,2:0|1:3|1:3,0:0:0:0:
218,100,74210,6,0,L|203:46,2,37.3333333333333,4|4|4,1:3|1:3|1:3,0:0:0:0:
264,115,74555,6,0,L|293:225,1,112,8|8,1:3|1:3,0:0:0:0:
299,245,75310,6,0,P|349:261|421:304,1,126,4|8,1:0|0:0,0:0:0:0:
474,226,75855,2,0,P|466:166|535:119,1,126,4|8,1:0|0:0,0:0:0:0:
425,71,76380,6,0,P|337:101|247:116,1,168,4|8,1:0|1:3,0:0:0:0:
140,30,77287,1,8,1:3:0:0:
140,30,77470,2,0,B|169:51|169:51|152:131,1,112,4|8,1:3|1:3,0:0:0:0:
33,270,78222,6,0,B|83:215|190:252|142:346|246:338,1,251.999992309571,4|2,1:0|0:0,0:0:0:0:
257,345,79641,6,0,B|283:261|361:328|411:186|302:142|265:202,1,251.999992309571,2|2,0:0|0:0,0:0:0:0:
268,190,80925,5,2,0:0:0:0:
268,190,81113,2,0,P|233:168|135:153,1,126,2|2,0:0|0:0,0:0:0:0:
76,100,81661,2,0,P|99:75|146:69,1,63.0000000000001,2|0,0:0|0:0,0:0:0:0:
200,18,82036,2,0,P|231:16|258:32,1,63.0000000000001,2|0,0:0|0:0,0:0:0:0:
337,24,82411,6,0,B|387:95|332:180|332:180|290:189|254:158,1,244.999992523194,2|2,0:0|0:0,0:0:0:0:
214,97,83631,1,2,0:0:0:0:
151,232,83990,1,2,0:0:0:0:
256,192,84080,12,0,89919,0:0:0:0:
