osu file format v14

[General]
AudioFilename: audio.mp3
AudioLeadIn: 0
PreviewTime: 49097
Countdown: 0
SampleSet: Soft
StackLeniency: 0.7
Mode: 0
LetterboxInBreaks: 0
WidescreenStoryboard: 1

[Editor]
DistanceSpacing: 1.44
BeatDivisor: 4
GridSize: 4
TimelineZoom: 4.799997

[Metadata]
Title:Destin Histoire (TV Size)
TitleUnicode:Destin Histoire (TV Size)
Artist:yoshiki*lisa
ArtistUnicode:yoshiki*lisa
Creator:Froskya
Version:Feelings Left Behind
Source:GOSICK
Tags:吉木りさ -ゴシック- japanese anime pop jpop j-pop opening op story of fate gothic yoshiki risa lisa original soundtrack ost destiny history female vocals vocalist Victorique de Blois ヴィクトリカ・ド・ブロワ ヴィクトリカ ド ブロワ revialink kxlman original3s fackel theoneforce 1force
BeatmapID:3500441
BeatmapSetID:1713118

[Difficulty]
HPDrainRate:6
CircleSize:4.5
OverallDifficulty:8
ApproachRate:9.4
SliderMultiplier:2
SliderTickRate:1

[Events]
//Background and Video events
0,0,"uwu.jpg",0,0
Video,-425,"celeste vibes.mp4"
//Break Periods
//Storyboard Layer 0 (Background)
//Storyboard Layer 1 (Fail)
//Storyboard Layer 2 (Pass)
//Storyboard Layer 3 (Foreground)
//Storyboard Layer 4 (Overlay)
//Storyboard Sound Samples

[TimingPoints]
137,361.44578313253,4,2,1,40,1,0
1582,-100,4,2,1,50,0,0
3028,-100,4,2,1,60,0,0
5197,-100,4,2,2,70,0,0
5920,355.029585798817,4,2,1,75,1,0
7162,375,4,2,1,75,1,0
7706,361.44578313253,4,2,1,75,1,0
8067,419.58041958042,4,2,1,75,1,0
8276,340.909090909091,4,2,1,75,1,0
8446,379.746835443038,4,2,1,75,1,0
8809,355.029585798817,4,2,1,75,1,0
10051,365.853658536585,4,2,1,75,1,0
10782,361.44578313253,4,2,1,75,1,0
11307,361.44578313253,4,2,1,75,1,0
11668,372.670807453416,4,2,1,75,1,0
12227,-125,4,2,1,75,0,0
12599,359.281437125748,4,2,1,80,1,0
12778,365.853658536585,4,2,1,80,1,0
12778,-166.666666666667,4,2,1,80,0,0
13875,370.37037037037,4,2,1,80,1,0
14605,355.029585798817,4,2,3,50,1,0
14605,-142.857142857143,4,2,3,50,0,0
15315,361.44578313253,4,2,3,40,1,0
15315,-142.857142857143,4,2,3,40,0,0
16037,357.142857142857,4,2,3,50,1,0
16037,-142.857142857143,4,2,3,50,0,0
16747,361.44578313253,4,2,3,50,1,0
16747,-142.857142857143,4,2,3,50,0,0
17463,375,4,2,3,50,1,0
17463,-142.857142857143,4,2,3,50,0,0
18213,357.142857142857,4,2,3,50,1,0
18213,-142.857142857143,4,2,3,50,0,0
18570,354.50516986706,4,2,3,50,1,0
18924,361.44578313253,4,2,3,50,1,0
18924,-142.857142857143,4,2,3,50,0,0
19646,350.877192982456,4,2,3,50,1,0
19646,-142.857142857143,4,2,3,50,0,0
19996,373.250388802488,4,2,3,50,1,0
20369,363.636363636364,4,2,3,50,1,0
20369,-142.857142857143,4,2,3,50,0,0
21823,357.142857142857,4,2,3,50,1,0
21823,-142.857142857143,4,2,3,50,0,0
22537,363.636363636364,4,2,3,40,1,0
22537,-142.857142857143,4,2,3,40,0,0
23264,357.142857142857,4,2,3,50,1,0
23264,-142.857142857143,4,2,3,50,0,0
24692,368.098159509202,4,2,3,60,1,0
24692,-142.857142857143,4,2,3,60,0,0
25244,359.281437125748,4,2,2,60,1,0
25423,-100,4,2,2,60,0,0
25603,342.857142857143,4,2,1,70,1,0
26117,370.37037037037,4,2,1,75,1,0
27598,365.853658536585,4,2,1,75,1,0
27963,363.636363636363,4,2,1,75,1,0
28681,368.098159509202,4,2,1,75,1,0
29785,355.029585798817,4,2,1,75,1,0
30495,363.636363636364,4,2,1,75,1,0
31206,368.098159509202,4,2,1,75,1,0
31930,361.44578313253,4,2,1,75,1,0
32277,365.853658536585,4,2,1,75,1,0
33374,363.636363636364,4,2,1,75,1,0
34828,361.44578313253,4,2,1,75,1,0
37357,352.941176470588,4,2,1,75,1,0
37709,372.670807453416,4,2,2,70,1,0
37709,-125,4,2,2,70,0,0
38081,387.096774193548,4,2,2,70,1,0
38468,355.029585798816,4,2,2,70,1,0
38468,-125,4,2,2,70,0,0
38978,355.029585798816,4,2,2,70,1,0
39156,379.746835443038,4,2,2,70,1,0
39156,-125,4,2,2,70,0,0
39522,350.877192982456,4,2,2,70,1,0
39872,379.746835443038,4,2,2,70,1,0
39872,-125,4,2,2,70,0,0
40616,361.44578313253,4,2,2,70,1,0
40616,-125,4,2,2,70,0,0
42061,352.941176470588,4,2,2,70,1,0
42061,-125,4,2,2,70,0,0
42413,370.37037037037,4,2,2,70,1,0
42413,-125,4,2,2,70,0,0
42783,362.187613183629,4,2,2,70,1,0
42783,-125,4,2,2,70,0,0
43507,365.853658536585,4,2,2,70,1,0
43507,-125,4,2,2,70,0,0
44604,357.142857142857,4,2,2,70,1,0
44604,-125,4,2,2,70,0,0
45318,377.358490566038,4,2,2,70,1,0
45695,342.857142857143,4,2,2,70,1,0
45695,-125,4,2,2,70,0,0
46037,335.195530726257,4,2,2,70,1,0
46387,379.746835443038,4,2,2,75,1,0
46387,-66.6666666666667,4,2,2,75,0,0
46766,338.983050847457,4,2,2,75,1,0
46935,357.142857142857,4,2,2,75,1,0
46935,-80,4,2,2,75,0,0
47649,361.44578313253,4,2,2,75,1,0
47649,-66.6666666666667,4,2,2,75,0,0
48010,350.877192982456,4,2,2,75,1,0
48536,-100,4,2,2,75,0,0
49097,384.615384615384,4,2,2,75,1,0
49289,363.636363636364,4,2,2,85,1,1
49289,-71.4285714285714,4,2,2,85,0,1
49652,335.195530726257,4,2,2,85,1,1
49819,387.096774193548,4,2,2,85,1,1
49819,-80,4,2,2,85,0,1
50182,402.684563758389,4,2,2,85,1,1
50182,-80,4,2,2,85,0,1
50383,348.837209302325,4,2,2,85,1,1
50557,361.44578313253,4,2,2,85,1,1
50557,-71.4285714285714,4,2,2,85,0,1
50918,359.281437125748,4,2,2,80,1,1
50918,-80,4,2,2,80,0,1
51277,363.636363636364,4,2,2,80,1,1
51277,-80,4,2,2,80,0,1
52186,340.909090909091,4,2,2,85,1,1
52186,-71.4285714285714,4,2,2,85,0,1
52698,387.096774193548,4,2,2,85,1,1
52698,-80,4,2,2,85,0,1
53085,344.827586206896,4,2,2,85,1,1
53085,-80,4,2,2,85,0,1
53429,344.827586206897,4,2,2,80,1,1
53429,-71.4285714285714,4,2,2,80,0,1
53601,361.44578313253,4,2,2,85,1,1
53601,-71.4285714285714,4,2,2,85,0,1
53962,342.857142857143,4,2,2,85,1,1
53962,-71.4285714285714,4,2,2,85,0,1
54133,385.232744783307,4,2,2,85,1,1
54133,-57.1428571428571,4,2,2,85,0,1
54518,357.142857142857,4,2,2,85,1,1
55053,368.098159509202,4,2,2,85,1,1
55053,-71.4285714285714,4,2,2,85,0,1
55421,352.941176470588,4,2,2,85,1,1
55597,-80,4,2,2,85,0,1
55950,363.636363636364,4,2,2,85,1,1
55950,-80,4,2,2,85,0,1
56309,359.281437125748,4,2,2,85,1,1
56309,-71.4285714285714,4,2,2,85,0,1
56668,-80,4,2,2,85,0,1
57386,363.636363636364,4,2,2,85,1,1
57386,-80,4,2,2,85,0,1
57931,369.230769230769,4,2,2,80,1,1
57931,-66.6666666666667,4,2,2,80,0,0
58854,365.853658536585,4,2,2,80,1,0
59220,361.44578313253,4,2,2,80,1,0
59220,-80,4,2,2,80,0,0
59942,365.853658536585,4,2,2,80,1,0
60673,355.029585798817,4,2,2,80,1,0
60850,361.44578313253,4,2,2,85,1,1
60850,-57.1428571428571,4,2,2,85,0,1
61572,365.853658536585,4,2,2,85,1,1
61572,-57.1428571428571,4,2,2,85,0,1
62303,350.877192982456,4,2,2,85,1,1
62303,-57.1428571428571,4,2,2,85,0,1
62829,363.636363636364,4,2,2,85,1,1
62829,-57.1428571428571,4,2,2,85,0,1
63374,357.142857142857,4,2,2,85,1,1
63740,372.670807453416,4,2,2,85,1,1
63740,-57.1428571428571,4,2,2,85,0,1
64485,338.983050847457,4,2,2,85,1,1
64654,361.44578313253,4,2,2,85,1,1
64654,-57.1428571428571,4,2,2,85,0,1
65005,350.877192982456,4,2,2,85,1,1
65005,-57.1428571428571,4,2,2,85,0,1
65355,363.636363636364,4,2,2,85,1,1
65355,-57.1428571428571,4,2,2,85,0,1
65902,375,4,2,2,85,1,1
65902,-57.1428571428571,4,2,2,85,0,1
66464,320.855614973262,4,2,2,85,1,1
66624,365.853658536585,4,2,2,85,1,1
66624,-57.1428571428571,4,2,2,85,0,1
66989,377.358490566038,4,2,2,85,1,1
66989,-57.1428571428571,4,2,2,85,0,1
67542,361.44578313253,4,2,2,85,1,1
67542,-57.1428571428571,4,2,2,85,0,1
67903,357.142857142857,4,2,2,85,1,1
67903,-57.1428571428571,4,2,2,85,0,1
68081,375,4,2,2,85,1,1
68268,-57.1428571428571,4,2,2,85,0,1
68456,357.142857142857,4,2,2,85,1,1
68456,-57.1428571428571,4,2,2,85,0,1
68813,346.820809248555,4,2,2,85,1,1
68813,-57.1428571428571,4,2,2,85,0,1
69159,359.281437125748,4,2,2,85,1,1
69518,-66.6666666666667,4,2,2,80,0,1
70057,346.820809248555,4,2,2,80,1,1
70057,-80,4,2,2,80,0,1
70403,379.746835443038,4,2,2,80,1,1
70782,368.098159509202,4,2,2,80,1,1
70782,-66.6666666666667,4,2,2,80,0,1
71518,352.941176470588,4,2,2,85,1,1
72417,384.615384615385,4,2,2,80,1,0
72417,-66.6666666666667,4,2,2,80,0,0
72801,338.983050847457,4,2,2,80,1,0
72970,363.636363636364,4,2,2,80,1,0
72970,-80,4,2,2,80,0,0
73502,375,4,2,2,80,1,0
73877,333.333333333333,4,2,2,70,1,0
74432,370.370370370371,4,2,2,70,1,0
75310,363.636363636364,4,2,2,80,1,0
75310,-66.6666666666667,4,2,2,80,0,0
75855,-80,4,2,2,80,0,0
76380,361.44578313253,4,2,2,80,1,0
76922,365.853658536585,4,2,2,70,1,0
76922,-100,4,2,2,70,0,0
77470,382.165605095541,4,2,2,70,1,0
77852,370.37037037037,4,2,2,70,1,0
78222,352.941176470588,4,2,1,60,1,0
78927,357.142857142857,4,2,2,60,1,0
78927,-166.666666666667,4,2,2,60,0,0
79462,-166.666666666667,4,2,1,60,0,0
79641,361.44578313253,4,2,2,60,1,0
80002,-100,4,2,1,60,0,0
80363,375,4,2,2,60,1,0
80363,-166.666666666667,4,2,2,60,0,0
80925,-166.666666666667,4,2,1,60,0,0
81113,365.853658536585,4,2,2,60,1,0
81478,-100,4,2,1,60,0,0
81661,375,4,2,1,60,1,0
81661,-133.333333333333,4,2,1,60,0,0
82036,-200,4,2,1,60,0,0
82411,416.666666666667,4,2,1,60,1,0
82411,-500,4,2,1,60,0,0
83452,359.281437125748,4,2,1,60,1,0
89919,-500,4,2,1,5,0,0

[Colours]
Combo1 : 182,129,254
Combo2 : 128,255,128
Combo3 : 255,255,128
Combo4 : 128,255,255

[HitObjects]
164,216,137,5,2,0:0:0:0:
216,156,317,1,2,0:0:0:0:
296,156,498,1,2,0:0:0:0:
348,216,679,1,2,0:0:0:0:
296,156,1040,1,2,0:0:0:0:
216,156,1402,1,2,0:0:0:0:
110,253,1582,5,2,0:0:0:0:
184,128,1763,1,2,0:0:0:0:
328,128,1944,1,2,0:0:0:0:
402,253,2124,1,2,0:0:0:0:
328,128,2486,1,2,0:0:0:0:
184,128,2847,1,2,0:0:0:0:
56,290,3028,5,2,0:0:0:0:
160,104,3209,1,2,0:0:0:0:
352,104,3390,1,2,0:0:0:0:
456,290,3570,1,2,0:0:0:0:
352,104,3932,1,2,0:0:0:0:
160,104,4293,1,2,0:0:0:0:
256,380,4474,5,2,0:0:0:0:
256,300,4655,1,2,0:0:0:0:
256,192,4835,1,2,0:0:0:0:
256,4,5016,1,2,0:0:0:0:
68,162,5197,5,14,1:2:0:0:
444,162,5377,1,14,1:2:0:0:
444,162,5920,6,0,P|427:224|400:348,1,150,4|0,1:0|0:0,0:0:0:0:
375,301,6275,2,0,P|391:227|411:155,1,150,10|0,0:0|0:0,0:0:0:0:
453,79,6630,1,2,1:2:0:0:
324,132,6807,1,0,1:0:0:0:
257,8,6985,1,10,0:0:0:0:
182,207,7162,6,0,P|252:180|325:167,1,150,4|0,1:0|0:0,0:0:0:0:
411,155,7537,1,0,1:0:0:0:
257,8,7706,2,0,P|207:25|188:78,1,100,10|0,0:0|0:0,0:0:0:0:
165,283,8067,1,2,1:2:0:0:
71,178,8276,1,0,1:0:0:0:
264,85,8446,2,0,P|249:144|241:191,1,100,10|0,0:0|0:0,0:0:0:0:
71,315,8809,6,0,P|26:256|38:184,1,150,4|0,1:0|0:0,0:0:0:0:
71,178,9164,2,0,P|59:250|103:308,1,150,10|0,0:0|0:0,0:0:0:0:
177,350,9519,1,2,1:2:0:0:
236,222,9696,1,0,1:0:0:0:
339,316,9874,1,10,0:0:0:0:
339,95,10051,6,0,B|254:115|313:166|200:198,1,150,4|0,1:0|0:0,0:0:0:0:
144,205,10416,1,2,1:2:0:0:
194,75,10599,1,8,1:2:0:0:
356,177,10782,6,0,P|339:240|326:329,1,150,4|0,1:0|0:0,0:0:0:0:
253,367,11143,1,2,1:2:0:0:
144,205,11307,2,0,P|192:168|192:228,1,150,8|0,0:0|0:0,0:0:0:0:
55,332,11668,6,0,B|69:246|69:246|59:215|59:215|75:123,1,200,4|8,1:0|0:0,0:0:0:0:
264,65,12227,6,0,B|157:55|157:55|192:64|196:85,1,160,4|8,1:0|0:0,0:0:0:0:
136,282,12688,1,8,0:0:0:0:
136,282,12778,6,0,P|210:255|319:239,1,179.999994506836,4|8,1:0|1:3,0:0:0:0:
406,255,13418,1,8,1:3:0:0:
406,255,13509,2,0,P|390:221|405:189,1,59.9999981689454,4|8,1:3|1:3,0:0:0:0:
482,83,13784,1,4,1:3:0:0:
482,83,13875,5,14,1:2:0:0:
348,324,14060,1,14,1:2:0:0:
348,324,14605,6,0,P|301:277|234:286,1,140,2|0,3:2|3:0,0:0:0:0:
144,353,15137,1,2,0:0:0:0:
144,353,15315,2,0,P|130:284|114:215,1,139.999995727539,2|0,3:2|3:0,0:0:0:0:
42,101,15857,1,2,0:0:0:0:
42,101,16037,6,0,B|95:88|95:88|113:65|113:65|181:49,1,139.999995727539,2|0,3:2|3:0,0:0:0:0:
290,15,16572,1,2,0:0:0:0:
290,15,16747,2,0,B|258:45|258:45|278:148,1,139.999995727539,2|0,3:2|3:0,0:0:0:0:
380,266,17289,1,2,0:0:0:0:
380,266,17463,6,0,B|395:301|390:335|390:335|397:301|421:273,1,139.999995727539,2|0,3:2|3:0,0:0:0:0:
487,145,18025,1,2,0:0:0:0:
487,145,18213,2,0,B|435:97|435:97|371:121,1,139.999995727539,2|0,3:2|3:0,0:0:0:0:
264,268,18747,1,2,0:0:0:0:
264,268,18924,6,0,P|218:212|241:142,1,139.999995727539,2|0,3:2|3:0,0:0:0:0:
338,62,19466,1,2,0:0:0:0:
338,62,19646,2,0,P|299:192|296:204,1,139.999995727539,2|0,3:2|3:0,0:0:0:0:
243,351,20182,1,2,0:0:0:0:
243,351,20369,6,0,P|308:317|383:309,1,139.999995727539,2|0,3:2|3:0,0:0:0:0:
298,196,20914,1,2,0:0:0:0:
298,196,21096,2,0,B|219:168|263:133|191:109,1,139.999995727539,2|0,3:2|3:0,0:0:0:0:
57,206,21641,5,2,0:0:0:0:
57,206,21823,2,0,P|119:229|170:185,1,139.999995727539,2|0,3:2|3:0,0:0:0:0:
147,40,22358,1,2,0:0:0:0:
147,40,22537,2,0,B|209:27|209:27|260:17|277:68,1,139.999995727539,2|0,3:2|3:0,0:0:0:0:
311,223,23082,1,2,0:0:0:0:
311,223,23264,6,0,P|354:205|417:193,1,104.999996795654,2|0,3:2|0:0,0:0:0:0:
445,190,23621,1,2,3:2:0:0:
352,58,23799,2,0,P|342:97|326:138,1,69.9999978637696,2|0,0:0|3:2,0:0:0:0:
477,77,24156,2,0,P|463:44|456:11,1,69.9999978637696,2|0,0:0|3:0,0:0:0:0:
319,68,24514,1,2,0:0:0:0:
319,68,24692,6,0,P|309:107|291:146,1,69.9999978637696,0|0,3:2|0:0,0:0:0:0:
171,232,25060,1,0,3:0:0:0:
201,131,25244,1,0,0:0:0:0:
323,274,25423,1,2,3:2:0:0:
323,274,25603,5,8,1:2:0:0:
286,98,25774,1,8,1:2:0:0:
110,136,25945,1,8,1:2:0:0:
147,312,26117,6,0,P|216:320|300:354,1,150,4|0,1:0|0:0,0:0:0:0:
354,307,26487,1,8,0:0:0:0:
263,170,26672,1,2,0:0:0:0:
262,169,26857,2,0,P|282:215|292:264,1,100,2|0,1:2|0:0,0:0:0:0:
419,180,27228,1,8,0:0:0:0:
279,73,27413,1,2,0:0:0:0:
279,73,27598,6,0,P|239:132|166:129,1,150,2|0,1:2|0:0,0:0:0:0:
205,65,27963,1,8,0:0:0:0:
307,205,28144,1,2,0:0:0:0:
307,205,28326,2,0,P|258:206|214:247,1,100,2|0,1:2|0:0,0:0:0:0:
145,371,28681,1,8,0:0:0:0:
51,214,28865,1,2,0:0:0:0:
51,214,29049,6,0,B|131:196|69:149|184:125,1,150,2|0,1:2|0:0,0:0:0:0:
243,131,29417,1,8,0:0:0:0:
211,300,29601,1,2,0:0:0:0:
211,300,29785,2,0,P|191:254|181:201,1,100,2|0,1:2|0:0,0:0:0:0:
316,138,30140,1,8,0:0:0:0:
420,295,30317,1,2,0:0:0:0:
420,295,30495,6,0,B|351:306|351:306|345:320|345:320|255:337,1,150,2|0,1:2|0:0,0:0:0:0:
223,383,30858,1,8,0:0:0:0:
286,226,31040,1,2,0:0:0:0:
286,226,31206,2,0,L|389:208,1,100,2|0,1:2|0:0,0:0:0:0:
311,78,31574,1,8,0:0:0:0:
189,220,31758,1,2,0:0:0:0:
189,220,31930,6,0,B|169:111|169:111|167:137|147:155,1,150,2|0,1:2|0:0,0:0:0:0:
96,104,32277,1,8,0:0:0:0:
250,28,32459,1,2,0:0:0:0:
249,28,32642,2,0,B|203:8|203:8|160:34,1,100,2|0,1:2|0:0,0:0:0:0:
267,139,33008,1,8,0:0:0:0:
109,223,33191,1,2,0:0:0:0:
108,223,33374,6,0,P|178:197|251:179,1,149.090909090909,2|0,1:2|0:0,0:0:0:0:
300,122,33737,1,8,0:0:0:0:
403,270,33919,1,2,0:0:0:0:
403,270,34101,2,0,P|353:268|321:232,1,100,2|0,1:2|0:0,0:0:0:0:
422,121,34464,1,8,0:0:0:0:
251,179,34646,1,2,0:0:0:0:
251,179,34828,6,0,B|220:168|207:121|207:121|216:170|194:193,1,149.096385542168,2|0,1:2|0:0,0:0:0:0:
85,137,35189,1,8,0:0:0:0:
130,307,35370,2,0,L|100:200,1,100,2|0,0:0|1:0,0:0:0:0:
277,82,35731,2,0,L|250:178,1,100,2|8,0:0|0:0,0:0:0:0:
189,356,36093,1,2,0:0:0:0:
131,142,36273,6,0,P|83:136|43:164,1,100,2|0,1:2|0:0,0:0:0:0:
130,307,36635,2,0,P|178:313|218:285,1,100,8|0,0:0|3:0,0:0:0:0:
277,82,36906,1,8,3:0:0:0:
277,82,36996,5,4,1:3:0:0:
435,150,37177,1,4,1:3:0:0:
325,234,37357,1,8,1:3:0:0:
408,308,37533,1,8,1:3:0:0:
351,366,37709,6,0,B|284:361|312:320|223:316,1,120,4|0,1:0|0:0,0:0:0:0:
182,352,38081,1,2,0:0:0:0:
113,260,38274,1,0,1:0:0:0:
113,260,38468,2,0,P|196:264|241:197,1,160,10|2,0:0|0:0,0:0:0:0:
146,117,38978,1,0,1:0:0:0:
146,117,39066,1,0,1:0:0:0:
146,117,39156,6,0,B|150:154|150:154|156:163|156:163|162:207,1,80,2|8,1:2|0:0,0:0:0:0:
271,118,39522,1,2,0:0:0:0:
324,254,39697,1,0,1:0:0:0:
324,254,39872,2,0,B|242:243|242:243|234:237|234:237|168:228,1,160,10|2,0:0|0:0,0:0:0:0:
267,114,40441,1,0,0:0:0:0:
271,118,40616,6,0,B|285:103|284:79|284:79|316:117|283:162,1,120,2|0,1:2|0:0,0:0:0:0:
237,198,40977,1,2,0:0:0:0:
322,296,41158,2,0,P|329:334|309:367,1,80,0|10,1:0|0:0,0:0:0:0:
158,343,41519,2,0,P|147:305|165:270,1,80,0|2,0:0|0:0,0:0:0:0:
291,151,41881,6,0,P|330:147|367:132,1,80.0026666666666,0|2,1:0|1:2,0:0:0:0:
398,278,42237,2,0,P|358:281|316:299,1,80,8|2,0:0|0:0,0:0:0:0:
223,199,42598,2,0,P|237:235|241:276,1,80,0|10,1:0|0:0,0:0:0:0:
352,208,42964,2,0,P|354:168|368:130,2,80,0|2|0,0:0|0:0|0:0,0:0:0:0:
207,362,43507,6,0,P|158:330|165:263,1,120,4|0,1:0|0:0,0:0:0:0:
201,209,43872,1,2,0:0:0:0:
101,150,44055,1,0,1:0:0:0:
101,150,44238,2,0,B|85:129|71:114|71:114|118:53|181:102,1,160,10|2,0:0|0:0,0:0:0:0:
284,172,44782,1,0,1:0:0:0:
284,172,44871,1,0,1:0:0:0:
283,171,44961,6,0,P|251:150|242:112,1,80,2|8,1:2|0:0,0:0:0:0:
359,43,45318,1,2,0:0:0:0:
408,183,45506,1,0,1:0:0:0:
408,183,45695,2,0,P|412:143|425:106,1,80,10|0,0:0|0:0,0:0:0:0:
508,306,46037,1,0,1:0:0:0:
469,298,46120,1,0,3:0:0:0:
429,292,46204,1,0,1:0:0:0:
389,286,46288,1,0,3:0:0:0:
348,278,46387,6,0,B|249:228|188:326|188:326|234:390|299:333,1,300,4|8,1:0|0:0,0:0:0:0:
86,189,46935,6,0,B|113:260|52:261|107:340|107:340|97:288|137:261,1,250,4|8,1:0|0:0,0:0:0:0:
290,119,47381,1,8,0:0:0:0:
290,119,47470,1,0,1:0:0:0:
303,364,47649,6,0,B|366:303|483:329|483:329|433:316|387:277,1,300,4|0,1:0|1:0,0:0:0:0:
360,246,48097,5,0,1:0:0:0:
338,210,48185,1,8,1:3:0:0:
340,168,48273,1,8,1:3:0:0:
369,138,48360,1,4,1:3:0:0:
410,130,48448,1,4,1:3:0:0:
442,150,48536,5,14,1:2:0:0:
175,223,48711,1,14,1:2:0:0:
175,223,49097,5,2,0:1:0:0:
175,223,49289,2,0,B|118:190|52:216|52:216|90:196|115:163,1,209.999993591309,6|0,1:0|0:0,0:0:0:0:
247,42,49652,1,10,0:0:0:0:
281,278,49819,2,0,B|316:256|357:260|357:260|329:252|313:227,1,125,2|2,0:1|1:2,0:0:0:0:
413,66,50182,2,0,B|444:80|444:80|458:144|386:164,1,125,2|10,1:1|0:0,0:0:0:0:
121,52,50557,6,0,B|169:-9|247:42|247:42|209:61|205:93,1,209.999993591309,6|0,1:0|0:0,0:0:0:0:
115,237,50918,2,0,P|136:299|144:357,1,124.251497005988,2|10,1:1|0:0,0:0:0:0:
319,236,51277,2,0,P|328:174|348:115,1,125,2|2,0:1|1:2,0:0:0:0:
349,365,51640,2,0,B|317:358|299:328|299:328|275:348|242:345,1,125,2|10,1:1|0:0,0:0:0:0:
446,235,52004,1,2,0:1:0:0:
205,91,52186,6,0,B|254:28|378:131|202:226,1,209.999993591309,6|0,1:0|0:0,0:0:0:0:
122,311,52526,1,10,0:0:0:0:
46,66,52698,2,0,B|65:79|81:88|81:88|60:128|53:184,1,125,2|2,0:1|1:2,0:0:0:0:
228,280,53085,2,0,B|197:257|164:275|164:275|148:304|121:311,1,125,2|10,1:1|1:2,0:0:0:0:
267,45,53429,6,0,P|296:28|330:30,1,70,6|0,1:0|0:0,0:0:0:0:
224,176,53601,2,0,P|189:178|158:160,1,69.9999978637696,2|0,0:1|0:0,0:0:0:0:
419,68,53781,6,0,P|410:102|395:135,1,69.9999978637696,2|0,1:1|0:0,0:0:0:0:
205,96,53962,2,0,P|191:63|182:29,1,69.9999978637696,10|0,0:0|0:0,0:0:0:0:
309,197,54133,6,0,B|316:283|350:246|357:322|357:322|409:258|334:204,1,262.5,6|0,1:0|0:0,0:0:0:0:
267,45,54518,1,0,1:0:0:0:
192,271,54696,1,10,0:0:0:0:
363,134,54875,1,2,0:1:0:0:
77,61,55053,6,0,B|135:37|172:77|172:77|211:29|266:44,1,210,6|0,1:0|0:0,0:0:0:0:
182,172,55421,1,10,0:0:0:0:
377,22,55597,2,0,B|384:53|419:64|419:64|384:64|369:95,1,125,2|2,0:1|1:2,0:0:0:0:
446,268,55950,2,0,B|450:225|470:188|470:188|447:178|437:164,1,125,2|10,1:1|0:0,0:0:0:0:
193,341,56309,6,0,B|237:340|266:302|244:237|244:237|207:232|181:198,1,210,6|0,1:1|0:0,0:0:0:0:
49,97,56668,2,0,P|81:45|140:34,1,125,2|10,1:0|0:0,0:0:0:0:
303,181,57027,2,0,P|270:129|211:118,1,125,2|2,0:1|1:2,0:0:0:0:
0,255,57386,2,0,B|65:244|36:203|109:196,1,125,2|10,1:1|0:0,0:0:0:0:
277,346,57749,1,2,0:1:0:0:
194,21,57931,6,0,B|175:65|190:105|190:105|278:166|183:270,1,225,6|8,1:1|1:3,0:0:0:0:
391,105,58300,1,4,1:3:0:0:
154,177,58484,6,0,B|214:186|267:197|267:197|281:185|301:173|301:173|330:180|368:186,1,225,6|8,1:0|1:3,0:0:0:0:
187,299,58854,1,8,1:3:0:0:
297,77,59036,1,8,1:3:0:0:
436,315,59220,6,0,B|550:246|531:137|395:120|401:180|395:241|401:247,1,250,6|8,1:0|1:3,0:0:0:0:
404,203,59942,5,4,1:3:0:0:
396,218,60124,5,8,1:3:0:0:
357,239,60216,1,8,1:3:0:0:
313,239,60307,1,8,1:3:0:0:
274,217,60399,1,8,1:3:0:0:
244,185,60490,1,4,1:3:0:0:
205,164,60582,1,4,1:3:0:0:
161,166,60673,1,4,1:3:0:0:
119,177,60761,1,4,1:3:0:0:
51,190,60850,6,0,B|40:119|26:36|26:36|48:102|97:115,1,262.5,6|0,1:0|0:0,0:0:0:0:
113,322,61211,6,0,P|128:284|155:242,1,87.5000000000001,10|0,0:0|0:0,0:0:0:0:
290,43,61392,1,2,0:1:0:0:
401,285,61572,1,10,0:0:0:0:
200,159,61754,6,0,P|240:142|283:134,1,87.500000834465,2|0,1:0|0:0,0:0:0:0:
481,109,61937,1,10,0:0:0:0:
275,299,62120,6,0,B|299:322|286:338|286:338|265:334|283:235,1,87.500000834465,6|0,1:0|0:0,0:0:0:0:
211,52,62303,1,10,0:0:0:0:
459,220,62478,6,0,B|481:245|497:233|497:233|494:211|393:226,1,87.500000834465,2|0,1:0|0:0,0:0:0:0:
168,149,62653,1,10,0:0:0:0:
432,47,62829,6,0,B|427:28|437:3|437:3|421:25|403:28,1,87.500000834465,2|0,0:1|0:0,0:0:0:0:
248,280,63010,1,10,0:0:0:0:
110,93,63192,6,0,B|92:97|66:87|66:87|88:104|91:121,1,87.500000834465,2|0,1:0|0:0,0:0:0:0:
343,277,63374,1,10,0:0:0:0:
211,52,63552,1,2,1:0:0:0:
117,334,63740,6,0,B|88:300|69:276|69:276|152:160|261:288,1,262.500002503395,6|0,1:0|0:0,0:0:0:0:
456,310,64112,6,0,P|426:341|383:346,1,87.500000834465,10|0,0:0|0:0,0:0:0:0:
191,322,64299,1,2,0:1:0:0:
371,100,64485,1,10,0:0:0:0:
315,377,64654,6,0,P|297:321|288:287,1,87.500000834465,2|0,1:0|0:0,0:0:0:0:
224,70,64834,1,10,0:0:0:0:
425,212,65005,6,0,P|382:220|348:195,1,87.500000834465,6|0,1:0|0:0,0:0:0:0:
218,41,65180,2,0,P|256:21|296:33,1,87.500000834465,10|0,0:0|0:0,0:0:0:0:
202,207,65355,2,0,P|173:238|130:242,1,87.500000834465,2|0,0:1|0:0,0:0:0:0:
417,54,65536,6,0,P|412:97|402:141,1,87.500000834465,10|0,0:0|0:0,0:0:0:0:
289,293,65718,2,0,P|280:250|275:207,1,87.500000834465,6|0,1:0|0:0,0:0:0:0:
43,42,65902,6,0,B|150:-13|204:82|196:136|288:127,1,262.500002503395,10|0,0:0|0:0,0:0:0:0:
93,177,66277,5,10,0:0:0:0:
272,45,66464,1,2,1:0:0:0:
390,274,66624,6,0,P|260:255|129:241,1,262.500002503395,6|0,1:0|0:0,0:0:0:0:
21,23,66989,6,0,P|57:45|72:87,1,87.500000834465,10|0,0:0|0:0,0:0:0:0:
25,322,67177,1,2,0:1:0:0:
195,118,67366,1,10,0:0:0:0:
182,377,67542,6,0,P|141:362|119:322,1,87.500000834465,2|0,1:0|0:0,0:0:0:0:
71,86,67722,1,10,0:0:0:0:
198,294,67903,6,0,P|239:281|285:271,1,87.500000834465,6|0,1:0|0:0,0:0:0:0:
512,205,68081,1,10,0:0:0:0:
261,61,68268,6,0,P|252:103|239:146,1,87.5000000000001,2|0,0:1|0:0,0:0:0:0:
182,377,68456,1,10,0:0:0:0:
72,85,68634,6,0,P|53:73|78:82,1,87.500000834465,2|0,0:1|0:0,0:0:0:0:
198,294,68813,1,10,0:0:0:0:
403,143,68986,6,0,P|421:131|398:141,1,87.500000834465,2|0,1:0|0:0,0:0:0:0:
277,352,69159,1,10,0:0:0:0:
180,64,69338,1,2,0:1:0:0:
397,309,69518,6,0,B|425:287|458:289|458:289|410:186|312:244,1,225,6|0,1:0|0:0,0:0:0:0:
264,265,69877,1,8,0:0:0:0:
149,116,70057,6,0,B|172:107|180:64|180:64|176:107|196:121,1,125,6|0,1:0|0:0,0:0:0:0:
154,247,70403,1,8,1:3:0:0:
89,40,70592,1,8,1:3:0:0:
331,129,70782,6,0,B|209:137|278:228|154:247,1,225,6|0,1:0|0:0,0:0:0:0:
339,229,71150,5,8,1:3:0:0:
166,319,71334,1,8,0:0:0:0:
420,382,71518,5,8,2:3:0:0:
420,382,71606,1,8,2:3:0:0:
420,382,71694,1,8,2:0:0:0:
427,338,71782,1,8,2:0:0:0:
434,295,71870,1,8,2:0:0:0:
443,253,71959,1,8,2:0:0:0:
473,243,72047,5,8,1:2:0:0:
465,200,72135,1,8,1:2:0:0:
458,157,72223,1,8,1:2:0:0:
449,115,72312,1,8,1:2:0:0:
411,91,72417,6,0,B|304:127|321:33|217:66|217:66|271:69|294:111,1,300,4|8,1:0|0:0,0:0:0:0:
200,275,72970,6,0,B|159:212|213:152|213:152|202:224|251:252,1,250,4|8,1:0|0:0,0:0:0:0:
414,284,73502,6,0,P|384:245|336:239,1,100,4|0,1:0|0:0,0:0:0:0:
129,353,73877,5,8,2:0:0:0:
100,317,73988,5,8,1:3:0:0:
117,273,74099,5,8,1:3:0:0:
251,252,74210,5,4,1:3:0:0:
280,288,74321,5,4,1:3:0:0:
263,332,74432,5,4,1:3:0:0:
73,184,74555,5,8,1:3:0:0:
110,177,74678,5,0,1:0:0:0:
146,171,74802,5,8,1:3:0:0:
190,286,74925,5,8,1:3:0:0:
153,279,75049,5,0,1:3:0:0:
117,273,75172,5,4,1:3:0:0:
15,92,75310,6,0,B|51:20|151:24|187:88|187:88|129:45|72:76,1,300,4|8,1:0|0:0,0:0:0:0:
28,238,75855,6,0,B|69:284|69:284|192:256|192:256|211:196,1,250,4|8,1:0|0:0,0:0:0:0:
261,39,76380,6,0,B|291:36|305:-5|305:-5|277:126,1,200,4|0,1:0|0:0,0:0:0:0:
242,318,76922,5,8,1:3:0:0:
238,335,77287,5,8,1:3:0:0:
66,279,77470,1,4,1:3:0:0:
69,293,77756,5,8,1:3:0:0:
69,293,77852,1,8,1:3:0:0:
264,205,78037,1,0,1:0:0:0:
97,97,78222,6,0,B|83:40|24:38|-20:80|-10:144|59:169,1,200,4|2,1:0|0:0,0:0:0:0:
164,249,78751,1,2,0:0:0:0:
94,298,78927,6,0,B|126:315|135:341|135:341|129:314|145:284,1,120,2|0,0:0|0:0,0:0:0:0:
206,325,79462,1,2,0:0:0:0:
283,140,79641,6,0,B|266:110|233:107|233:107|313:52|367:137,1,200,2|2,0:0|0:0,0:0:0:0:
446,243,80183,1,2,0:0:0:0:
492,186,80363,6,0,P|438:163|389:193,1,120,2|0,0:0|0:0,0:0:0:0:
360,261,80925,1,2,0:0:0:0:
292,47,81113,6,0,P|314:144|328:245,1,200,2|2,0:0|0:0,0:0:0:0:
184,376,81661,6,0,P|223:363|279:348,1,75.0000028610231,2|0,0:0|0:0,0:0:0:0:
106,261,82036,6,0,P|81:253|38:240,1,50,2|0,0:0|0:0,0:0:0:0:
219,161,82411,6,0,P|266:144|319:127,1,100,2|2,0:0|0:0,0:0:0:0:
394,170,83631,1,2,0:0:0:0:
283,48,83811,5,2,0:0:0:0:
256,40,83901,1,2,0:0:0:0:
229,48,83990,1,2,0:0:0:0:
256,192,84080,12,0,89919,0:0:0:0:
