osu file format v14

[General]
AudioFilename: audio.mp3
AudioLeadIn: 0
PreviewTime: 49097
Countdown: 0
SampleSet: Soft
StackLeniency: 0.4
Mode: 0
LetterboxInBreaks: 0
WidescreenStoryboard: 1

[Editor]
DistanceSpacing: 0.7
BeatDivisor: 4
GridSize: 8
TimelineZoom: 2.5

[Metadata]
Title:Destin Histoire (TV Size)
TitleUnicode:Destin Histoire (TV Size)
Artist:yoshiki*lisa
ArtistUnicode:yoshiki*lisa
Creator:Froskya
Version:FackeL's Insane
Source:GOSICK
Tags:吉木りさ -ゴシック- japanese anime pop jpop j-pop opening op story of fate gothic yoshiki risa lisa original soundtrack ost destiny history female vocals vocalist Victorique de Blois ヴィクトリカ・ド・ブロワ ヴィクトリカ ド ブロワ revialink kxlman original3s fackel theoneforce 1force
BeatmapID:3540028
BeatmapSetID:1713118

[Difficulty]
HPDrainRate:5
CircleSize:4.2
OverallDifficulty:7
ApproachRate:8.5
SliderMultiplier:1.7
SliderTickRate:1

[Events]
//Background and Video events
0,0,"uwu.jpg",0,0
Video,-425,"celeste vibes.mp4"
//Break Periods
2,14260,23621
//Storyboard Layer 0 (Background)
//Storyboard Layer 1 (Fail)
//Storyboard Layer 2 (Pass)
//Storyboard Layer 3 (Foreground)
//Storyboard Layer 4 (Overlay)
//Storyboard Sound Samples

[TimingPoints]
137,361.44578313253,4,2,1,40,1,0
1582,-100,4,2,1,50,0,0
3028,-100,4,2,1,60,0,0
4474,-250,4,2,1,60,0,0
5197,-100,4,2,2,70,0,0
5920,355.029585798817,4,2,1,75,1,0
6275,-100,4,2,1,75,0,0
7162,375,4,2,1,75,1,0
7706,361.44578313253,4,2,1,75,1,0
8067,419.58041958042,4,2,1,75,1,0
8276,340.909090909091,4,2,1,75,1,0
8446,379.746835443038,4,2,1,75,1,0
8809,355.029585798817,4,2,1,75,1,0
10051,365.853658536585,4,2,1,75,1,0
10051,-111.111111111111,4,2,1,75,0,0
10782,361.44578313253,4,2,1,75,1,0
10782,-111.111111111111,4,2,1,75,0,0
11307,361.44578313253,4,2,1,75,1,0
11668,372.670807453416,4,2,1,75,1,0
11668,-133.333333333333,4,2,1,75,0,0
12599,359.281437125748,4,2,1,80,1,0
12778,365.853658536585,4,2,1,80,1,0
12778,-133.333333333333,4,2,1,80,0,0
13875,370.37037037037,4,2,1,80,1,0
14605,355.029585798817,4,2,3,50,1,0
15315,361.44578313253,4,2,3,40,1,0
16037,357.142857142857,4,2,3,50,1,0
16747,361.44578313253,4,2,3,50,1,0
17463,375,4,2,3,50,1,0
18213,357.142857142857,4,2,3,50,1,0
18570,354.50516986706,4,2,3,50,1,0
18924,361.44578313253,4,2,3,50,1,0
19646,350.877192982456,4,2,3,50,1,0
19996,373.250388802488,4,2,3,50,1,0
20369,363.636363636364,4,2,3,50,1,0
21823,357.142857142857,4,2,3,50,1,0
22537,363.636363636364,4,2,3,40,1,0
23264,357.142857142857,4,2,3,50,1,0
24692,368.098159509202,4,2,3,60,1,0
24692,-166.666666666667,4,2,3,60,0,0
25244,359.281437125748,4,2,2,60,1,0
25423,-100,4,2,2,60,0,0
25603,342.857142857143,4,2,1,70,1,0
26117,370.37037037037,4,2,1,75,1,0
26117,-111.111111111111,4,2,1,75,0,0
26672,-111.111111111111,4,2,1,75,0,0
27598,365.853658536585,4,2,1,75,1,0
27598,-111.111111111111,4,2,1,75,0,0
27963,363.636363636363,4,2,1,75,1,0
28326,-111.111111111111,4,2,1,75,0,0
28681,368.098159509202,4,2,1,75,1,0
29049,-111.111111111111,4,2,1,75,0,0
29785,355.029585798817,4,2,1,75,1,0
29785,-111.111111111111,4,2,1,75,0,0
30495,363.636363636364,4,2,1,75,1,0
30495,-111.111111111111,4,2,1,75,0,0
31206,368.098159509202,4,2,1,75,1,0
31206,-111.111111111111,4,2,1,75,0,0
31930,361.44578313253,4,2,1,75,1,0
31930,-102.040816326531,4,2,1,75,0,0
32277,365.853658536585,4,2,1,75,1,0
32642,-111.111111111111,4,2,1,75,0,0
33374,363.636363636364,4,2,1,75,1,0
33374,-111.111111111111,4,2,1,75,0,0
34828,361.44578313253,4,2,1,75,1,0
37357,352.941176470588,4,2,1,75,1,0
37709,372.670807453416,4,2,2,70,1,0
37709,-133.333333333333,4,2,2,70,0,0
38081,387.096774193548,4,2,2,70,1,0
38081,-133.333333333333,4,2,2,70,0,0
38468,355.029585798816,4,2,2,70,1,0
38468,-133.333333333333,4,2,2,70,0,0
38978,355.029585798816,4,2,2,70,1,0
39156,379.746835443038,4,2,2,70,1,0
39156,-133.333333333333,4,2,2,70,0,0
39522,350.877192982456,4,2,2,70,1,0
39522,-133.333333333333,4,2,2,70,0,0
39872,379.746835443038,4,2,2,70,1,0
39872,-133.333333333333,4,2,2,70,0,0
40616,361.44578313253,4,2,2,70,1,0
40616,-133.333333333333,4,2,2,70,0,0
42061,352.941176470588,4,2,2,70,1,0
42061,-133.333333333333,4,2,2,70,0,0
42413,370.37037037037,4,2,2,70,1,0
42783,362.187613183629,4,2,2,70,1,0
43145,-133.333333333333,4,2,2,70,0,0
43507,365.853658536585,4,2,2,70,1,0
43507,-133.333333333333,4,2,2,70,0,0
44604,357.142857142857,4,2,2,70,1,0
44782,-133.333333333333,4,2,2,70,0,0
45318,377.358490566038,4,2,2,70,1,0
45318,-133.333333333333,4,2,2,70,0,0
45695,342.857142857143,4,2,2,70,1,0
46037,335.195530726257,4,2,2,70,1,0
46387,379.746835443038,4,2,2,75,1,0
46387,-111.111111111111,4,2,2,75,0,0
46766,338.983050847457,4,2,2,75,1,0
46935,357.142857142857,4,2,2,75,1,0
47649,361.44578313253,4,2,2,75,1,0
48010,350.877192982456,4,2,2,75,1,0
49097,384.615384615384,4,2,2,75,1,0
49289,363.636363636364,4,2,2,85,1,1
49289,-90.9090909090909,4,2,2,85,0,1
49652,335.195530726257,4,2,2,85,1,1
49819,387.096774193548,4,2,2,85,1,1
49819,-90.9090909090909,4,2,2,85,0,1
50182,402.684563758389,4,2,2,85,1,1
50383,348.837209302325,4,2,2,85,1,1
50557,361.44578313253,4,2,2,85,1,1
50557,-90.9090909090909,4,2,2,85,0,1
50918,359.281437125748,4,2,2,80,1,1
50918,-90.9090909090909,4,2,2,80,0,1
51277,363.636363636364,4,2,2,80,1,1
51277,-90.9090909090909,4,2,2,80,0,1
52186,340.909090909091,4,2,2,85,1,1
52186,-90.9090909090909,4,2,2,85,0,1
52698,387.096774193548,4,2,2,85,1,1
52698,-90.9090909090909,4,2,2,85,0,1
53085,344.827586206896,4,2,2,85,1,1
53429,344.827586206897,4,2,2,80,1,1
53429,-90.0900900900901,4,2,2,80,0,1
53601,361.44578313253,4,2,2,85,1,1
53601,-90.9090909090909,4,2,2,85,0,1
53962,342.857142857143,4,2,2,85,1,1
54133,385.232744783307,4,2,2,85,1,1
54133,-90.9090909090909,4,2,2,85,0,1
54518,357.142857142857,4,2,2,85,1,1
55053,368.098159509202,4,2,2,85,1,1
55053,-90.9090909090909,4,2,2,85,0,1
55421,352.941176470588,4,2,2,85,1,1
55597,-90.9090909090909,4,2,2,85,0,1
55950,363.636363636364,4,2,2,85,1,1
56309,359.281437125748,4,2,2,85,1,1
56309,-90.9090909090909,4,2,2,85,0,1
57386,363.636363636364,4,2,2,85,1,1
57931,369.230769230769,4,2,2,80,1,1
57931,-90.9090909090909,4,2,2,80,0,0
58854,365.853658536585,4,2,2,80,1,0
58854,-90.9090909090909,4,2,2,80,0,0
59220,361.44578313253,4,2,2,80,1,0
59220,-90.9090909090909,4,2,2,80,0,0
59942,365.853658536585,4,2,2,80,1,0
60673,355.029585798817,4,2,2,80,1,0
60850,361.44578313253,4,2,2,85,1,0
60850,-86.9565217391304,4,2,2,85,0,1
61572,365.853658536585,4,2,2,85,1,1
61572,-86.9565217391304,4,2,2,85,0,1
62120,-84.0336134453781,4,2,2,85,0,1
62303,350.877192982456,4,2,2,85,1,1
62653,-86.9565217391304,4,2,2,85,0,1
62829,363.636363636364,4,2,2,85,1,1
63010,-86.9565217391304,4,2,2,85,0,1
63374,357.142857142857,4,2,2,85,1,1
63740,372.670807453416,4,2,2,85,1,1
63740,-86.9565217391304,4,2,2,85,0,1
64485,338.983050847457,4,2,2,85,1,1
64485,-86.9565217391304,4,2,2,85,0,1
64654,361.44578313253,4,2,2,85,1,1
65005,350.877192982456,4,2,2,85,1,1
65005,-86.9565217391304,4,2,2,85,0,1
65355,363.636363636364,4,2,2,85,1,1
65536,-86.9565217391304,4,2,2,85,0,1
65902,375,4,2,2,85,1,1
65902,-86.9565217391304,4,2,2,85,0,1
66464,320.855614973262,4,2,2,85,1,1
66624,365.853658536585,4,2,2,85,1,1
66624,-86.9565217391304,4,2,2,85,0,1
66989,377.358490566038,4,2,2,85,1,1
66989,-86.9565217391304,4,2,2,85,0,1
67366,-80.6451612903226,4,2,2,85,0,1
67542,361.44578313253,4,2,2,85,1,1
67903,357.142857142857,4,2,2,85,1,1
67903,-90.9090909090909,4,2,2,85,0,1
68081,375,4,2,2,85,1,1
68456,357.142857142857,4,2,2,85,1,1
68456,-86.9565217391304,4,2,2,85,0,1
68813,346.820809248555,4,2,2,85,1,1
68813,-86.9565217391304,4,2,2,85,0,1
69159,359.281437125748,4,2,2,85,1,1
69338,-86.9565217391304,4,2,2,85,0,1
69518,-90.9090909090909,4,2,2,80,0,1
70057,346.820809248555,4,2,2,80,1,1
70057,-90.9090909090909,4,2,2,80,0,1
70403,379.746835443038,4,2,2,80,1,1
70403,-90.9090909090909,4,2,2,80,0,1
70782,368.098159509202,4,2,2,80,1,1
70782,-90.9090909090909,4,2,2,80,0,1
71518,352.941176470588,4,2,2,85,1,1
72417,384.615384615385,4,2,2,80,1,0
72801,338.983050847457,4,2,2,80,1,0
72970,363.636363636364,4,2,2,80,1,0
73502,375,4,2,2,80,1,0
73877,333.333333333333,4,2,2,70,1,0
74432,370.370370370371,4,2,2,70,1,0
75310,363.636363636364,4,2,2,80,1,0
76380,361.44578313253,4,2,2,80,1,0
76922,365.853658536585,4,2,2,70,1,0
77470,382.165605095541,4,2,2,70,1,0
77852,370.37037037037,4,2,2,70,1,0
78222,352.941176470588,4,2,1,60,1,0
78222,-222.22222222222,4,2,1,60,0,0
78927,357.142857142857,4,2,2,60,1,0
79462,-100,4,2,1,60,0,0
79641,361.44578313253,4,2,2,60,1,0
79641,-222.22222222222,4,2,2,60,0,0
80002,-222.22222222222,4,2,1,60,0,0
80363,375,4,2,2,60,1,0
80925,-100,4,2,1,60,0,0
81113,365.853658536585,4,2,2,60,1,0
81478,-100,4,2,1,60,0,0
81661,375,4,2,1,60,1,0
82411,416.666666666667,4,2,1,60,1,0
83452,359.281437125748,4,2,1,60,1,0
83631,-100,4,2,1,60,0,0
83811,-285.714285714282,4,2,1,60,0,0
89919,-285.714285714282,4,2,1,5,0,0

[Colours]
Combo1 : 182,129,254
Combo2 : 128,255,128
Combo3 : 255,255,128
Combo4 : 128,255,255

[HitObjects]
45,45,4474,6,0,B|93:35|132:91|116:115|99:103|101:86,1,119,2|0,0:0|0:0,0:0:0:0:
115,11,5197,5,14,1:2:0:0:
10,155,5377,1,14,1:2:0:0:
200,150,5920,6,0,P|263:123|273:66,1,127.5,4|0,1:0|0:0,0:0:0:0:
250,0,6275,2,0,P|209:12|207:58,1,85,10|0,0:0|0:0,0:0:0:0:
321,180,6630,5,2,1:2:0:0:
321,180,6807,1,0,1:0:0:0:
406,76,6985,1,10,0:0:0:0:
477,149,7162,6,0,B|433:244|433:244|491:276,1,170,4|0,1:0|1:0,0:0:0:0:
347,265,7706,2,0,B|357:310|357:310|303:334,1,85,10|0,0:0|0:0,0:0:0:0:
245,384,8067,5,2,1:2:0:0:
245,384,8276,1,0,1:0:0:0:
92,337,8446,2,0,P|137:327|197:301,1,85,10|0,0:0|0:0,0:0:0:0:
0,181,8809,6,0,P|42:226|29:293,1,127.5,4|0,1:0|0:0,0:0:0:0:
92,337,9164,2,0,P|71:304|19:294,1,85,10|0,0:0|0:0,0:0:0:0:
131,247,9519,5,2,1:2:0:0:
131,247,9696,1,0,1:0:0:0:
41,92,9874,1,10,0:0:0:0:
226,158,10051,6,0,B|240:198|240:198|317:175,1,114.749996498108,4|0,1:0|0:0,0:0:0:0:
402,117,10416,2,0,L|381:171,1,38.2499988327027,2|0,1:2|0:0,0:0:0:0:
394,164,10599,1,8,1:2:0:0:
181,20,10782,6,0,B|206:11|206:11|297:74,1,114.749996498108,4|0,1:0|0:0,0:0:0:0:
414,30,11143,2,0,L|365:43,1,38.2499988327027,2|0,1:2|0:0,0:0:0:0:
402,117,11307,2,0,P|414:79|435:32,1,85,8|0,0:0|0:0,0:0:0:0:
511,218,11668,6,0,B|454:225|442:239|382:245,1,127.500004863739,4|8,1:0|0:0,0:0:0:0:
308,188,12227,6,0,B|264:182|255:171|209:167,1,95.6250036478044,4|0,1:0|0:0,0:0:0:0:
146,198,12599,2,0,P|119:201|81:204,1,42.5,8|8,0:0|0:0,0:0:0:0:
15,207,12778,6,0,B|113:218|102:233|219:244,1,191.250007295609,4|8,1:0|1:3,0:0:0:0:
223,260,13418,1,8,1:3:0:0:
223,260,13509,1,4,1:3:0:0:
279,111,13692,5,8,1:3:0:0:
279,111,13784,1,4,1:3:0:0:
279,111,13875,1,14,1:2:0:0:
253,384,14060,1,14,1:2:0:0:
512,0,24692,6,0,P|508:29|500:58,1,50.9999984436036,0|0,3:2|0:0,0:0:0:0:
497,60,25060,1,0,3:0:0:0:
512,160,25244,6,0,P|492:146|457:134,1,42.5
413,85,25423,1,2,3:2:0:0:
343,248,25603,5,8,1:2:0:0:
456,210,25774,1,8,1:2:0:0:
296,126,25945,1,8,1:2:0:0:
221,239,26117,6,0,P|152:246|107:169,1,152.999995330811,4|8,1:0|0:0,0:0:0:0:
141,56,26672,1,2,0:0:0:0:
141,56,26857,2,0,P|170:89|156:133,1,76.4999976654053,2|0,1:2|0:0,0:0:0:0:
22,167,27228,1,8,0:0:0:0:
166,118,27413,5,2,0:0:0:0:
166,118,27598,2,0,P|242:138|321:151,1,152.999995330811,2|8,1:2|0:0,0:0:0:0:
456,207,28144,1,2,0:0:0:0:
456,207,28326,2,0,P|418:217|378:223,1,76.4999976654053,2|0,1:2|0:0,0:0:0:0:
466,68,28681,1,8,0:0:0:0:
304,157,28865,5,2,0:0:0:0:
304,157,29049,2,0,B|323:222|345:225|363:302,1,152.999995330811,2|8,1:2|0:0,0:0:0:0:
512,303,29601,1,2,0:0:0:0:
512,303,29785,2,0,B|475:290|481:279|439:267,1,76.4999976654053,2|0,1:2|0:0,0:0:0:0:
300,245,30140,1,8,0:0:0:0:
121,303,30317,5,2,0:0:0:0:
121,303,30495,2,0,P|194:339|275:356,1,152.999995330811,2|8,1:2|0:0,0:0:0:0:
162,220,31040,1,2,0:0:0:0:
162,220,31206,2,0,P|201:215|248:191,1,76.4999976654053,2|0,1:2|0:0,0:0:0:0:
73,212,31574,1,8,0:0:0:0:
208,119,31758,5,2,0:0:0:0:
208,119,31930,2,0,P|287:145|323:215,1,160.649998958187,2|8,1:2|0:0,0:0:0:0:
446,244,32459,1,2,0:0:0:0:
446,244,32642,2,0,P|432:282|388:296,1,76.4999976654053,2|0,1:2|0:0,0:0:0:0:
398,171,33008,1,8,0:0:0:0:
263,309,33191,5,2,0:0:0:0:
263,309,33374,2,0,B|344:297|325:270|412:256,1,152.999995330811,2|8,1:2|0:0,0:0:0:0:
470,384,33919,1,2,0:0:0:0:
470,384,34101,2,0,B|426:375|438:358|392:348,1,76.4999976654053,2|0,1:2|0:0,0:0:0:0:
494,292,34464,1,8,0:0:0:0:
363,141,34646,5,2,0:0:0:0:
363,141,34737,1,0,0:0:0:0:
363,141,34828,2,0,B|367:155|367:155|448:173|522:217,1,170,2|8,1:2|0:0,0:0:0:0:
512,76,35370,2,0,B|502:20|437:4|437:4|463:39|450:78,1,170,2|2,0:0|0:0,0:0:0:0:
448,67,35912,1,8,0:0:0:0:
256,152,36093,6,0,P|228:160|188:165,1,42.5,2|0,0:0|0:0,0:0:0:0:
144,117,36273,2,0,P|183:142|213:184,1,85,2|0,1:2|0:0,0:0:0:0:
113,298,36635,5,8,0:0:0:0:
49,332,36815,1,0,3:0:0:0:
38,193,36996,5,4,1:3:0:0:
255,238,37177,1,4,1:3:0:0:
225,66,37357,5,8,1:3:0:0:
219,79,37533,1,8,1:3:0:0:
404,142,37709,6,0,B|450:129|443:80|443:80|426:118|386:123,1,127.500004863739,4|2,1:0|0:0,0:0:0:0:
392,220,38274,1,0,1:0:0:0:
255,238,38468,2,0,P|241:284|265:246,1,127.500004863739,10|2,0:0|0:0,0:0:0:0:
460,342,38978,5,0,1:0:0:0:
460,342,39066,1,0,1:0:0:0:
460,342,39156,2,0,B|459:363|478:370|478:370|467:358|466:340,1,63.7500024318696,2|8,1:2|0:0,0:0:0:0:
392,304,39522,1,2,0:0:0:0:
385,311,39697,5,0,1:0:0:0:
496,209,39872,2,0,P|520:241|483:215,1,127.500004863739,10|2,0:0|0:0,0:0:0:0:
456,76,40441,5,0,0:0:0:0:
456,76,40536,1,0,0:0:0:0:
456,76,40616,2,0,B|503:65|510:15|510:15|492:38|463:34,1,127.500004863739,2|2,1:2|0:0,0:0:0:0:
352,49,41158,2,0,P|323:11|333:53,1,127.500004863739,0|0,1:0|0:0,0:0:0:0:
346,66,41700,1,2,0:0:0:0:
171,101,41881,5,0,1:0:0:0:
171,101,41971,1,0,0:0:0:0:
171,101,42061,2,0,B|192:64|195:35|195:35|214:62|199:98,1,127.500004863739,2|2,1:2|0:0,0:0:0:0:
62,212,42598,1,0,1:0:0:0:
62,212,42783,2,0,P|26:258|48:202,1,170,10|2,0:0|0:0,0:0:0:0:
179,303,43326,5,0,0:0:0:0:
175,384,43507,2,0,B|181:319|181:319|125:358,1,127.500004863739,4|2,1:0|0:0,0:0:0:0:
355,297,44055,1,0,1:0:0:0:
355,297,44238,2,0,B|352:264|352:264|380:284,1,63.7500024318696,10|0,0:0|0:0,0:0:0:0:
407,351,44604,1,2,0:0:0:0:
233,98,44782,5,0,1:0:0:0:
236,173,44961,2,0,B|239:141|239:141|263:166,1,63.7500024318696,2|8,1:2|0:0,0:0:0:0:
129,49,45318,2,0,B|85:97|85:97|74:35,1,127.500004863739,2|10,0:0|0:0,0:0:0:0:
300,147,46037,5,0,1:0:0:0:
342,127,46120,1,0,3:0:0:0:
384,103,46204,1,0,1:0:0:0:
420,73,46288,1,0,3:0:0:0:
454,40,46387,6,0,B|496:51|496:51|477:145,1,114.749996498108,4|0,1:0|0:0,0:0:0:0:
504,154,46766,1,8,0:0:0:0:
365,130,46935,6,0,B|396:183|396:183|396:195|396:195|419:251,1,127.5,4|0,1:0|0:0,0:0:0:0:
424,250,47292,1,8,0:0:0:0:
415,300,47381,1,8,0:0:0:0:
463,284,47470,1,0,1:0:0:0:
299,34,47649,6,0,B|253:21|253:21|228:114,1,127.5,4|0,1:0|0:0,0:0:0:0:
173,145,48010,6,0,L|107:124,1,42.5,0|0,1:0|1:0,0:0:0:0:
120,137,48185,2,0,L|62:119,1,42.5,8|8,1:3|1:3,0:0:0:0:
72,127,48360,2,0,L|9:109,1,42.5,4|4,1:3|1:3,0:0:0:0:
0,45,48536,5,14,1:2:0:0:
244,179,48711,1,14,1:2:0:0:
30,192,49289,6,0,B|49:260|70:249|100:322,1,140.25000428009,6|0,1:0|0:0,0:0:0:0:
159,372,49652,2,0,P|170:330|177:283,1,85,10|2,0:0|0:1,0:0:0:0:
97,236,50012,5,2,1:2:0:0:
175,279,50182,1,2,1:1:0:0:
313,140,50383,1,10,0:0:0:0:
198,74,50557,6,0,B|167:67|140:47|129:22|129:22|126:20|126:20|149:43|176:38,1,140.25000428009,6|0,1:0|0:0,0:0:0:0:
297,0,50918,2,0,P|312:42|272:67,1,93.5000028533936,2|10,1:1|0:0,0:0:0:0:
107,118,51277,5,2,0:1:0:0:
107,118,51458,1,2,1:2:0:0:
321,150,51640,2,0,P|311:201|290:254,1,93.5000028533936,2|10,1:1|0:0,0:0:0:0:
288,245,52004,5,2,0:1:0:0:
512,291,52186,2,0,B|502:300|502:300|461:255|382:230,1,140.25000428009,6|0,1:0|0:0,0:0:0:0:
398,317,52526,6,0,P|420:336|448:346,1,46.7500014266968,10|0,0:0|0:0,0:0:0:0:
383,321,52698,2,0,P|342:330|330:380,1,93.5000028533936,2|2,0:1|1:2,0:0:0:0:
475,221,53085,1,2,1:1:0:0:
349,55,53257,1,10,1:2:0:0:
431,15,53429,6,0,P|441:40|454:64,1,47.1750011517334,6|0,1:0|0:0,0:0:0:0:
512,66,53601,2,0,B|452:72|461:101|385:123,1,140.25000428009,2|0,0:1|0:0,0:0:0:0:
312,180,53962,6,0,P|292:167|261:155,1,42.5,10|0,0:0|0:0,0:0:0:0:
140,105,54133,2,0,P|230:125|281:224,1,187.000005706787,6|0,1:0|1:0,0:0:0:0:
168,370,54696,2,0,P|180:347|192:314,1,42.5,10|0,0:0|0:0,0:0:0:0:
324,259,54875,5,2,0:1:0:0:
177,235,55053,2,0,B|114:277|113:253|35:306,1,140.25000428009,6|0,1:0|0:0,0:0:0:0:
0,384,55421,2,0,B|-20:365|-20:365|38:380,1,85,10|2,0:0|0:1,0:0:0:0:
42,293,55773,5,2,1:2:0:0:
47,375,55950,1,2,1:1:0:0:
249,185,56131,1,10,0:0:0:0:
178,128,56309,6,0,B|136:73|136:73|200:21,1,140.25000428009,6|0,1:1|0:0,0:0:0:0:
286,0,56668,2,0,B|312:42|312:42|270:85,1,93.5000028533936,2|10,1:0|0:0,0:0:0:0:
102,101,57027,5,2,0:1:0:0:
102,101,57207,1,2,1:2:0:0:
356,156,57386,2,0,P|398:175|447:189,1,85,2|10,1:1|0:0,0:0:0:0:
495,145,57749,5,2,0:1:0:0:
368,241,57931,2,0,P|290:283|246:374,1,187.000005706787,6|4,1:1|1:3,0:0:0:0:
435,186,58484,6,0,P|378:193|244:106,1,187.000005706787,6|8,1:0|1:3,0:0:0:0:
252,144,59036,1,8,1:3:0:0:
474,384,59220,6,0,P|438:297|358:235,1,187.000005706787,6|8,1:0|1:3,0:0:0:0:
292,249,59762,1,0,0:0:0:0:
289,256,59942,6,0,P|249:268|190:277,1,85,4|8,1:3|1:3,0:0:0:0:
55,228,60307,5,8,1:3:0:0:
40,206,60399,1,8,1:3:0:0:
29,178,60490,1,4,1:3:0:0:
32,143,60582,1,4,1:3:0:0:
54,110,60673,1,4,1:3:0:0:
93,94,60761,1,4,1:3:0:0:
130,56,60850,6,0,B|115:95|115:95|8:53,1,146.62500279665,6|0,1:0|0:0,0:0:0:0:
0,12,61211,1,10,0:0:0:0:
187,144,61392,2,0,P|237:129|299:119,1,97.7500018644333,2|10,0:1|0:0,0:0:0:0:
460,53,61754,2,0,P|410:38|348:28,1,97.7500018644333,2|10,1:0|0:0,0:0:0:0:
195,155,62120,6,0,B|177:241|140:250|122:351,1,197.200006018067,6|0,1:0|0:0,0:0:0:0:
44,272,62653,2,0,P|57:224|62:162,1,97.7500018644333,10|2,0:0|0:1,0:0:0:0:
227,339,63010,2,0,P|249:294|289:247,1,97.7500018644333,10|2,0:0|1:0,0:0:0:0:
458,184,63374,1,10,0:0:0:0:
390,271,63552,5,2,1:0:0:0:
320,100,63740,2,0,P|245:50|141:19,1,195.500003728867,6|10,1:0|0:0,0:0:0:0:
156,157,64299,2,0,P|200:133|218:88,1,97.7500018644333,2|10,0:1|0:0,0:0:0:0:
39,37,64654,2,0,P|37:87|67:125,1,85,2|10,1:0|0:0,0:0:0:0:
269,218,65005,6,0,B|361:186|361:186|409:287,1,195.500003728867,6|2,1:0|0:1,0:0:0:0:
182,285,65536,2,0,L|159:170,1,97.7500018644333,10|6,0:0|1:0,0:0:0:0:
415,377,65902,2,0,L|505:323,1,97.7500018644333,10|0,0:0|0:0,0:0:0:0:
480,251,66277,1,10,0:0:0:0:
323,281,66464,5,2,1:0:0:0:
512,88,66624,2,0,B|446:95|412:133|328:159,1,195.500003728867,6|10,1:0|0:0,0:0:0:0:
208,53,67177,2,0,P|257:67|306:76,1,97.7500018644333,2|10,0:1|0:0,0:0:0:0:
138,106,67542,2,0,P|89:120|40:129,1,85,2|10,1:0|0:0,0:0:0:0:
150,0,67903,6,0,P|160:90|189:205,1,192.100000586243,6|0,1:0|0:0,0:0:0:0:
196,198,68456,1,10,0:0:0:0:
354,296,68634,2,0,P|314:271|255:263,1,97.7500018644333,2|10,0:1|0:0,0:0:0:0:
60,322,68986,2,0,P|97:286|159:268,1,97.7500018644333,2|10,1:0|0:0,0:0:0:0:
252,138,69338,5,2,0:1:0:0:
319,198,69518,2,0,B|382:183|382:183|408:157|408:157|497:167,1,187.000005706787,6|8,1:0|0:0,0:0:0:0:
129,201,70057,6,0,B|144:157|144:157|39:120,1,140.25000428009,6|0,1:0|0:0,0:0:0:0:
42,48,70403,2,0,L|142:68,1,93.5000028533936,8|8,1:3|1:3,0:0:0:0:
323,232,70782,6,0,P|258:198|254:131,1,140.25000428009,6|0,1:0|0:0,0:0:0:0:
259,131,71150,1,8,1:3:0:0:
332,230,71334,1,8,0:0:0:0:
409,159,71518,5,8,2:3:0:0:
409,159,71606,1,8,2:3:0:0:
409,159,71694,2,0,L|425:105,1,42.5,8|8,2:0|2:0,0:0:0:0:
327,48,71870,6,0,L|343:102,1,42.5,8|8,2:0|2:0,0:0:0:0:
500,85,72047,2,0,L|516:31,3,42.5,8|8|8|8,1:2|1:2|1:2|1:2,0:0:0:0:
409,159,72417,6,0,P|351:213|366:303,1,170,4|8,1:0|0:0,0:0:0:0:
481,384,72970,6,0,P|463:306|377:274,1,170,4|8,1:0|0:0,0:0:0:0:
284,334,73502,6,0,P|339:351|391:308,1,127.5,4|0,1:0|0:0,0:0:0:0:
433,204,73877,6,0,L|493:213,2,56.6666666666667,8|8|8,2:0|1:3|1:3,0:0:0:0:
321,148,74210,2,0,L|381:157,2,56.6666666666667,4|4|4,1:3|1:3|1:3,0:0:0:0:
193,219,74555,6,0,L|253:210,2,56.6666666666667,8|0|8,1:3|1:0|1:3,0:0:0:0:
81,275,74925,2,0,L|141:266,2,56.6666666666667,8|0|4,1:3|1:0|1:3,0:0:0:0:
41,207,75310,6,0,B|14:97|14:97|74:80,1,170,4|8,1:0|0:0,0:0:0:0:
143,30,75855,2,0,B|169:139|169:139|110:157,1,170,4|8,1:0|0:0,0:0:0:0:
246,10,76380,6,0,B|326:102|326:102|242:221,1,255,4|8,1:0|1:3,0:0:0:0:
195,362,77287,5,8,1:3:0:0:
195,362,77470,2,0,P|155:355|110:336,1,85,4|0,1:3|0:0,0:0:0:0:
44,325,77756,1,8,1:3:0:0:
44,325,77852,2,0,P|84:318|129:299,1,85,8|0,1:3|1:0,0:0:0:0:
430,288,78222,6,0,P|389:230|302:202,1,152.999995330811,4|2,1:0|0:0,0:0:0:0:
491,122,79641,2,0,P|420:128|352:189,1,152.999995330811,2|2,0:0|0:0,0:0:0:0:
254,191,80925,5,2,0:0:0:0:
254,191,81113,1,2,0:0:0:0:
256,192,81204,12,2,83631,0:0:0:0:
256,192,83811,5,2,0:0:0:0:
256,192,83901,1,2,0:0:0:0:
256,192,83990,1,2,0:0:0:0:
256,192,84080,12,0,89919,0:0:0:0:
