osu file format v14

[General]
AudioFilename: audio.mp3
AudioLeadIn: 0
PreviewTime: 49097
Countdown: 0
SampleSet: Soft
StackLeniency: 0.3
Mode: 0
LetterboxInBreaks: 0
WidescreenStoryboard: 1

[Editor]
Bookmarks: 5920,11668,14605,25060,26117,37709,46037,49289,60850,69518,72417,78222,89380
DistanceSpacing: 1.5
BeatDivisor: 2
GridSize: 32
TimelineZoom: 2.1

[Metadata]
Title:Destin Histoire (TV Size)
TitleUnicode:Destin Histoire (TV Size)
Artist:yoshiki*lisa
ArtistUnicode:yoshiki*lisa
Creator:Froskya
Version:1Force's Extra
Source:GOSICK
Tags:吉木りさ -ゴシック- japanese anime pop jpop j-pop opening op story of fate gothic yoshiki risa lisa original soundtrack ost destiny history female vocals vocalist Victorique de Blois ヴィクトリカ・ド・ブロワ ヴィクトリカ ド ブロワ revialink kxlman original3s fackel theoneforce 1force
BeatmapID:3543962
BeatmapSetID:1713118

[Difficulty]
HPDrainRate:4.4
CircleSize:4
OverallDifficulty:8.4
ApproachRate:9
SliderMultiplier:2.00000000596047
SliderTickRate:1

[Events]
//Background and Video events
0,0,"uwu.jpg",0,0
Video,-425,"celeste vibes.mp4"
//Break Periods
//Storyboard Layer 0 (Background)
//Storyboard Layer 1 (Fail)
//Storyboard Layer 2 (Pass)
//Storyboard Layer 3 (Foreground)
//Storyboard Layer 4 (Overlay)
//Storyboard Sound Samples

[TimingPoints]
137,361.44578313253,4,2,1,40,1,0
1582,-100,4,2,1,50,0,0
3028,-100,4,2,1,60,0,0
5197,-100,4,2,2,70,0,0
5920,355.029585798817,4,2,1,75,1,0
7162,375,4,2,1,75,1,0
7706,361.44578313253,4,2,1,75,1,0
8067,419.58041958042,4,2,1,75,1,0
8276,340.909090909091,4,2,1,75,1,0
8446,379.746835443038,4,2,1,75,1,0
8809,355.029585798817,4,2,1,75,1,0
10051,365.853658536585,4,2,1,75,1,0
10782,361.44578313253,4,2,1,75,1,0
11307,361.44578313253,4,2,1,75,1,0
11668,372.670807453416,4,2,1,75,1,0
12599,359.281437125748,4,2,1,80,1,0
12778,365.853658536585,4,2,1,80,1,0
13875,370.37037037037,4,2,1,80,1,0
14605,355.029585798817,4,2,3,50,1,0
14605,-200,4,2,3,50,0,0
15315,361.44578313253,4,2,3,40,1,0
15315,-200,4,2,3,40,0,0
16037,357.142857142857,4,2,3,50,1,0
16037,-200,4,2,3,50,0,0
16747,361.44578313253,4,2,3,50,1,0
16747,-200,4,2,3,50,0,0
17463,375,4,2,3,50,1,0
17463,-153.846153846154,4,2,3,50,0,0
18213,357.142857142857,4,2,3,50,1,0
18213,-153.846153846154,4,2,3,50,0,0
18570,354.50516986706,4,2,3,50,1,0
18570,-153.846153846154,4,2,3,50,0,0
18924,361.44578313253,4,2,3,50,1,0
18924,-200,4,2,3,50,0,0
19646,350.877192982456,4,2,3,50,1,0
19646,-200,4,2,3,50,0,0
19996,373.250388802488,4,2,3,50,1,0
19996,-200,4,2,3,50,0,0
20369,363.636363636364,4,2,3,50,1,0
20369,-153.846153846154,4,2,3,50,0,0
21823,357.142857142857,4,2,3,50,1,0
21823,-153.846153846154,4,2,3,50,0,0
22537,363.636363636364,4,2,3,40,1,0
22537,-200,4,2,3,40,0,0
23264,357.142857142857,4,2,3,50,1,0
23264,-200,4,2,3,50,0,0
24692,368.098159509202,4,2,3,60,1,0
24692,-142.857142857143,4,2,3,60,0,0
25060,-100,4,2,3,60,0,0
25244,359.281437125748,4,2,2,60,1,0
25603,342.857142857143,4,2,1,70,1,0
26117,370.37037037037,4,2,1,75,1,0
26117,-133.333333333333,4,2,1,75,0,0
27598,365.853658536585,4,2,1,75,1,0
27598,-133.333333333333,4,2,1,75,0,0
27963,363.636363636363,4,2,1,75,1,0
27963,-133.333333333333,4,2,1,75,0,0
28681,368.098159509202,4,2,1,75,1,0
28681,-133.333333333333,4,2,1,75,0,0
29049,-133.333333333333,4,2,1,75,0,0
29785,355.029585798817,4,2,1,75,1,0
29785,-133.333333333333,4,2,1,75,0,0
30495,363.636363636364,4,2,1,75,1,0
30495,-133.333333333333,4,2,1,75,0,0
31206,368.098159509202,4,2,1,75,1,0
31206,-133.333333333333,4,2,1,75,0,0
31930,361.44578313253,4,2,1,75,1,0
31930,-133.333333333333,4,2,1,75,0,0
32277,365.853658536585,4,2,1,75,1,0
32277,-133.333333333333,4,2,1,75,0,0
33374,363.636363636364,4,2,1,75,1,0
33374,-133.333333333333,4,2,1,75,0,0
34828,361.44578313253,4,2,1,75,1,0
34828,-133.333333333333,4,2,1,75,0,0
36815,-166.666666666667,4,2,1,75,0,0
37357,352.941176470588,4,2,1,75,1,0
37358,-166.666666666667,4,2,1,75,0,0
37709,372.670807453416,4,2,2,70,1,0
37709,-200,4,2,2,70,0,0
38081,387.096774193548,4,2,2,70,1,0
38081,-200,4,2,2,70,0,0
38468,355.029585798816,4,2,2,70,1,0
38468,-200,4,2,2,70,0,0
38978,355.029585798816,4,2,2,70,1,0
39156,379.746835443038,4,2,2,70,1,0
39156,-200,4,2,2,70,0,0
39522,350.877192982456,4,2,2,70,1,0
39522,-200,4,2,2,70,0,0
39872,379.746835443038,4,2,2,70,1,0
39872,-200,4,2,2,70,0,0
40616,361.44578313253,4,2,2,70,1,0
40616,-200,4,2,2,70,0,0
42061,352.941176470588,4,2,2,70,1,0
42061,-200,4,2,2,70,0,0
42413,370.37037037037,4,2,2,70,1,0
42413,-200,4,2,2,70,0,0
42783,362.187613183629,4,2,2,70,1,0
42783,-200,4,2,2,70,0,0
43507,365.853658536585,4,2,2,70,1,0
43507,-133.333333333333,4,2,2,70,0,0
44238,-200,4,2,2,70,0,0
44604,357.142857142857,4,2,2,70,1,0
44604,-200,4,2,2,70,0,0
45318,377.358490566038,4,2,2,70,1,0
45318,-200,4,2,2,70,0,0
45695,342.857142857143,4,2,2,70,1,0
45695,-133.333333333333,4,2,2,70,0,0
46037,335.195530726257,4,2,2,70,1,0
46037,-100,4,2,2,70,0,0
46387,379.746835443038,4,2,2,75,1,0
46387,-100,4,2,2,75,0,0
46766,338.983050847457,4,2,2,75,1,0
46766,-100,4,2,2,75,0,0
46935,357.142857142857,4,2,2,75,1,0
46935,-100,4,2,2,75,0,0
47292,-100,4,2,2,75,0,0
47649,361.44578313253,4,2,2,75,1,0
47649,-133.333333333333,4,2,2,75,0,0
48010,350.877192982456,4,2,2,75,1,0
48010,-200,4,2,2,75,0,0
48536,-100,4,2,2,75,0,0
49097,384.615384615384,4,2,2,75,1,0
49289,363.636363636364,4,2,2,85,1,0
49652,335.195530726257,4,2,2,85,1,0
49819,387.096774193548,4,2,2,85,1,0
50182,402.684563758389,4,2,2,85,1,0
50383,348.837209302325,4,2,2,85,1,0
50557,361.44578313253,4,2,2,85,1,0
50918,359.281437125748,4,2,2,80,1,0
51277,363.636363636364,4,2,2,80,1,0
52186,340.909090909091,4,2,2,85,1,0
52698,387.096774193548,4,2,2,85,1,0
53085,344.827586206896,4,2,2,85,1,0
53429,344.827586206897,4,2,2,80,1,0
53601,361.44578313253,4,2,2,85,1,0
53962,342.857142857143,4,2,2,85,1,0
54133,385.232744783307,4,2,2,85,1,0
54518,357.142857142857,4,2,2,85,1,0
55053,368.098159509202,4,2,2,85,1,0
55421,352.941176470588,4,2,2,85,1,0
55950,363.636363636364,4,2,2,85,1,0
56309,359.281437125748,4,2,2,85,1,0
57386,363.636363636364,4,2,2,85,1,0
57931,369.230769230769,4,2,2,80,1,0
58854,365.853658536585,4,2,2,80,1,0
59220,361.44578313253,4,2,2,80,1,0
59942,365.853658536585,4,2,2,80,1,0
60673,355.029585798817,4,2,2,80,1,0
60850,361.44578313253,4,2,2,85,1,0
61572,365.853658536585,4,2,2,85,1,0
62303,350.877192982456,4,2,2,85,1,0
62829,363.636363636364,4,2,2,85,1,0
63374,357.142857142857,4,2,2,85,1,0
63740,372.670807453416,4,2,2,85,1,0
64485,338.983050847457,4,2,2,85,1,0
64654,361.44578313253,4,2,2,85,1,0
65005,350.877192982456,4,2,2,85,1,0
65355,363.636363636364,4,2,2,85,1,0
65902,375,4,2,2,85,1,0
66464,320.855614973262,4,2,2,85,1,0
66624,365.853658536585,4,2,2,85,1,0
66989,377.358490566038,4,2,2,85,1,0
67542,361.44578313253,4,2,2,85,1,0
67903,357.142857142857,4,2,2,85,1,0
68081,375,4,2,2,85,1,0
68456,357.142857142857,4,2,2,85,1,0
68813,346.820809248555,4,2,2,85,1,0
69159,359.281437125748,4,2,2,85,1,0
69518,-100,4,2,2,80,0,0
70057,346.820809248555,4,2,2,80,1,0
70403,379.746835443038,4,2,2,80,1,0
70782,368.098159509202,4,2,2,80,1,0
71334,-83.3333333333333,4,2,2,80,0,0
71518,352.941176470588,4,2,2,85,1,0
72417,384.615384615385,4,2,2,80,1,0
72801,338.983050847457,4,2,2,80,1,0
72970,363.636363636364,4,2,2,80,1,0
73502,375,4,2,2,80,1,0
73877,333.333333333333,4,2,2,70,1,0
73877,-125,4,2,2,70,0,0
74432,370.370370370371,4,2,2,70,1,0
74432,-125,4,2,2,70,0,0
74925,-166.666666666667,4,2,2,70,0,0
75310,363.636363636364,4,2,2,80,1,0
76380,361.44578313253,4,2,2,80,1,0
76380,-111.111111111111,4,2,2,80,0,0
76922,365.853658536585,4,2,2,70,1,0
76922,-125,4,2,2,70,0,0
77470,382.165605095541,4,2,2,70,1,0
77852,370.37037037037,4,2,2,70,1,0
78222,352.941176470588,4,2,1,60,1,0
78222,-125.470514429109,4,2,1,60,0,0
78927,357.142857142857,4,2,2,60,1,0
79462,-100,4,2,1,60,0,0
79641,361.44578313253,4,2,2,60,1,0
79641,-88.2378893496868,4,2,2,60,0,0
80002,-88.2378893496868,4,2,1,60,0,0
80363,375,4,2,2,60,1,0
80925,-100,4,2,1,60,0,0
81113,365.853658536585,4,2,2,60,1,0
81113,-144.801621778164,4,2,2,60,0,0
81478,-144.927536231884,4,2,1,60,0,0
81661,375,4,2,1,60,1,0
82411,416.666666666667,4,2,1,60,1,0
83452,359.281437125748,4,2,1,60,1,0
83751,-100,4,2,1,60,0,0
83990,-217.391304347826,4,2,1,60,0,0
89199,-217.391304347826,4,2,1,5,0,0
89380,-250,4,2,1,15,0,0
89469,-250,4,2,1,5,0,0

[Colours]
Combo1 : 53,255,180
Combo2 : 128,255,128
Combo3 : 255,255,128
Combo4 : 54,164,254

[HitObjects]
45,118,137,5,2,0:0:0:0:
78,45,317,1,2,0:0:0:0:
11,2,498,1,2,0:0:0:0:
162,159,679,5,2,0:0:0:0:
256,192,1040,1,2,0:0:0:0:
350,225,1402,1,2,0:0:0:0:
463,95,1582,5,2,0:0:0:0:
388,122,1763,1,2,0:0:0:0:
448,173,1944,1,2,0:0:0:0:
214,309,2124,5,2,0:0:0:0:
256,192,2486,1,2,0:0:0:0:
297,74,2847,1,2,0:0:0:0:
359,240,3028,5,2,0:0:0:0:
304,89,3209,1,2,0:0:0:0:
153,144,3390,1,2,0:0:0:0:
208,295,3570,1,2,0:0:0:0:
256,192,3751,12,2,5016,0:0:0:0:
202,38,5197,5,14,1:2:0:0:
309,345,5377,1,14,1:2:0:0:
0,349,5920,6,0,P|72:330|149:312,1,149.101796851544,4|0,1:0|0:0,0:0:0:0:
155,325,6275,2,0,P|166:276|179:228,1,100.000000298023,10|0,0:0|0:0,0:0:0:0:
199,133,6630,1,2,1:2:0:0:
85,236,6807,1,0,1:0:0:0:
220,384,6985,1,10,0:0:0:0:
295,318,7162,2,0,P|368:279|502:286,1,200.000000596047,4|0,1:0|1:0,0:0:0:0:
295,127,7706,1,10,0:0:0:0:
437,0,7886,2,0,P|431:38|421:116,1,100.000000298023,0|2,0:0|1:2,0:0:0:0:
430,106,8276,5,0,1:0:0:0:
346,60,8446,1,10,0:0:0:0:
295,127,8635,1,0,0:0:0:0:
0,0,8809,6,0,B|91:15|44:57|129:71,1,150.000000447035,4|0,1:0|0:0,0:0:0:0:
137,83,9164,2,0,P|169:52|178:-24,1,100.000000298023,10|0,0:0|0:0,0:0:0:0:
66,223,9519,1,2,1:2:0:0:
211,169,9696,1,0,1:0:0:0:
0,94,9874,1,10,0:0:0:0:
1,307,10051,6,0,P|40:216|126:169,1,200.000000596047,4|2,1:0|1:2,0:0:0:0:
169,384,10599,2,0,L|179:335,1,50.0000001490118,8|0,1:2|0:0,0:0:0:0:
275,278,10782,2,0,P|177:300|80:324,1,200.000000596047,4|2,1:0|1:2,0:0:0:0:
294,170,11307,2,0,P|345:192|370:233,1,100.000000298024,8|0,0:0|0:0,0:0:0:0:
367,238,11578,1,0,0:0:0:0:
365,247,11668,6,0,P|376:189|400:66,1,150.000000447035,4|0,1:0|0:0,0:0:0:0:
474,94,12040,2,0,L|463:153,1,50.0000001490118,8|0,0:0|0:0,0:0:0:0:
508,300,12227,2,0,P|486:249|445:224,1,100.000000298023,4|0,1:0|0:0,0:0:0:0:
142,388,12599,1,8,0:0:0:0:
142,388,12688,1,8,0:0:0:0:
142,388,12778,2,0,P|210:318|308:308,1,200.000000596047,4|0,1:0|0:0,0:0:0:0:
88,287,13326,5,8,1:3:0:0:
65,262,13418,1,8,1:3:0:0:
73,230,13509,1,4,1:3:0:0:
236,51,13692,5,8,1:3:0:0:
259,76,13784,1,4,1:3:0:0:
251,108,13875,1,14,1:2:0:0:
0,0,14060,1,14,1:2:0:0:
122,107,14605,6,0,P|168:98|194:93,1,50.0000001490117,2|0,3:2|0:0,0:0:0:0:
335,70,14960,2,0,P|339:45|345:21,1,50.0000001490117,0|2,3:0|0:0,0:0:0:0:
317,189,15315,5,2,3:2:0:0:
348,176,15495,1,0,0:0:0:0:
321,156,15676,1,0,3:0:0:0:
413,125,15857,5,2,0:0:0:0:
236,200,16037,2,0,P|185:190|138:183,1,100.000000298023,2|0,3:2|3:0,0:0:0:0:
5,276,16572,1,2,0:0:0:0:
57,182,16747,2,0,P|61:208|77:237,1,50.0000001490117,2|0,3:2|0:0,0:0:0:0:
210,319,17108,2,0,P|206:293|190:264,1,50.0000001490117,0|2,3:0|0:0,0:0:0:0:
17,379,17463,6,0,P|69:340|130:319,1,129.999994436503,2|0,3:2|3:0,0:0:0:0:
11,281,18025,1,2,0:0:0:0:
210,319,18213,2,0,P|243:338|261:369,1,65.0000001937152,2|0,3:2|0:0,0:0:0:0:
374,275,18570,2,0,P|354:307|354:343,1,64.9999972182515,0|2,3:0|0:0,0:0:0:0:
267,190,18924,6,0,P|256:148|244:92,1,100.000000298023,2|0,3:2|3:0,0:0:0:0:
286,268,19466,1,2,0:0:0:0:
340,132,19646,2,0,L|350:95,1,25.0000000745059,2|0,3:2|0:0,0:0:0:0:
306,32,19821,5,0,0:0:0:0:
211,7,19996,1,0,3:0:0:0:
156,93,20182,1,2,0:0:0:0:
221,170,20369,6,0,P|351:142|388:136,1,129.999994436503,2|0,3:2|3:0,0:0:0:0:
407,195,20914,1,2,0:0:0:0:
512,0,21096,2,0,P|487:33|480:81,1,64.9999972182515,2|0,3:2|0:0,0:0:0:0:
483,172,21459,2,0,P|469:143|439:123,1,64.9999972182515,0|2,3:0|0:0,0:0:0:0:
320,16,21823,6,0,P|333:80|348:143,1,129.999994436503,2|0,3:2|3:0,0:0:0:0:
407,195,22358,1,2,0:0:0:0:
290,272,22537,2,0,L|339:259,1,50.0000001490117,2|0,3:2|0:0,0:0:0:0:
484,291,22900,2,0,L|436:305,1,50.0000001490117,0|2,3:0|0:0,0:0:0:0:
359,371,23264,6,0,P|298:349|248:359,1,100.000000298023,2|2,3:2|3:2,0:0:0:0:
108,384,23799,5,2,0:0:0:0:
54,324,23978,1,0,3:2:0:0:
211,292,24156,1,2,0:0:0:0:
186,369,24335,1,0,3:0:0:0:
79,249,24514,1,2,0:0:0:0:
157,233,24692,6,0,P|173:165|178:145,1,69.999998072386,0|0,3:2|0:0,0:0:0:0:
17,13,25060,6,0,P|44:22|85:32,1,50.0000001490117,0|0,3:0|0:0,0:0:0:0:
117,94,25244,2,0,P|144:85|185:75,1,50.0000001490117
307,45,25423,5,2,3:2:0:0:
350,207,25603,1,8,1:2:0:0:
512,164,25774,1,8,1:2:0:0:
469,2,25945,1,8,1:2:0:0:
374,130,26117,6,0,P|439:91|512:75,1,150.000006169081,4|8,1:0|0:0,0:0:0:0:
507,259,26672,1,2,0:0:0:0:
274,179,26857,6,0,P|264:215|261:252,1,75.0000002235176,2|0,1:2|0:0,0:0:0:0:
420,281,27228,2,0,P|433:222|431:180,1,75.0000002235176,8|2,0:0|0:0,0:0:0:0:
251,262,27598,2,0,P|199:270|117:283,1,112.500004626811,2|0,1:2|0:0,0:0:0:0:
133,291,27963,5,8,0:0:0:0:
2,223,28144,1,2,0:0:0:0:
131,57,28326,1,2,1:2:0:0:
183,140,28508,1,0,0:0:0:0:
86,225,28681,2,0,P|70:170|44:145,1,75.0000030845407,8|2,0:0|0:0,0:0:0:0:
261,0,29049,6,0,P|261:52|289:107,1,112.500000335277,2|0,1:2|0:0,0:0:0:0:
295,96,29417,2,0,P|334:85|399:69,1,75.0000030845407,8|2,0:0|0:0,0:0:0:0:
117,48,29785,2,0,P|81:57|45:67,1,75.0000030845407,2|0,1:2|0:0,0:0:0:0:
239,216,30140,1,8,0:0:0:0:
183,140,30317,1,2,0:0:0:0:
88,345,30495,2,0,P|114:307|201:275,1,112.500004626811,2|0,1:2|0:0,0:0:0:0:
180,287,30858,5,8,0:0:0:0:
0,270,31040,1,2,0:0:0:0:
94,361,31206,1,2,1:2:0:0:
245,224,31390,1,0,0:0:0:0:
345,319,31574,2,0,P|301:313|259:307,1,75.0000030845407,8|2,0:0|0:0,0:0:0:0:
492,382,31930,6,0,P|454:330|452:253,1,111.685000332848,2|0,1:2|0:0,0:0:0:0:
476,211,32277,2,0,P|516:237|522:268,1,75.0000030845407,8|2,0:0|0:0,0:0:0:0:
342,225,32642,2,0,P|350:185|369:99,1,112.500004626811,2|0,1:2|0:0,0:0:0:0:
374,107,33008,1,8,0:0:0:0:
363,306,33191,1,2,0:0:0:0:
247,86,33374,6,0,B|333:74|279:37|379:21,1,149.090909535235,2|8,1:2|0:0,0:0:0:0:
256,176,33919,1,2,0:0:0:0:
509,15,34101,1,2,1:2:0:0:
489,107,34283,1,0,0:0:0:0:
469,199,34464,1,8,0:0:0:0:
370,106,34646,1,2,0:0:0:0:
261,267,34828,6,0,P|172:283|122:299,1,112.500004626811,2|0,1:2|0:0,0:0:0:0:
64,349,35189,2,0,L|79:284,1,37.5000015422703,8|0,0:0|0:0,0:0:0:0:
91,236,35370,2,0,P|75:199|93:141,1,75.0000030845407,2|0,0:0|1:0,0:0:0:0:
234,15,35731,2,0,P|250:52|232:110,1,75.0000002235176,2|8,0:0|0:0,0:0:0:0:
0,38,36093,5,2,0:0:0:0:
87,80,36273,2,0,P|132:70|168:63,1,75.0000002235176,2|0,1:2|0:0,0:0:0:0:
333,33,36635,1,8,0:0:0:0:
187,188,36815,5,0,3:0:0:0:
187,188,36906,1,8,3:0:0:0:
187,188,36996,1,4,1:3:0:0:
170,281,37177,1,4,1:3:0:0:
255,327,37357,1,8,1:3:0:0:
321,260,37533,1,8,1:3:0:0:
512,349,37709,6,0,P|474:341|420:330,1,75.0000002235176,4|0,1:0|0:0,0:0:0:0:
431,344,38081,1,2,0:0:0:0:
498,255,38274,1,0,1:0:0:0:
379,154,38468,2,0,P|343:162|281:175,1,100.000000298023,10|2,0:0|0:0,0:0:0:0:
353,273,38978,5,0,1:0:0:0:
353,273,39066,1,0,1:0:0:0:
353,273,39156,1,2,1:2:0:0:
311,70,39345,1,8,0:0:0:0:
268,179,39522,1,2,0:0:0:0:
393,152,39697,1,0,1:0:0:0:
208,81,39872,2,0,P|154:82|112:34,1,100.000000298023,10|2,0:0|0:0,0:0:0:0:
38,220,40441,5,0,0:0:0:0:
38,220,40536,1,0,0:0:0:0:
38,220,40616,2,0,P|71:200|71:126,1,100.000000298023,2|2,1:2|0:0,0:0:0:0:
167,169,41158,1,0,1:0:0:0:
0,0,41338,6,0,P|8:49|14:98,1,100.000000298023,10|2,0:0|0:0,0:0:0:0:
167,169,41881,1,0,1:0:0:0:
167,169,41971,1,0,0:0:0:0:
167,169,42061,1,2,1:2:0:0:
98,283,42237,2,0,P|121:271|160:268,1,50.0000001490117,8|2,0:0|0:0,0:0:0:0:
212,338,42598,2,0,P|207:362|196:384,1,50.0000001490117,0|10,1:0|0:0,0:0:0:0:
243,248,42964,2,0,P|283:263|315:317,1,100.000000298023
344,387,43416,5,0,0:0:0:0:
344,387,43507,2,0,P|353:326|367:229,1,150.000006169081,4|2,1:0|0:0,0:0:0:0:
296,115,44055,1,0,1:0:0:0:
512,79,44238,2,0,P|470:88|431:141,1,100.000000298023,10|2,0:0|0:0,0:0:0:0:
512,260,44782,5,0,1:0:0:0:
512,260,44871,1,0,1:0:0:0:
512,260,44961,1,2,1:2:0:0:
361,159,45139,1,8,0:0:0:0:
366,238,45318,1,2,0:0:0:0:
434,130,45506,1,0,1:0:0:0:
278,43,45695,2,0,P|290:78|296:115,1,75.0000002235176,10|0,0:0|0:0,0:0:0:0:
126,298,46037,5,0,1:0:0:0:
94,296,46120,1,0,3:0:0:0:
69,269,46204,1,0,1:0:0:0:
71,232,46288,1,0,3:0:0:0:
96,213,46387,2,0,P|154:224|234:246,1,100.000000298023,4|0,1:0|0:0,0:0:0:0:
282,272,46766,1,8,0:0:0:0:
114,128,46935,2,0,P|163:140|212:149,1,100.000000298023,4|0,1:0|0:0,0:0:0:0:
335,384,47292,5,8,0:0:0:0:
352,347,47381,1,8,0:0:0:0:
369,310,47470,1,0,1:0:0:0:
512,223,47649,6,0,P|477:237|441:247,1,75.0000030845407,4|0,1:0|0:0,0:0:0:0:
181,265,48010,5,0,1:0:0:0:
164,228,48097,1,0,1:0:0:0:
124,225,48185,1,8,1:3:0:0:
101,246,48273,1,8,1:3:0:0:
67,251,48360,1,4,1:3:0:0:
39,232,48448,1,4,1:3:0:0:
48,200,48536,5,14,1:2:0:0:
464,18,48711,1,14,1:2:0:0:
215,73,49097,6,0,P|228:105|228:125,1,50.0000001490117,2|0,0:1|0:0,0:0:0:0:
234,198,49289,2,0,P|253:58|262:-9,1,200.000000596047,6|10,1:0|0:0,0:0:0:0:
354,314,49819,1,2,0:1:0:0:
134,271,50012,1,2,1:2:0:0:
222,355,50182,1,2,1:1:0:0:
366,194,50383,1,10,0:0:0:0:
442,252,50557,6,0,P|492:176|471:80,1,150.000000447035,6|0,1:0|0:0,0:0:0:0:
477,114,50918,1,2,1:1:0:0:
512,384,51097,2,0,P|480:345|433:330,1,100.000000298023,10|2,0:0|0:1,0:0:0:0:
128,384,51458,1,2,1:2:0:0:
272,274,51640,1,2,1:1:0:0:
5,128,51822,2,0,P|10:157|14:184,1,50.0000001490117,10|0,0:0|0:0,0:0:0:0:
103,210,52004,5,2,0:1:0:0:
103,210,52095,1,0,0:0:0:0:
103,210,52186,2,0,P|94:153|167:52,1,150.000000447035,6|0,1:0|0:0,0:0:0:0:
152,0,52526,1,10,0:0:0:0:
45,53,52698,1,2,0:1:0:0:
182,256,52891,1,2,1:2:0:0:
96,298,53085,2,0,P|46:282|-3:274,1,100.000000298023,2|10,1:1|1:2,0:0:0:0:
256,69,53429,5,6,1:0:0:0:
425,154,53601,1,2,0:1:0:0:
373,283,53781,1,2,1:1:0:0:
228,184,53962,1,10,0:0:0:0:
475,0,54133,2,0,P|459:73|434:155,1,150.000000447035,6|0,1:0|0:0,0:0:0:0:
493,201,54518,1,0,1:0:0:0:
256,69,54696,6,0,P|306:85|355:93,1,100.000000298023,10|2,0:0|0:1,0:0:0:0:
364,172,54964,1,0,0:0:0:0:
364,172,55053,2,0,P|299:192|226:297,1,200.000000596047,6|10,1:0|0:0,0:0:0:0:
218,143,55597,1,2,0:1:0:0:
337,384,55773,1,2,1:2:0:0:
144,216,55950,2,0,P|134:168|101:131,1,100.000000298023,2|10,1:1|0:0,0:0:0:0:
350,287,56309,6,0,P|416:273|466:264,1,100.000000298023,6|0,1:1|0:0,0:0:0:0:
218,143,56668,1,2,1:0:0:0:
100,377,56847,1,10,0:0:0:0:
17,333,57027,2,0,P|7:285|-1:228,1,100.000000298023,2|2,0:1|1:2,0:0:0:0:
288,0,57386,2,0,P|298:48|306:105,1,100.000000298023,2|10,1:1|0:0,0:0:0:0:
463,71,57749,2,0,P|452:22|445:-25,1,50.0000001490117,2|0,0:1|0:0,0:0:0:0:
324,207,57931,6,0,P|262:239|230:327,1,150.000000447035,6|8,1:1|1:3,0:0:0:0:
240,318,58300,1,4,1:3:0:0:
33,93,58484,2,0,P|120:141|219:142,1,200.000000596047,6|8,1:0|1:3,0:0:0:0:
373,11,59036,5,8,1:3:0:0:
155,323,59220,2,0,P|143:277|121:212,1,100.000000298023,6|0,1:0|0:0,0:0:0:0:
198,36,59581,5,8,1:3:0:0:
198,36,59942,5,4,1:3:0:0:
272,76,60124,5,8,1:3:0:0:
294,124,60216,1,8,1:3:0:0:
342,130,60307,1,8,1:3:0:0:
368,89,60399,1,8,1:3:0:0:
418,75,60490,1,4,1:3:0:0:
461,110,60582,1,4,1:3:0:0:
457,157,60673,1,4,1:3:0:0:
437,178,60761,1,4,1:3:0:0:
434,194,60850,2,0,P|481:208|551:238,1,100.000000298023,6|0,1:0|0:0,0:0:0:0:
160,384,61211,5,10,0:0:0:0:
206,135,61392,1,2,0:1:0:0:
413,354,61572,1,10,0:0:0:0:
323,322,61754,1,2,1:0:0:0:
461,281,61937,1,10,0:0:0:0:
336,13,62120,6,0,P|313:98|297:191,1,147.813333773852,6|0,1:0|0:0,0:0:0:0:
356,216,62478,1,2,1:0:0:0:
249,26,62653,1,10,0:0:0:0:
0,114,62829,1,2,0:1:0:0:
82,216,63010,1,10,0:0:0:0:
166,49,63192,2,0,P|92:23|29:21,1,100.550000299662,2|10,1:0|0:0,0:0:0:0:
249,26,63552,1,2,1:0:0:0:
170,318,63740,6,0,P|264:350|332:356,1,150.000000447035,6|0,1:0|0:0,0:0:0:0:
385,384,64112,1,10,0:0:0:0:
301,158,64299,1,2,0:1:0:0:
102,354,64485,1,10,0:0:0:0:
278,268,64654,1,2,1:0:0:0:
95,124,64834,1,10,0:0:0:0:
396,96,65005,5,6,1:0:0:0:
378,174,65180,1,10,0:0:0:0:
301,158,65355,1,2,0:1:0:0:
78,8,65536,5,10,0:0:0:0:
0,6,65718,1,6,1:0:0:0:
7,85,65902,2,0,P|20:151|34:250,1,150.000000447035,10|0,0:0|0:0,0:0:0:0:
115,244,66277,2,0,P|109:193|105:142,1,100.000000298023,10|2,0:0|1:0,0:0:0:0:
62,307,66624,1,6,1:0:0:0:
62,307,66989,5,10,0:0:0:0:
16,227,67177,1,2,0:1:0:0:
268,147,67366,1,10,0:0:0:0:
212,302,67542,1,2,1:0:0:0:
184,62,67722,1,10,0:0:0:0:
4,383,67903,6,0,P|47:353|154:331,1,151.000000447035,6|0,1:0|0:0,0:0:0:0:
201,378,68268,2,0,P|259:384|316:391,1,100.533333632947,2|10,0:1|0:0,0:0:0:0:
385,185,68634,2,0,P|390:234|395:284,1,100.560000299693,2|10,0:1|0:0,0:0:0:0:
462,88,68986,1,2,1:0:0:0:
301,291,69159,5,10,0:0:0:0:
373,360,69338,1,2,0:1:0:0:
232,218,69518,6,0,P|172:222|59:291,1,150.000000447035,6|0,1:0|0:0,0:0:0:0:
122,334,69877,2,0,L|100:406,1,50.0000001490117,8|0,0:0|0:0,0:0:0:0:
17,227,70057,2,0,P|23:179|53:128,1,100.000000298023,6|0,1:0|0:0,0:0:0:0:
0,351,70403,1,8,1:3:0:0:
129,150,70592,1,8,1:3:0:0:
308,303,70782,2,0,P|322:203|341:77,1,200.000000596047,6|8,1:0|1:3,0:0:0:0:
232,8,71334,2,0,P|251:30|258:59,1,60.0000001788141,8|0,0:0|0:0,0:0:0:0:
385,351,71518,5,8,2:3:0:0:
424,374,71606,1,8,2:3:0:0:
468,367,71694,1,8,2:0:0:0:
501,336,71782,1,8,2:0:0:0:
512,293,71870,1,8,2:0:0:0:
493,250,71959,1,8,2:0:0:0:
450,234,72047,1,8,1:2:0:0:
411,258,72135,1,8,1:2:0:0:
365,257,72223,1,8,1:2:0:0:
341,221,72312,1,8,1:2:0:0:
353,176,72417,6,0,P|429:149|505:127,1,150.000000447035,4|0,1:0|0:0,0:0:0:0:
504,119,72801,1,8,0:0:0:0:
206,232,72970,2,0,P|135:257|63:278,1,150.000000447035,4|0,1:0|0:0,0:0:0:0:
58,290,73333,1,8,0:0:0:0:
167,15,73502,6,0,B|188:84|229:40|251:118,1,133.333333730698,4|0,1:0|0:0,0:0:0:0:
276,189,73877,2,0,P|287:222|301:261,2,53.3333334922792,8|8|8,2:0|1:3|1:3,0:0:0:0:
300,25,74210,2,0,P|333:14|371:2,2,53.3333334922792,4|4|4,1:3|1:3|1:3,0:0:0:0:
167,140,74555,2,0,P|134:151|95:165,2,53.3333334922792,8|0|8,1:3|1:0|1:3,0:0:0:0:
352,142,74925,2,0,P|346:123|340:103,2,39.9999988985063,8|0|4,1:3|1:3|1:3,0:0:0:0:
428,384,75310,6,0,P|443:311|460:238,1,150.000000447035,4|0,1:0|0:0,0:0:0:0:
512,180,75673,1,8,0:0:0:0:
293,239,75855,2,0,P|246:256|228:363,1,150.000000447035,4|0,1:0|0:0,0:0:0:0:
294,360,76219,1,8,0:0:0:0:
512,180,76380,6,0,P|499:118|472:3,1,180.000000536442,4|0,1:0|0:0,0:0:0:0:
472,4,76922,6,0,P|425:15|358:36,1,80.0000002384188,8|0,1:3|0:0,0:0:0:0:
396,29,77287,1,8,1:3:0:0:
276,18,77470,5,4,1:3:0:0:
200,76,77661,1,0,0:0:0:0:
200,76,77756,1,8,1:3:0:0:
200,76,77852,1,8,1:3:0:0:
133,6,78037,1,0,1:0:0:0:
289,154,78222,6,0,B|304:200|355:203|355:203|405:265|328:323|328:323|365:278|313:225|372:225|372:225|430:224|462:181|459:128|425:101|400:97|379:108,1,560.000001668932,4|2,1:0|0:0,0:0:0:0:
119,155,79641,6,0,B|360:92|360:92|292:110|249:79|249:79|262:144|203:169|203:169|149:133|173:72|173:72|182:70|187:39|174:-4|113:-23|80:-11|56:36|71:75|93:85,1,805.000017753246,2|2,0:0|0:0,0:0:0:0:
67,226,81113,6,0,B|59:174|23:152|-19:156|-43:191|-30:229|-6:257|42:254|42:254|36:245|93:205|143:229|152:264|152:264|135:243|128:311|146:347|216:401|224:370|227:360|275:366|275:366|223:355|244:317|163:312|181:427|73:421|39:330|39:330|29:335|29:335|85:335|108:324|127:287,1,950.599997176059,2|2,0:0|0:0,0:0:0:0:
267,157,83811,5,2,0:0:0:0:
267,157,83901,1,2,0:0:0:0:
267,157,83990,2,0,B|254:122|276:90|276:90|241:99|216:77|216:77|214:21|198:-21|198:-21|207:2|228:17|228:17|241:99|154:84|158:181|213:213|213:213|215:228|215:228|229:187|269:164|313:176|313:176|383:196|377:266|377:266|373:267|373:267|346:301|351:364|351:364|356:373|356:373|357:362|357:362|336:303|290:287|290:287|291:292|291:292|326:232|293:177|293:177|310:143|354:134|348:175|404:163|426:113|426:113|402:113|384:96,1,1333.99995919414,2|0,0:0|0:0,0:0:0:0:
333,37,89380,6,0,L|341:1,1,20.0000000596047
