osu file format v14

[General]
AudioFilename: audio.mp3
AudioLeadIn: 0
PreviewTime: 59241
Countdown: 0
SampleSet: Soft
StackLeniency: 0.4
Mode: 0
LetterboxInBreaks: 0
WidescreenStoryboard: 0

[Editor]
Bookmarks: 670,9810,18953,37239,55524,60096,78384,96669,101241,119527,124098,142384,160669,169812,178955,197241,215527
DistanceSpacing: 2.1
BeatDivisor: 4
GridSize: 8
TimelineZoom: 1

[Metadata]
Title:Barricades
TitleUnicode:Barricades
Artist:yosh
ArtistUnicode:yosh
Creator:robicoco101
Version:Jaeger
Source:進撃の巨人
Tags:
BeatmapID:1955226
BeatmapSetID:935924

[Difficulty]
HPDrainRate:6
CircleSize:3.8
OverallDifficulty:8
ApproachRate:9.2
SliderMultiplier:1.4
SliderTickRate:1

[Events]
//Background and Video events
0,0,"wp1975674.jpg",0,0
//Break Periods
//Storyboard Layer 0 (Background)
//Storyboard Layer 1 (Fail)
//Storyboard Layer 2 (Pass)
//Storyboard Layer 3 (Foreground)
//Storyboard Sound Samples

[TimingPoints]
670,571.428571428571,4,2,0,50,1,0
670,-62.5,4,2,0,50,0,0
9812,-55.5555555555556,4,2,0,50,0,0
18953,-50,4,2,0,50,0,0
37241,-71.4285714285714,4,2,0,50,0,0
55527,-166.666666666667,4,2,0,50,0,0
56241,-166.666666666667,4,2,0,5,0,0
56384,-166.666666666667,4,2,0,50,0,0
57098,-166.666666666667,4,2,0,5,0,0
57241,-166.666666666667,4,2,0,50,0,0
60098,-38.4615384615385,4,2,0,50,0,1
78384,-38.4615384615385,4,2,0,50,0,0
96669,-83.3333333333333,4,2,0,50,0,0
101241,-71.4285714285714,4,2,0,50,0,0
110384,-83.3333333333333,4,2,0,50,0,0
119527,-166.666666666667,4,2,0,50,0,0
124098,-35.7142857142857,4,2,0,50,0,1
142384,-38.4615384615385,4,2,0,50,0,0
160669,-62.5,4,2,0,50,0,0
169812,-83.3333333333333,4,2,0,50,0,0
178955,-38.4615384615385,4,2,0,50,0,1
197241,-38.4615384615385,4,2,0,50,0,0
215527,-38.4615384615385,4,2,0,50,0,0

[Colours]
Combo1 : 180,200,252
Combo2 : 247,247,247
Combo3 : 255,138,138

[HitObjects]
72,238,670,37,2,0:0:0:0:
72,238,955,5,0,0:0:0:0:
226,172,1098,1,0,0:0:0:0:
226,172,1384,5,0,0:0:0:0:
189,300,1527,1,0,0:0:0:0:
316,270,1669,1,0,0:0:0:0:
325,180,1812,5,0,0:0:0:0:
319,96,1955,1,0,0:0:0:0:
381,39,2098,1,0,0:0:0:0:
464,52,2241,1,0,0:0:0:0:
505,125,2384,1,0,0:0:0:0:
474,203,2527,1,0,0:0:0:0:
397,228,2669,2,0,P|390:185|403:134,1,84
397,145,2955,5,2,0:0:0:0:
397,145,3241,5,0,0:0:0:0:
250,139,3384,1,0,0:0:0:0:
250,139,3669,5,0,0:0:0:0:
326,239,3812,1,0,0:0:0:0:
199,253,3955,1,0,0:0:0:0:
173,173,4098,5,0,0:0:0:0:
117,236,4241,1,0,0:0:0:0:
90,156,4384,1,0,0:0:0:0:
34,219,4527,1,0,0:0:0:0:
61,299,4669,1,0,0:0:0:0:
144,316,4812,1,0,0:0:0:0:
117,236,4955,2,0,P|179:241|212:266,1,84
196,251,5241,5,2,0:0:0:0:
201,258,5527,5,0,0:0:0:0:
361,212,5669,1,0,0:0:0:0:
361,212,5955,5,0,0:0:0:0:
421,101,6098,1,0,0:0:0:0:
302,111,6241,1,0,0:0:0:0:
266,186,6384,5,0,0:0:0:0:
220,118,6527,1,0,0:0:0:0:
174,51,6669,1,0,0:0:0:0:
139,125,6812,1,0,0:0:0:0:
93,58,6955,1,0,0:0:0:0:
58,132,7098,1,0,0:0:0:0:
103,198,7241,2,0,P|134:158|137:113,1,84
139,125,7527,5,2,0:0:0:0:
139,125,7812,5,0,0:0:0:0:
233,273,7955,1,0,0:0:0:0:
233,273,8241,5,0,0:0:0:0:
343,362,8384,1,0,0:0:0:0:
362,218,8527,1,0,0:0:0:0:
220,303,8669,5,0,0:0:0:0:
385,350,8812,1,0,0:0:0:0:
337,178,8955,1,0,0:0:0:0:
194,308,9098,5,0,0:0:0:0:
193,310,9241,2,0,P|202:277|199:241,1,56
89,145,9527,2,0,P|80:178|83:214,1,56
255,148,9812,6,0,P|264:115|261:79,1,56
185,110,10098,1,0,0:0:0:0:
211,35,10241,2,0,P|237:18|268:15,1,62.9999980773926
373,147,10527,2,0,P|404:144|432:126,1,62.9999980773926
308,100,10812,2,0,P|294:127|294:161,1,62.9999980773926
378,294,11098,2,0,P|364:322|340:341,1,62.9999980773926
247,245,11384,5,0,0:0:0:0:
247,245,11527,2,0,P|284:259|319:312,1,62.9999980773926
231,324,11812,2,0,P|194:310|159:257,1,62.9999980773926
86,138,12098,6,0,P|125:145|148:171,1,62.9999980773926
84,214,12384,1,0,0:0:0:0:
11,160,12527,2,0,P|6:120|24:90,1,62.9999980773926
215,137,12812,2,0,P|220:177|202:207,1,62.9999980773926
188,60,13098,2,0,P|228:55|258:73,1,62.9999980773926
233,275,13384,2,0,P|193:280|163:262,1,62.9999980773926
24,348,13670,5,0,0:0:0:0:
24,348,13812,2,0,P|64:343|94:361,1,62.9999980773926
180,384,14098,2,0,P|210:377|237:357,1,62.9999980773926
312,208,14384,6,0,P|286:224|259:277,1,62.9999980773926
345,285,14670,1,0,0:0:0:0:
395,212,14812,2,0,P|390:181|352:136,1,62.9999980773926
230,91,15098,2,0,P|234:121|272:166,1,62.9999980773926
384,8,15384,1,0,0:0:0:0:
351,79,15527,1,0,0:0:0:0:
244,8,15669,2,0,P|213:9|164:42,1,62.9999980773926
125,87,15956,5,0,0:0:0:0:
125,87,16098,2,0,P|117:57|74:16,1,62.9999980773926
0,13,16384,2,0,P|7:42|50:83,1,62.9999980773926
190,146,16669,6,0,P|210:169|218:200,1,62.9999980773926
138,204,16955,1,0,0:0:0:0:
132,331,17098,2,0,P|139:361|159:384,1,62.9999980773926
288,199,17384,2,0,P|257:190|227:196,1,62.9999980773926
254,267,17669,1,0,0:0:0:0:
419,246,17812,1,0,0:0:0:0:
321,115,17955,1,0,0:0:0:0:
131,207,18098,5,0,0:0:0:0:
202,77,18241,1,0,0:0:0:0:
67,8,18384,1,0,0:0:0:0:
0,135,18527,1,0,0:0:0:0:
97,111,18669,1,0,0:0:0:0:
97,111,18812,1,0,0:0:0:0:
348,11,18955,6,0,L|345:100,1,70
337,253,19241,1,0,0:0:0:0:
291,177,19384,1,0,0:0:0:0:
471,308,19527,2,0,P|488:343|486:385,1,70
337,259,19812,1,0,0:0:0:0:
341,263,19955,2,0,P|304:277|263:272,1,70
122,196,20241,5,0,0:0:0:0:
123,323,20384,1,0,0:0:0:0:
180,262,20527,1,0,0:0:0:0:
13,191,20669,2,0,P|1:162|4:108,1,70
90,52,20955,1,0,0:0:0:0:
10,115,21098,1,0,0:0:0:0:
209,154,21241,6,0,P|247:161|304:143,1,70
321,30,21527,1,0,0:0:0:0:
247,83,21669,1,0,0:0:0:0:
445,156,21812,2,0,P|461:186|467:220,1,70
381,211,22098,1,0,0:0:0:0:
372,120,22241,2,0,P|393:92|422:73,1,70
510,0,22527,6,0,L|418:1,1,70
346,6,22812,1,0,0:0:0:0:
346,6,22955,2,0,P|335:37|293:69,1,70
260,0,23241,1,0,0:0:0:0:
201,115,23384,1,0,0:0:0:0:
83,4,23527,5,0,0:0:0:0:
83,4,23669,2,0,P|98:32|94:85,1,70
20,54,23955,1,0,0:0:0:0:
114,229,24098,2,0,P|108:261|72:300,1,70
32,227,24384,1,0,0:0:0:0:
9,319,24527,2,0,P|26:349|55:368,1,70
281,276,24812,6,0,P|301:304|306:338,1,70
229,335,25098,1,0,0:0:0:0:
376,185,25241,2,0,P|406:168|441:168,1,70
510,214,25527,1,0,0:0:0:0:
428,252,25669,1,0,0:0:0:0:
493,28,25812,6,0,P|475:57|446:76,1,70
366,24,26098,1,0,0:0:0:0:
301,89,26241,1,0,0:0:0:0:
337,267,26384,2,0,P|304:278|269:274,1,70
296,203,26669,1,0,0:0:0:0:
311,354,26812,1,0,0:0:0:0:
177,304,26955,5,0,0:0:0:0:
23,347,27098,1,0,0:0:0:0:
180,293,27241,1,0,0:0:0:0:
17,247,27384,1,0,0:0:0:0:
180,198,27527,2,0,P|142:198|109:180,1,70
98,86,27812,1,0,0:0:0:0:
34,147,27955,1,0,0:0:0:0:
277,156,28098,6,0,P|315:156|348:138,1,70
421,86,28384,1,0,0:0:0:0:
331,42,28527,1,0,0:0:0:0:
448,197,28669,2,0,P|463:231|460:269,1,70
348,153,28955,1,0,0:0:0:0:
361,290,29098,2,0,P|366:327|354:362,1,70
177,228,29384,5,0,0:0:0:0:
282,319,29527,1,0,0:0:0:0:
155,364,29669,1,0,0:0:0:0:
139,160,29812,2,0,P|148:120|168:88,1,70
223,151,30098,1,0,0:0:0:0:
242,72,30241,1,0,0:0:0:0:
81,12,30384,6,0,P|46:33|22:62,1,70
55,186,30669,1,0,0:0:0:0:
0,131,30812,1,0,0:0:0:0:
181,214,30955,2,0,P|221:219|258:212,1,70
215,144,31241,1,0,0:0:0:0:
301,149,31384,2,0,P|324:182|333:219,1,70
311,361,31669,5,0,0:0:0:0:
464,321,31812,1,0,0:0:0:0:
305,284,31955,1,0,0:0:0:0:
403,83,32098,5,0,0:0:0:0:
278,0,32241,1,0,0:0:0:0:
177,118,32384,1,0,0:0:0:0:
293,212,32527,1,0,0:0:0:0:
171,102,32669,6,0,P|134:99|86:129,1,70
96,197,32955,1,0,0:0:0:0:
32,139,33098,1,0,0:0:0:0:
100,287,33241,2,0,P|118:319|170:341,1,70
174,266,33527,1,0,0:0:0:0:
241,364,33669,2,0,P|276:373|328:351,1,70
304,233,33955,5,0,0:0:0:0:
439,213,34098,1,0,0:0:0:0:
385,335,34241,1,0,0:0:0:0:
372,140,34384,2,0,P|376:97|399:63,1,70
452,124,34669,1,0,0:0:0:0:
468,41,34812,1,0,0:0:0:0:
294,153,34955,5,0,0:0:0:0:
209,22,35098,1,0,0:0:0:0:
282,163,35241,1,0,0:0:0:0:
318,10,35384,1,0,0:0:0:0:
141,140,35527,2,0,P|103:155|68:152,1,70
90,75,35812,1,0,0:0:0:0:
33,14,35955,2,0,P|12:49|9:84,1,70
113,225,36241,1,0,0:0:0:0:
0,359,36384,6,0,P|35:336|77:340,1,70
217,345,36669,2,0,P|246:327|264:297,1,70
228,216,36955,1,0,0:0:0:0:
364,345,37098,1,0,0:0:0:0:
403,152,37241,5,0,0:0:0:0:
407,127,37384,1,0,0:0:0:0:
411,102,37527,1,0,0:0:0:0:
415,78,37669,1,0,0:0:0:0:
302,5,37812,2,0,P|246:0|191:28,1,97.9999970092774
208,15,38241,1,0,0:0:0:0:
223,162,38384,2,0,P|255:116|257:54,1,97.9999970092774
262,76,38812,1,0,0:0:0:0:
117,17,38955,2,0,P|140:67|192:101,1,97.9999970092774
310,7,39384,5,0,0:0:0:0:
310,7,39527,2,0,L|382:14,1,48.9999985046387
461,77,39812,2,0,L|412:81,1,48.9999985046387
316,135,40098,1,0,0:0:0:0:
316,135,40241,2,0,L|366:141,1,48.9999985046387
447,190,40527,1,0,0:0:0:0:
397,346,40669,6,0,L|390:293,1,48.9999985046387
355,220,40955,1,0,0:0:0:0:
294,340,41098,2,0,L|287:287,1,48.9999985046387
266,205,41384,1,0,0:0:0:0:
194,254,41527,1,0,0:0:0:0:
175,172,41669,1,0,0:0:0:0:
102,312,41812,1,0,0:0:0:0:
113,227,41955,1,0,0:0:0:0:
113,227,42098,6,0,P|82:220|44:197,1,48.9999985046387
57,102,42384,2,0,P|87:108|126:132,1,48.9999985046387
163,164,42669,1,0,0:0:0:0:
198,22,42812,2,0,P|232:86|222:125,1,97.9999970092774
108,107,43241,2,0,L|158:85,1,48.9999985046387
355,93,43527,2,0,L|305:71,1,48.9999985046387
283,0,43812,1,0,0:0:0:0:
291,168,43955,2,0,P|317:237|351:263,1,97.9999970092774
416,163,44384,6,0,L|347:190,1,48.9999985046387
289,312,44669,2,0,L|358:339,1,48.9999985046387
417,309,44955,1,0,0:0:0:0:
417,309,45098,2,0,L|414:373,1,48.9999985046387
285,384,45384,1,0,0:0:0:0:
212,331,45527,1,0,0:0:0:0:
139,380,45669,1,0,0:0:0:0:
208,248,45812,2,0,P|150:274|132:309,1,97.9999970092774
277,288,46241,1,0,0:0:0:0:
281,272,46384,1,0,0:0:0:0:
285,257,46527,1,0,0:0:0:0:
318,126,46669,5,0,0:0:0:0:
323,111,46812,1,0,0:0:0:0:
226,171,46955,2,0,P|178:185|118:163,1,97.9999970092774
132,173,47384,1,0,0:0:0:0:
128,29,47527,2,0,P|164:62|175:126,1,97.9999970092774
176,108,47955,1,0,0:0:0:0:
54,187,48098,2,0,P|65:138|114:97,1,97.9999970092774,0|0,3:0|3:0,3:0:0:0:
176,108,48527,5,0,0:0:0:0:
270,128,48669,2,0,L|337:133,1,48.9999985046387
325,32,48955,2,0,L|373:28,1,48.9999985046387
475,122,49241,1,0,0:0:0:0:
475,122,49384,2,0,P|496:179|475:248,1,97.9999970092774
372,186,49812,2,0,L|432:175,1,48.9999985046387
412,261,50098,1,0,0:0:0:0:
292,206,50241,1,0,0:0:0:0:
292,206,50384,2,0,L|205:224,1,48.9999985046387
114,236,50669,5,0,0:0:0:0:
114,236,50812,1,0,0:0:0:0:
150,115,50955,1,0,0:0:0:0:
31,141,51098,1,0,0:0:0:0:
31,141,51241,2,0,L|19:226,1,48.9999985046387
12,333,51527,1,0,0:0:0:0:
140,350,51669,5,0,0:0:0:0:
168,353,51812,1,0,0:0:0:0:
194,342,51955,1,0,0:0:0:0:
220,326,52098,2,0,P|231:299|229:273,1,48.9999985046387
164,236,52384,2,0,P|230:198|271:209,1,97.9999970092774
342,345,52812,2,0,P|320:319|317:283,1,48.9999985046387
328,220,53098,1,0,0:0:0:0:
351,133,53241,1,0,0:0:0:0:
411,199,53384,1,0,0:0:0:0:
480,270,53527,1,0,0:0:0:0:
387,281,53669,1,0,0:0:0:0:
436,116,53812,1,0,0:0:0:0:
306,72,53955,5,0,0:0:0:0:
306,72,54097,1,0,0:0:0:0:
210,58,54240,1,0,0:0:0:0:
246,145,54383,1,0,0:0:0:0:
104,141,54526,1,0,0:0:0:0:
101,139,54669,2,0,P|85:184|99:244,1,97.9999970092774
259,235,55098,2,0,P|201:197|170:194,1,97.9999970092774
92,341,55527,6,0,P|153:312|178:264,1,104.999996795654
172,282,56384,6,0,P|193:325|248:343,1,104.999996795654
244,343,57241,6,0,L|256:308,1,20.9999993591309
251,323,57527,6,0,B|293:349|348:329|321:314|374:307|415:324,1,167.999994873047
132,253,59384,5,0,0:0:0:0:
129,263,59527,1,0,0:0:0:0:
126,273,59670,1,0,0:0:0:0:
123,283,59813,1,0,0:0:0:0:
120,294,59955,1,0,0:0:0:0:
216,71,60098,6,0,P|170:65|130:87,1,90.9999958343508
34,317,60384,2,0,P|80:323|120:301,1,90.9999958343508
0,153,60669,1,0,0:0:0:0:
0,153,60812,2,0,P|73:209|186:188,1,181.999991668702
241,127,61241,1,0,0:0:0:0:
263,341,61384,1,0,0:0:0:0:
214,129,61527,1,0,0:0:0:0:
466,208,61669,5,0,0:0:0:0:
401,4,61812,1,0,0:0:0:0:
302,179,61955,1,0,0:0:0:0:
494,112,62098,1,0,0:0:0:0:
289,49,62241,1,0,0:0:0:0:
394,244,62384,2,0,P|406:295|393:345,1,90.9999958343508
92,292,62669,6,0,P|62:197|142:130,1,181.999991668702
282,155,63098,2,0,P|214:228|116:192,1,181.999991668702
72,58,63527,2,0,P|169:79|187:182,1,181.999991668702
237,311,63955,5,0,0:0:0:0:
305,234,64098,1,0,0:0:0:0:
370,355,64241,1,0,0:0:0:0:
216,223,64384,1,0,0:0:0:0:
390,122,64527,1,0,0:0:0:0:
369,368,64669,2,0,P|400:330|416:264,1,90.9999958343508
350,40,64955,2,0,P|319:78|303:144,1,90.9999958343508
467,155,65241,1,0,0:0:0:0:
467,155,65384,6,0,P|437:185|378:205,1,90.9999958343508
208,68,65669,1,0,0:0:0:0:
208,68,65812,2,0,P|123:91|57:176,1,181.999991668702
60,283,66241,1,0,0:0:0:0:
170,163,66384,1,0,0:0:0:0:
229,373,66527,5,0,0:0:0:0:
113,221,66669,1,0,0:0:0:0:
307,320,66812,2,0,P|351:326|393:310,2,90.9999958343508
219,237,67241,1,0,0:0:0:0:
392,150,67384,2,0,P|435:134|492:147,1,90.9999958343508
445,213,67669,1,0,0:0:0:0:
387,25,67812,5,0,0:0:0:0:
387,25,67955,2,0,P|354:57|296:69,1,90.9999958343508
163,69,68241,1,0,0:0:0:0:
32,8,68384,1,0,0:0:0:0:
32,8,68527,2,0,P|51:48|52:116,1,90.9999958343508
6,248,68812,1,0,0:0:0:0:
134,115,68955,1,0,0:0:0:0:
28,330,69098,1,0,0:0:0:0:
221,164,69241,6,0,P|261:135|323:134,1,90.9999958343508
512,281,69527,2,0,P|471:309|410:311,1,90.9999958343508
494,147,69812,1,0,0:0:0:0:
494,147,69955,2,0,P|453:175|392:177,1,90.9999958343508
379,69,70241,1,0,0:0:0:0:
296,267,70384,1,0,0:0:0:0:
195,65,70527,1,0,0:0:0:0:
285,260,70669,1,0,0:0:0:0:
285,40,70812,5,0,0:0:0:0:
175,216,70955,1,0,0:0:0:0:
80,40,71098,1,0,0:0:0:0:
279,125,71241,1,0,0:0:0:0:
107,273,71384,1,0,0:0:0:0:
362,124,71527,2,0,L|368:237,1,90.9999958343508
508,383,71812,6,0,L|514:270,1,90.9999958343508
509,119,72098,1,0,0:0:0:0:
509,119,72241,2,0,P|475:214|381:227,1,181.999991668702
270,112,72669,2,0,P|369:93|427:168,1,181.999991668702
334,182,73098,5,0,0:0:0:0:
266,20,73241,1,0,0:0:0:0:
159,213,73384,1,0,0:0:0:0:
353,95,73527,1,0,0:0:0:0:
170,43,73669,1,0,0:0:0:0:
241,267,73812,2,0,P|250:311|243:362,1,90.9999958343508
69,225,74098,2,0,P|60:181|67:130,1,90.9999958343508
252,82,74384,1,0,0:0:0:0:
252,82,74527,6,0,P|202:78|155:46,1,90.9999958343508
229,2,74812,1,0,0:0:0:0:
386,129,74955,2,0,P|452:133|413:60,1,181.999991668702
331,63,75384,1,0,0:0:0:0:
385,216,75527,1,0,0:0:0:0:
197,198,75669,1,0,0:0:0:0:
375,208,75812,1,0,0:0:0:0:
179,92,75955,1,0,0:0:0:0:
179,92,76098,6,0,P|132:104|88:140,1,90.9999958343508
252,264,76384,2,0,P|351:263|390:166,1,181.999991668702
323,40,76813,2,0,P|273:126|338:208,1,181.999991668702
480,210,77242,2,0,P|429:124|326:138,1,181.999991668702
356,121,77669,5,0,0:0:0:0:
180,35,77812,1,0,0:0:0:0:
203,233,77955,1,0,0:0:0:0:
172,45,78098,1,0,0:0:0:0:
35,221,78241,1,0,0:0:0:0:
273,291,78384,6,0,P|324:288|364:245,1,90.9999958343508
405,52,78669,2,0,P|354:55|314:98,1,90.9999958343508
512,222,78955,2,0,P|509:171|466:131,1,90.9999958343508
241,67,79241,2,0,P|261:140|358:158,1,181.999991668702
324,79,79669,5,0,0:0:0:0:
165,74,79812,2,0,P|119:68|74:48,1,90.9999958343508
4,0,80098,1,0,0:0:0:0:
48,121,80241,1,0,0:0:0:0:
3,314,80384,1,0,0:0:0:0:
127,156,80527,2,0,P|120:201|126:250,1,90.9999958343508
245,354,80812,1,0,0:0:0:0:
248,355,80955,6,0,L|253:222,1,90.9999958343508
258,128,81241,1,0,0:0:0:0:
344,212,81384,1,0,0:0:0:0:
357,0,81527,2,0,L|352:90,1,90.9999958343508
347,215,81812,1,0,0:0:0:0:
447,141,81955,1,0,0:0:0:0:
440,319,82098,6,0,L|444:223,1,90.9999958343508
444,139,82384,1,0,0:0:0:0:
485,19,82527,1,0,0:0:0:0:
485,19,82669,1,0,0:0:0:0:
313,99,82812,2,0,P|275:118|215:100,1,90.9999958343508
66,42,83098,1,0,0:0:0:0:
66,42,83241,6,0,P|54:82|83:138,1,90.9999958343508
220,202,83527,1,0,0:0:0:0:
313,99,83669,1,0,0:0:0:0:
313,99,83812,2,0,P|343:133|343:205,1,90.9999958343508
289,271,84098,1,0,0:0:0:0:
460,206,84241,1,0,0:0:0:0:
286,268,84384,6,0,P|249:295|234:365,1,90.9999958343508
323,347,84669,1,0,0:0:0:0:
384,277,84812,1,0,0:0:0:0:
165,289,84955,1,0,0:0:0:0:
27,353,85098,2,0,P|63:325|78:255,1,90.9999958343508
0,169,85384,1,0,0:0:0:0:
0,169,85527,6,0,L|114:167,1,90.9999958343508
218,163,85812,1,0,0:0:0:0:
142,74,85955,1,0,0:0:0:0:
353,68,86098,2,0,L|239:70,1,90.9999958343508
145,77,86384,1,0,0:0:0:0:
221,166,86527,1,0,0:0:0:0:
439,166,86669,2,0,L|325:168,1,90.9999958343508
224,169,86955,2,0,L|457:164,1,181.999991668702
512,165,87384,1,0,0:0:0:0:
358,334,87527,6,0,P|308:346|257:318,1,90.9999958343508
157,147,87812,2,0,P|206:134|257:162,1,90.9999958343508
109,341,88098,2,0,P|96:291|124:240,1,90.9999958343508
319,110,88384,2,0,P|322:185|235:232,1,181.999991668702
245,150,88812,1,0,0:0:0:0:
396,34,88955,6,0,P|439:14|494:29,1,90.9999958343508
444,99,89241,1,0,0:0:0:0:
383,158,89384,1,0,0:0:0:0:
397,307,89527,1,0,0:0:0:0:
214,345,89669,2,0,P|177:322|158:267,1,90.9999958343508
246,57,89955,1,0,0:0:0:0:
246,57,90098,6,0,L|243:155,1,90.9999958343508
239,266,90384,1,0,0:0:0:0:
127,205,90527,1,0,0:0:0:0:
124,384,90669,2,0,L|126:294,1,90.9999958343508
124,202,90955,1,0,0:0:0:0:
25,137,91098,1,0,0:0:0:0:
16,346,91241,6,0,L|18:255,1,90.9999958343508
28,140,91527,1,0,0:0:0:0:
116,53,91669,1,0,0:0:0:0:
116,53,91812,1,0,0:0:0:0:
206,199,91955,2,0,P|244:222|320:213,1,90.9999958343508
211,122,92241,1,0,0:0:0:0:
376,198,92384,6,0,P|354:288|274:315,1,181.999991668702
214,124,92812,1,0,0:0:0:0:
357,112,92955,2,0,P|410:117|455:162,1,90.9999958343508
452,226,93241,1,0,0:0:0:0:
512,173,93384,1,0,0:0:0:0:
358,28,93527,6,0,P|315:14|271:23,1,90.9999958343508
206,117,93812,1,0,0:0:0:0:
164,22,93955,1,0,0:0:0:0:
152,244,94098,1,0,0:0:0:0:
311,153,94241,2,0,P|259:235|259:239,1,90.9999958343508
369,384,94527,1,0,0:0:0:0:
369,384,94669,6,0,L|374:269,1,90.9999958343508
379,178,94955,1,0,0:0:0:0:
477,242,95098,1,0,0:0:0:0:
488,37,95241,2,0,L|484:127,1,90.9999958343508
480,245,95527,1,0,0:0:0:0:
382,181,95669,1,0,0:0:0:0:
390,0,95812,2,0,L|386:90,1,90.9999958343508
382,181,96098,2,0,L|390:-24,1,181.999991668702
485,35,96527,1,0,0:0:0:0:
266,20,96669,5,0,0:0:0:0:
177,20,96812,1,0,0:0:0:0:
175,108,96955,1,0,0:0:0:0:
266,108,97098,1,0,0:0:0:0:
266,108,97384,5,0,0:0:0:0:
218,182,97527,1,0,0:0:0:0:
170,255,97669,1,0,0:0:0:0:
121,328,97812,5,0,0:0:0:0:
49,276,97955,1,0,0:0:0:0:
97,202,98098,1,0,0:0:0:0:
171,255,98241,1,0,0:0:0:0:
211,333,98384,5,0,0:0:0:0:
263,262,98527,1,0,0:0:0:0:
302,340,98669,1,0,0:0:0:0:
302,340,98955,5,0,0:0:0:0:
382,303,99098,1,0,0:0:0:0:
341,224,99241,1,0,0:0:0:0:
418,182,99384,1,0,0:0:0:0:
418,182,99669,5,0,0:0:0:0:
337,144,99812,1,0,0:0:0:0:
263,192,99955,1,0,0:0:0:0:
185,148,100098,5,0,0:0:0:0:
241,79,100241,1,0,0:0:0:0:
170,26,100384,1,0,0:0:0:0:
114,94,100527,1,0,0:0:0:0:
107,181,100669,5,0,0:0:0:0:
19,193,100812,1,0,0:0:0:0:
70,265,100955,1,0,0:0:0:0:
377,325,101241,5,0,0:0:0:0:
346,241,101384,1,0,0:0:0:0:
435,260,101527,2,0,L|441:188,1,48.9999985046387
510,168,101812,2,0,L|505:120,1,48.9999985046387
497,42,102098,1,0,0:0:0:0:
422,100,102241,1,0,0:0:0:0:
264,28,102384,6,0,P|214:11|156:36,1,97.9999970092774
171,23,102812,1,0,0:0:0:0:
163,174,102955,2,0,P|202:139|210:76,1,97.9999970092774
212,96,103384,1,0,0:0:0:0:
94,71,103527,2,0,L|143:106,1,48.9999985046387
237,214,103812,2,0,L|188:249,1,48.9999985046387
106,246,104098,1,0,0:0:0:0:
162,324,104241,2,0,L|214:326,1,48.9999985046387
293,356,104527,1,0,0:0:0:0:
347,212,104669,6,0,L|353:283,1,48.9999985046387
427,200,104955,1,0,0:0:0:0:
276,145,105098,2,0,L|269:217,1,48.9999985046387
197,125,105384,1,0,0:0:0:0:
105,39,105527,2,0,L|114:150,1,97.9999970092774
112,136,105955,1,0,0:0:0:0:
57,264,106098,6,0,L|51:327,1,48.9999985046387
150,312,106384,2,0,L|155:375,1,48.9999985046387
256,373,106669,1,0,0:0:0:0:
344,335,106812,2,0,P|385:270|369:225,1,97.9999970092774
297,267,107241,2,0,L|233:262,1,48.9999985046387
245,181,107527,2,0,L|181:186,1,48.9999985046387,0|0,3:0|0:0,0:0:0:0:
158,267,107812,1,0,0:0:0:0:
213,335,107955,1,0,0:0:0:0:
109,184,108098,1,0,0:0:0:0:
57,264,108241,1,0,0:0:0:0:
21,132,108384,6,0,L|27:203,1,48.9999985046387
103,97,108669,2,0,P|149:42|193:38,1,97.9999970092774
179,115,109098,2,0,L|242:120,1,48.9999985046387
320,121,109384,1,0,0:0:0:0:
249,216,109527,1,0,0:0:0:0:
381,221,109669,1,0,0:0:0:0:
463,130,109812,2,0,P|496:80|493:34,1,97.9999970092774
495,43,110241,1,0,0:0:0:0:
416,59,110384,5,0,0:0:0:0:
304,22,110669,1,0,0:0:0:0:
304,22,110812,1,0,0:0:0:0:
304,22,110955,2,0,P|263:41|208:20,1,83.9999974365235
226,34,111384,1,0,0:0:0:0:
153,10,111527,2,0,P|146:50|165:87,1,83.9999974365235
165,87,111955,1,0,0:0:0:0:
217,152,112098,2,0,P|180:171|139:164,1,83.9999974365235
77,102,112527,5,0,0:0:0:0:
77,102,112669,2,0,L|67:171,1,41.9999987182618
75,231,112955,2,0,B|81:280|81:280|74:317,1,83.9999974365235
145,358,113384,2,0,L|155:317,1,41.9999987182618
154,317,113669,1,0,0:0:0:0:
272,306,113812,6,0,P|334:278|344:238,1,83.9999974365235
269,151,114241,2,0,P|262:218|291:247,1,83.9999974365235
407,227,114669,2,0,P|351:187|312:198,1,83.9999974365235
268,228,115098,1,0,0:0:0:0:
268,207,115240,1,0,0:0:0:0:
267,186,115383,1,0,0:0:0:0:
266,165,115526,1,0,0:0:0:0:
265,144,115669,5,0,0:0:0:0:
177,92,115812,1,0,0:0:0:0:
262,31,115955,1,0,0:0:0:0:
357,93,116098,2,0,P|383:97|421:97,1,41.9999987182618
469,40,116384,2,0,P|488:105|477:139,1,83.9999974365235
421,186,116812,2,0,B|407:217|417:255|428:228|437:282|417:317,1,125.999996154785
346,281,117384,1,0,0:0:0:0:
325,281,117526,1,0,0:0:0:0:
304,280,117669,1,0,0:0:0:0:
283,279,117812,1,0,0:0:0:0:
262,278,117955,5,0,0:0:0:0:
251,186,118098,1,0,0:0:0:0:
242,275,118241,1,0,0:0:0:0:
237,186,118384,2,0,L|233:140,1,41.9999987182618
319,120,118669,2,0,P|290:79|253:60,1,83.9999974365235
178,86,119098,2,0,P|136:82|99:62,1,83.9999974365235
44,1,119527,6,0,P|18:75|31:114,1,104.999996795654
23,98,120384,2,0,P|37:130|26:201,1,104.999996795654
27,198,121241,2,0,L|63:193,1,20.9999993591309
48,195,121527,2,0,P|54:250|125:184,1,209.999993591309
