osu file format v14

[General]
AudioFilename: audio.mp3
AudioLeadIn: 0
PreviewTime: 61752
Countdown: 1
SampleSet: Soft
StackLeniency: 0.7
Mode: 0
LetterboxInBreaks: 0
WidescreenStoryboard: 0

[Editor]
Bookmarks: 36752,62430,86430,129096,150430,171763,182430,202430
DistanceSpacing: 0.8
BeatDivisor: 4
GridSize: 16
TimelineZoom: 2

[Metadata]
Title:Say it
TitleUnicode:言って
Artist:yorushika
ArtistUnicode:ヨルシカ
Creator:Kaguya_Sama
Version:I can't forget you.
Source:夏草が邪魔をする
Tags:ヨルシカ 言って 夏草が邪魔をする yorushika Say it Say to n-buna
BeatmapID:1911132
BeatmapSetID:915097

[Difficulty]
HPDrainRate:6
CircleSize:4
OverallDifficulty:8.8
ApproachRate:9.2
SliderMultiplier:1.4
SliderTickRate:1

[Events]
//Background and Video events
0,0,"hgslkadh.PNG",0,0
//Break Periods
2,150630,160013
2,161296,162860
2,197096,199013
//Storyboard Layer 0 (Background)
//Storyboard Layer 1 (Fail)
//Storyboard Layer 2 (Pass)
//Storyboard Layer 3 (Foreground)
//Storyboard Sound Samples

[TimingPoints]
1097,333.333333333333,4,2,0,100,1,0
4430,-62.5,4,2,0,100,0,0
5263,-71.4285714285714,4,2,0,100,0,0
5763,-58.8235294117647,4,2,0,100,0,0
11763,-45.4545454545455,4,2,0,100,0,0
23596,-55.5555555555556,4,2,0,100,0,0
31594,-47.6190476190476,4,2,0,100,0,0
32430,-50,4,2,0,100,0,0
33430,-62.5,4,2,0,100,0,0
37263,-71.4285714285714,4,2,0,100,0,0
38430,-50,4,2,0,100,0,0
41763,-55.5555555555556,4,2,0,100,0,0
43763,-45.4545454545455,4,2,0,100,0,0
46430,-62.5,4,2,0,100,0,0
51430,-52.6315789473684,4,2,0,100,0,0
61763,-83.3333333333333,4,2,0,100,0,0
62096,-58.8235294117647,4,2,0,100,0,0
62430,-47.6190476190476,4,2,0,100,0,1
67763,-43.4782608695652,4,2,0,100,0,1
69096,-52.6315789473684,4,2,0,100,0,1
71596,-45.4545454545455,4,2,0,100,0,1
77096,-58.8235294117647,4,2,0,100,0,1
80346,-45.4545454545455,4,2,0,100,0,1
82763,-43.4782608695652,4,2,0,100,0,1
85763,-71.4285714285714,4,2,0,45,0,1
86430,-71.4285714285714,4,2,0,100,0,0
91763,-58.8235294117647,4,2,0,100,0,0
97096,-55.5555555555556,4,2,0,100,0,0
97430,-50,4,2,0,100,0,0
97530,-45.4545454545455,4,2,0,100,0,0
99096,-55.5555555555556,4,2,0,100,0,0
99763,-50,4,2,0,100,0,0
119930,-55.5555555555556,4,2,0,100,0,0
123763,-52.6315789473684,4,2,0,100,0,0
124430,-66.6666666666667,4,2,0,100,0,0
129096,-55.5555555555556,4,2,0,100,0,1
135596,-47.6190476190476,4,2,0,100,0,1
138263,-55.5555555555556,4,2,0,100,0,1
142430,-47.6190476190476,4,2,0,100,0,1
145096,-55.5555555555556,4,2,0,100,0,1
150430,-55.5555555555556,4,2,0,100,0,0
160763,-76.9230769230769,4,2,0,100,0,0
171763,-52.6315789473684,4,2,0,100,0,0
182430,-58.8235294117647,4,2,0,100,0,0
193263,-58.8235294117647,4,2,0,100,0,0
200096,-47.6190476190476,4,2,0,100,0,0
202430,-47.6190476190476,4,2,0,100,0,1
207430,-43.4782608695652,4,2,0,100,0,1
207763,-50,4,2,0,100,0,1
213096,-45.4545454545455,4,2,0,100,0,1
235763,-41.6666666666667,4,2,0,100,0,1
237096,-45.4545454545455,4,2,0,100,0,0

[HitObjects]
184,71,1097,6,0,P|122:103|82:294,1,280
228,213,2096,1,0,0:0:0:0:
235,365,2263,2,0,L|339:266,1,140
471,68,2930,1,0,0:0:0:0:
287,88,3096,5,0,0:0:0:0:
287,88,3430,1,0,0:0:0:0:
413,271,3763,5,0,0:0:0:0:
223,270,3930,1,0,0:0:0:0:
375,159,4096,1,0,0:0:0:0:
185,159,4263,1,0,0:0:0:0:
97,246,4430,6,0,P|73:300|87:364,1,112
209,338,4763,2,0,P|233:284|218:222,1,112
469,49,5263,6,0,B|436:151|436:151|441:163|441:163|402:272,1,195.999994018555
314,333,5763,2,0,B|237:362|237:362|267:286|267:286|274:282|274:282|298:216,1,238.00000453949
307,196,6263,1,0,0:0:0:0:
339,90,6430,5,0,0:0:0:0:
173,105,6596,1,0,0:0:0:0:
360,28,6763,5,0,0:0:0:0:
147,154,6930,1,0,0:0:0:0:
310,194,7096,6,0,P|281:257|219:308,1,119.000002269745
178,361,7430,2,0,L|158:194,1,119.000002269745
153,124,7763,1,0,0:0:0:0:
37,152,7930,1,0,0:0:0:0:
47,270,8096,1,0,0:0:0:0:
163,242,8263,1,0,0:0:0:0:
512,17,8596,5,0,0:0:0:0:
476,143,8763,1,0,0:0:0:0:
378,55,8930,1,0,0:0:0:0:
261,4,9096,2,0,B|203:55|203:55|183:143,1,119.000002269745
128,175,9430,2,0,B|201:199|201:199|287:173,1,119.000002269745
339,205,9763,2,0,B|323:129|323:129|257:67,1,119.000002269745
150,61,10096,1,0,0:0:0:0:
251,245,10263,1,0,0:0:0:0:
63,323,10596,6,0,B|33:246|33:246|45:166|45:166|16:86,1,238.00000453949
104,119,11096,2,0,B|204:138|204:138|292:133,1,178.500003404617
298,205,11430,2,0,B|212:210|212:210|90:252,1,178.500003404617
88,303,11763,2,0,B|146:333|186:330|235:309|235:309|285:286|339:287|390:318,1,308.000009399414
455,154,12430,6,0,P|417:175|449:165,1,154.000004699707
476,54,12930,2,0,P|348:75|422:251,1,308.000009399414
394,292,13430,1,0,0:0:0:0:
340,347,13596,1,0,0:0:0:0:
272,309,13763,1,0,0:0:0:0:
273,231,13930,2,0,B|251:198|205:189|205:189|158:266|187:350|187:350|142:362|105:321,1,308.000009399414
37,325,14430,5,0,0:0:0:0:
116,147,14596,1,0,0:0:0:0:
27,213,14763,1,0,0:0:0:0:
226,144,14930,1,0,0:0:0:0:
299,255,15096,5,0,0:0:0:0:
378,141,15263,1,0,0:0:0:0:
401,277,15430,1,0,0:0:0:0:
478,162,15596,1,0,0:0:0:0:
154,109,15930,6,0,B|219:-3|345:-6|345:-6|352:34|316:72,1,308.000009399414
393,128,16430,2,0,B|367:179|367:179|199:264,1,231.000007049561
162,285,16763,2,0,B|148:300|123:310|123:310|175:302|262:326,1,154.000004699707
289,286,17096,5,0,0:0:0:0:
453,200,17263,1,0,0:0:0:0:
369,365,17430,1,0,0:0:0:0:
343,182,17596,1,0,0:0:0:0:
470,316,17763,2,0,B|302:287|302:287|244:236,1,231.000007049561
170,237,18096,2,0,L|345:211,1,154.000004699707
352,120,18430,5,0,0:0:0:0:
215,102,18596,1,0,0:0:0:0:
350,236,18763,5,0,0:0:0:0:
121,330,18930,1,0,0:0:0:0:
25,142,19263,6,0,B|72:133|93:102|93:102|109:136|171:157,2,154.000004699707
148,148,19763,1,0,0:0:0:0:
334,86,19930,1,0,0:0:0:0:
269,266,20096,1,0,0:0:0:0:
148,148,20263,5,0,0:0:0:0:
242,47,20430,1,0,0:0:0:0:
368,105,20596,1,0,0:0:0:0:
351,243,20763,1,0,0:0:0:0:
215,269,20930,1,0,0:0:0:0:
269,159,21263,6,0,B|182:141|100:212|109:314|109:314|136:288|191:273,1,308.000009399414
228,252,21763,2,0,P|324:234|445:311,1,231.000007049561
497,357,22096,2,0,B|524:377|524:377|496:303|500:225,1,154.000004699707
481,87,22430,6,0,B|433:116|433:116|398:200|398:200|399:211|399:211|366:300|366:300|287:322,1,308.000009399414
243,254,22930,1,0,0:0:0:0:
198,336,23096,2,0,B|110:350|110:350|45:293|45:293,1,154.000004699707
47,127,23596,6,0,B|104:167|165:132|165:132|230:93|288:133,1,251.999992309571
431,203,24096,1,0,0:0:0:0:
294,226,24263,1,0,0:0:0:0:
380,290,24430,1,0,0:0:0:0:
323,315,24596,1,0,0:0:0:0:
199,314,24763,5,0,0:0:0:0:
46,384,24930,1,0,0:0:0:0:
55,221,25096,1,0,0:0:0:0:
269,39,25430,6,0,L|129:76,2,125.999996154785
382,136,25930,1,0,0:0:0:0:
390,19,26096,1,0,0:0:0:0:
494,90,26263,1,0,0:0:0:0:
234,192,26596,6,0,L|327:278,1,125.999996154785
441,332,26930,1,0,0:0:0:0:
401,232,27096,2,0,L|290:126,1,125.999996154785
182,141,27430,1,0,0:0:0:0:
90,55,27596,1,0,0:0:0:0:
214,26,27763,6,0,B|93:50|93:50|21:144,1,188.999994232178
17,48,28096,2,0,L|69:210,1,125.999996154785
99,287,28430,1,0,0:0:0:0:
222,308,28596,1,0,0:0:0:0:
251,185,28763,5,0,0:0:0:0:
487,236,28930,2,0,B|470:157|391:137|391:137|353:87|353:87|300:62,1,251.999992309571
147,92,29430,1,0,0:0:0:0:
147,92,29596,1,0,0:0:0:0:
58,226,29763,6,0,P|133:261|240:218,1,188.999994232178
243,155,30096,2,0,L|318:318,1,125.999996154785
512,333,30430,2,0,B|471:252|471:252|482:178|482:178|436:81,1,251.999992309571
72,133,31096,6,0,B|142:154|142:154|225:130,1,125.999996154785
288,20,31430,1,0,0:0:0:0:
433,72,31596,2,0,B|426:114|426:114|448:159|448:159|430:227|430:227|363:250|363:250|305:214|305:214,1,293.999991027832
278,113,32096,1,0,0:0:0:0:
155,88,32263,1,0,0:0:0:0:
190,221,32430,6,0,B|207:274|254:327|254:327|281:354|324:335|308:288|272:288|276:328|291:314,1,210
288,320,32763,2,0,B|339:245|339:245|390:229|390:229,1,140
478,354,33096,1,0,0:0:0:0:
462,114,33430,6,0,B|389:110|389:110|359:82,1,112
273,13,33763,1,0,0:0:0:0:
256,119,33930,1,0,0:0:0:0:
158,50,34096,1,0,0:0:0:0:
136,167,34263,2,0,B|64:184|64:184|25:227,1,112
0,307,34596,6,0,P|49:328|112:313,1,112
184,274,34930,1,0,0:0:0:0:
136,167,35096,5,0,0:0:0:0:
431,242,35263,1,0,0:0:0:0:
289,344,35430,5,0,0:0:0:0:
424,129,35596,1,0,0:0:0:0:
227,21,35763,1,0,0:0:0:0:
402,348,36096,6,0,B|445:345|445:345|512:364,2,112
259,378,36596,1,0,0:0:0:0:
174,259,36763,2,0,B|141:216|141:216|128:137,1,112
347,83,37263,6,0,P|395:93|436:120,1,97.9999970092774
489,198,37596,1,0,0:0:0:0:
379,210,37763,2,0,P|332:199|291:174,1,97.9999970092774
109,50,38096,1,0,0:0:0:0:
195,137,38263,1,0,0:0:0:0:
67,180,38430,6,0,B|74:243|154:277|154:277|150:291|150:291|159:278|159:278|242:298|297:247|297:247,1,280
231,89,39096,1,0,0:0:0:0:
370,76,39263,1,0,0:0:0:0:
317,198,39430,5,0,0:0:0:0:
462,179,39596,2,0,B|430:281|430:281|308:345,1,210
331,293,39930,2,0,B|184:281,1,140
82,218,40263,1,0,0:0:0:0:
0,116,40430,6,0,B|64:94|64:94|153:92,1,140
257,0,40763,1,0,0:0:0:0:
404,53,40930,1,0,0:0:0:0:
277,145,41096,6,0,B|343:165|363:244|299:305|230:279|230:279|263:275|280:259,1,280
0,258,41763,2,0,B|49:319|49:319|125:338|125:338,1,125.999996154785
253,360,42096,1,0,0:0:0:0:
386,303,42263,6,0,B|426:248|409:190|409:190|415:186|415:186|406:184|406:184|383:127|315:118,1,251.999992309571
171,156,42763,2,0,P|231:233|211:295,1,125.999996154785
144,235,43096,2,0,B|47:276|47:276|74:234,1,125.999996154785
88,168,43430,1,0,0:0:0:0:
88,168,43596,1,0,0:0:0:0:
13,27,43763,6,0,P|138:92|358:30,1,308.000009399414
398,4,44263,2,0,B|393:116|393:116|331:180|331:180|307:323,1,308.000009399414
283,384,44763,2,0,L|120:303,1,154.000004699707
26,242,45096,5,0,0:0:0:0:
90,118,45263,1,0,0:0:0:0:
221,73,45430,1,0,0:0:0:0:
161,197,45596,1,0,0:0:0:0:
298,176,45763,2,0,B|380:162|380:162|344:196|314:268,1,154.000004699707
258,332,46096,1,0,0:0:0:0:
216,352,46180,1,0,0:0:0:0:
173,333,46263,1,0,0:0:0:0:
141,299,46346,1,0,0:0:0:0:
94,294,46430,6,0,B|68:213|68:213|58:207|58:207|36:132,1,168
0,88,46763,2,0,P|58:116|133:118,1,112
322,59,47096,6,0,B|251:132|251:132|206:236,1,168
176,224,47430,2,0,P|247:229|304:258,1,112
443,324,47763,6,0,B|426:260|426:260|435:213|435:213|421:159,1,168
444,109,48096,2,0,L|313:211,1,112
255,251,48430,1,0,0:0:0:0:
260,128,48596,1,0,0:0:0:0:
152,188,48763,1,0,0:0:0:0:
255,251,48930,1,0,0:0:0:0:
146,308,49096,6,0,P|81:276|45:164,1,168
33,135,49430,2,0,L|-22:276,1,112
16,362,49763,1,0,0:0:0:0:
177,254,49930,1,0,0:0:0:0:
351,300,50096,2,0,L|296:182,1,112
195,90,50430,5,0,0:0:0:0:
458,149,50596,1,0,0:0:0:0:
252,5,50763,1,0,0:0:0:0:
413,243,50930,1,0,0:0:0:0:
286,111,51096,6,0,B|280:182|280:182|290:245|290:245|285:314,1,168
247,312,51430,2,0,P|318:329|383:296,1,132.999996448517
493,205,51763,6,0,B|441:125|441:125|325:89,1,199.499994672775
381,47,52096,2,0,B|290:54|290:54|212:24,1,132.999996448517
292,124,52430,6,0,B|217:270|217:270|224:311,1,199.499994672775
282,328,52763,2,0,B|141:394,1,132.999996448517
13,378,53096,6,0,B|87:341|87:341|147:261,1,132.999996448517
11,211,53430,1,0,0:0:0:0:
177,166,53596,1,0,0:0:0:0:
332,219,53763,6,0,P|341:149|243:61,1,199.499994672775
250,2,54096,2,0,L|156:146,1,132.999996448517
105,226,54430,5,0,0:0:0:0:
169,341,54596,1,0,0:0:0:0:
282,270,54763,1,0,0:0:0:0:
225,149,54930,1,0,0:0:0:0:
105,226,55096,5,0,0:0:0:0:
282,270,55263,1,0,0:0:0:0:
397,384,55430,2,0,L|354:252,1,132.999996448517
453,135,55763,5,0,0:0:0:0:
257,53,55930,1,0,0:0:0:0:
368,231,56096,1,0,0:0:0:0:
387,32,56263,1,0,0:0:0:0:
246,176,56430,2,0,L|413:251,1,132.999996448517
493,345,56763,1,0,0:0:0:0:
322,307,56930,1,0,0:0:0:0:
182,384,57096,6,0,B|199:294|248:317|303:288|308:223|274:186|235:190|211:212|231:242,1,265.999992897034
182,384,57596,1,0,0:0:0:0:
69,273,57763,2,0,P|17:176|37:124,1,132.999996448517
85,19,58096,2,0,P|137:116|117:168,1,132.999996448517
69,273,58430,5,0,0:0:0:0:
281,197,58596,1,0,0:0:0:0:
285,10,58763,2,0,L|339:170,1,132.999996448517
394,309,59096,1,0,0:0:0:0:
215,362,59263,1,0,0:0:0:0:
401,351,59430,1,0,0:0:0:0:
219,312,59596,1,0,0:0:0:0:
359,189,59763,6,0,B|286:156|286:156|284:145|284:145|228:121,1,132.999996448517
112,86,60096,1,0,0:0:0:0:
142,223,60263,1,0,0:0:0:0:
343,98,60430,5,0,0:0:0:0:
269,296,60596,1,0,0:0:0:0:
57,270,60763,1,0,0:0:0:0:
396,216,60930,5,0,0:0:0:0:
147,367,61096,2,0,B|174:296|174:296|158:223|158:223|236:171|211:81,1,265.999992897034
508,40,61763,6,0,B|459:114|459:114|411:130,1,125.999996154785
307,158,62096,2,0,B|244:172|244:172|206:146|206:146|181:186|181:186|151:195,1,178.500003404617
40,223,62430,6,0,P|89:302|182:323,1,146.999995513916
327,320,62763,2,0,P|278:241|185:220,1,146.999995513916
94,355,63096,1,0,0:0:0:0:
159,175,63263,1,0,0:0:0:0:
349,191,63430,2,0,B|327:125|327:125|264:74,1,146.999995513916
168,1,63763,5,0,0:0:0:0:
0,93,63930,1,0,0:0:0:0:
162,192,64096,1,0,0:0:0:0:
168,1,64263,1,0,0:0:0:0:
409,250,64430,5,0,0:0:0:0:
346,31,64596,1,0,0:0:0:0:
266,179,64763,1,0,0:0:0:0:
487,102,64930,1,0,0:0:0:0:
409,250,65096,6,0,B|357:334|357:334|293:339,1,146.999995513916
164,320,65430,1,0,0:0:0:0:
231,207,65596,1,0,0:0:0:0:
55,261,65763,6,0,B|58:162|58:162|110:125,1,146.999995513916,0|0,3:0|3:0,3:0:0:0:
233,77,66096,1,0,3:0:0:0:
231,207,66263,1,0,3:0:0:0:
344,130,66430,5,0,0:0:0:0:
275,344,66596,1,0,0:0:0:0:
454,182,66763,1,0,0:0:0:0:
233,77,66930,1,0,0:0:0:0:
233,77,67013,1,0,0:0:0:0:
233,77,67096,1,0,0:0:0:0:
456,41,67263,1,0,0:0:0:0:
300,223,67430,2,0,B|354:288|354:288|363:288|363:288|416:349,1,146.999995513916
500,368,67763,6,0,P|489:271|395:214,1,161.000003070831
306,363,68096,1,0,0:0:0:0:
220,189,68263,1,0,0:0:0:0:
220,189,68346,1,0,0:0:0:0:
220,189,68430,1,0,0:0:0:0:
399,120,68596,1,0,0:0:0:0:
236,14,68763,2,0,B|140:52|140:52|102:125,1,161.000003070831
0,247,69096,6,0,P|68:284|122:273,1,132.999996448517
156,101,69430,2,0,P|98:130|73:190,1,132.999996448517,0|0,3:0|3:0,3:0:0:0:
209,317,69763,2,0,P|207:239|170:198,1,132.999996448517
71,328,70096,1,0,0:0:0:0:
214,264,70263,1,0,0:0:0:0:
349,280,70430,6,0,B|407:339|407:339|402:257|402:257,1,132.999996448517
384,145,70763,1,0,0:0:0:0:
493,86,70930,1,0,0:0:0:0:
175,72,71096,5,0,0:0:0:0:
384,145,71263,1,0,0:0:0:0:
26,140,71430,5,0,0:0:0:0:
273,60,71596,2,0,B|293:156|229:205|229:205|182:241|187:300|254:319|286:289|264:241,1,308.000009399414
355,207,72096,1,0,0:0:0:0:
344,356,72263,1,0,0:0:0:0:
268,192,72430,5,0,0:0:0:0:
264,238,72513,1,0,0:0:0:0:
235,275,72596,1,0,0:0:0:0:
193,295,72680,1,0,0:0:0:0:
146,295,72763,1,0,0:0:0:0:
104,276,72846,1,0,0:0:0:0:
81,235,72930,1,0,0:0:0:0:
84,189,73013,1,0,0:0:0:0:
111,151,73096,6,0,B|190:97|190:97|260:99,1,154.000004699707
403,113,73430,2,0,L|257:245,1,154.000004699707
147,336,73763,5,0,0:0:0:0:
122,163,73930,1,0,0:0:0:0:
0,262,74096,5,0,0:0:0:0:
288,216,74263,1,0,0:0:0:0:
142,77,74430,2,0,P|146:134|213:205,1,154.000004699707
373,219,74763,1,0,0:0:0:0:
346,46,74930,1,0,0:0:0:0:
346,46,75013,1,0,0:0:0:0:
346,46,75096,1,0,0:0:0:0:
191,11,75263,1,0,0:0:0:0:
231,147,75430,2,0,B|334:172|334:172|408:119,1,154.000004699707
512,0,75763,5,0,0:0:0:0:
450,191,75930,1,0,0:0:0:0:
367,61,76096,1,0,0:0:0:0:
305,149,76263,1,0,0:0:0:0:
345,297,76430,5,0,0:0:0:0:
164,382,76596,1,0,0:0:0:0:
175,166,76763,1,0,0:0:0:0:
175,166,76930,1,0,0:0:0:0:
367,41,77096,6,0,B|371:108|371:108|324:161,1,119.000002269745
413,226,77430,2,0,B|352:195|352:195|330:128,1,119.000002269745,0|0,0:0|0:0,2:0:0:0:
220,172,77763,5,0,0:0:0:0:
512,83,77930,1,0,0:0:0:0:
265,48,78096,5,0,0:0:0:0:
429,236,78263,1,0,0:0:0:0:
180,263,78430,6,0,B|118:236|118:236|90:177,1,119.000002269745
135,98,78763,2,0,B|197:125|197:125|225:184,1,119.000002269745
265,336,79096,5,0,0:0:0:0:
491,230,79263,1,0,0:0:0:0:
307,201,79430,2,0,L|355:83,1,119.000002269745
512,83,79763,5,0,0:0:0:0:
271,12,79930,1,0,0:0:0:0:
412,216,80096,1,0,0:0:0:0:
174,136,80263,1,0,0:0:0:0:
203,322,80430,6,0,P|264:278|296:195,1,154.000004699707
158,189,80763,2,0,P|97:233|65:316,1,154.000004699707
287,223,81096,5,0,0:0:0:0:
253,76,81263,1,0,0:0:0:0:
124,42,81430,1,0,0:0:0:0:
158,189,81596,1,0,0:0:0:0:
384,130,81763,5,0,0:0:0:0:
221,335,81930,1,0,0:0:0:0:
473,271,82096,1,0,0:0:0:0:
215,173,82263,1,0,0:0:0:0:
374,381,82430,6,0,P|403:270|392:210,1,154.000004699707
416,46,82763,1,0,0:0:0:0:
317,274,82930,1,0,0:0:0:0:
225,19,83096,1,0,0:0:0:0:
134,190,83263,1,0,0:0:0:0:
115,145,83346,1,0,0:0:0:0:
135,100,83430,1,0,0:0:0:0:
183,99,83513,1,0,0:0:0:0:
218,131,83596,1,0,0:0:0:0:
266,133,83680,1,0,0:0:0:0:
308,121,83763,5,0,0:0:0:0:
256,348,85096,5,0,0:0:0:0:
17,18,85763,2,0,P|15:82|135:146,1,195.999994018555
122,44,86430,5,0,0:0:0:0:
255,174,86596,1,0,0:0:0:0:
383,38,86763,1,0,0:0:0:0:
512,183,86930,1,0,0:0:0:0:
480,360,87096,6,0,P|421:367|357:343,1,97.9999970092774
263,271,87430,1,0,0:0:0:0:
183,384,87596,2,0,P|127:343|129:222,1,195.999994018555
223,129,88263,1,0,0:0:0:0:
0,168,88430,2,0,P|51:109|31:26,1,146.999995513916
109,59,88763,2,0,L|237:30,1,97.9999970092774
346,3,89096,5,0,0:0:0:0:
512,3,89263,1,0,0:0:0:0:
512,168,89430,1,0,0:0:0:0:
345,167,89596,1,0,0:0:0:0:
365,314,89763,6,0,B|313:340|313:340|247:326|247:326|184:348,1,146.999995513916
156,384,90096,2,0,P|147:304|167:266,1,97.9999970092774
269,169,90430,5,0,0:0:0:0:
105,139,90596,1,0,0:0:0:0:
220,42,90763,1,0,0:0:0:0:
152,289,90930,1,0,0:0:0:0:
431,327,91263,5,0,0:0:0:0:
319,215,91430,1,0,0:0:0:0:
467,167,91596,1,0,0:0:0:0:
362,284,91763,6,0,P|292:322|224:323,1,119.000002269745
275,92,92096,2,0,P|328:120|366:165,1,119.000002269745,0|0,3:0|3:0,3:0:0:0:
166,264,92430,2,0,P|163:204|182:149,1,119.000002269745
217,284,92763,1,0,0:0:0:0:
96,50,92930,1,0,0:0:0:0:
0,358,93263,6,0,P|86:301|221:285,1,238.00000453949
302,365,93763,2,0,B|337:283|337:283|308:121,1,238.00000453949
79,59,94430,2,0,B|42:92|-19:96|-19:96|46:194|102:147|149:112|200:215|200:215|160:180|93:191,1,476.00000907898
145,345,95263,1,0,0:0:0:0:
481,377,95596,6,0,P|488:260|417:169,1,238.00000453949
296,82,96096,1,0,0:0:0:0:
174,130,96263,1,0,0:0:0:0:
185,248,96430,1,0,0:0:0:0:
244,321,96596,2,0,B|146:365|83:337|83:337|108:271|151:257|151:257,1,238.00000453949
243,213,97096,6,0,P|229:150|224:84,1,125.999996154785
190,32,97430,2,0,P|256:55|341:21,1,140
435,1,97763,1,0,0:0:0:0:
512,196,97930,1,0,0:0:0:0:
366,131,98096,1,0,0:0:0:0:
469,341,98263,1,0,0:0:0:0:
75,231,98596,6,0,B|118:207|118:207|116:201|116:201|184:154|184:154|184:143|184:143|262:88|262:88|262:165,1,308.000009399414
271,268,99096,2,0,B|286:303|269:343|269:343|350:308|327:264|300:218|389:184|389:184,1,251.999992309571
500,67,99763,6,0,L|379:159,1,140
211,107,100096,2,0,L|337:17,1,140
431,9,100430,5,0,0:0:0:0:
275,190,100596,1,0,0:0:0:0:
272,14,100763,5,0,0:0:0:0:
512,189,100930,1,0,0:0:0:0:
278,371,101096,2,0,P|199:337|159:280,1,140
54,221,101430,2,0,P|133:255|173:312,1,140
103,368,101763,1,0,0:0:0:0:
246,217,101930,5,0,0:0:0:0:
397,288,102096,1,0,0:0:0:0:
502,156,102263,1,0,0:0:0:0:
432,2,102430,2,0,P|335:14|253:73,1,140
188,13,102763,2,0,B|225:95|225:95|335:140,1,140
376,154,103096,2,0,P|305:196|216:191,1,140
82,138,103430,1,0,0:0:0:0:
96,310,103596,1,0,0:0:0:0:
407,341,103930,6,0,P|288:333|307:199,1,280
354,270,104430,2,0,B|429:218|429:218|430:119|430:119|342:43,1,280
115,156,105096,2,0,B|220:29|275:199|365:56|365:56,1,280
206,207,105763,2,0,L|71:325,1,140
2,365,106096,1,0,0:0:0:0:
249,369,106263,6,0,B|349:377|404:321|404:321|330:281|334:197,1,280
432,223,106763,2,0,P|456:151|405:101,1,140
282,75,107096,1,0,0:0:0:0:
186,177,107263,1,0,0:0:0:0:
43,324,107430,5,0,0:0:0:0:
256,342,107596,1,0,0:0:0:0:
69,167,107763,1,0,0:0:0:0:
503,108,108096,6,0,P|419:154|349:118,1,140
354,56,108430,2,0,B|307:56|307:56|201:117,1,140
59,196,108763,1,0,0:0:0:0:
225,293,108930,1,0,0:0:0:0:
20,21,109263,6,0,L|178:41,1,140
309,3,109596,1,0,0:0:0:0:
401,126,109763,2,0,P|394:206|329:270,1,140
344,384,110096,2,0,B|266:351|266:351|184:359,1,140
47,253,110430,1,0,0:0:0:0:
230,41,110763,5,0,0:0:0:0:
429,108,110930,1,0,0:0:0:0:
264,139,111096,1,0,0:0:0:0:
351,207,111263,1,0,0:0:0:0:
86,266,111430,5,0,0:0:0:0:
408,325,111596,2,0,B|249:282|249:282|196:174,1,280
153,85,112096,2,0,L|219:221,1,140
360,159,112430,1,0,0:0:0:0:
213,327,112596,1,0,0:0:0:0:
480,252,112763,5,0,0:0:0:0:
199,230,112930,1,0,0:0:0:0:
451,101,113096,2,0,B|496:92|501:55|501:55|411:122|298:88,1,280
112,41,113763,2,0,B|76:55|51:101|73:141|73:141|87:113|116:107,1,140
260,79,114096,5,0,0:0:0:0:
142,260,114263,2,0,B|105:288|105:288|189:325|189:325|194:336|194:336|198:328|198:328|285:310|285:310|268:276|268:276,2,280
289,152,115096,5,0,0:0:0:0:
459,216,115263,1,0,0:0:0:0:
512,82,115430,2,0,P|442:119|382:132,1,140
168,28,115763,6,0,B|193:181|193:181|237:303,1,280
398,384,116430,2,0,L|346:249,1,140
212,196,116763,1,0,0:0:0:0:
455,304,116930,1,0,0:0:0:0:
7,360,117263,6,0,L|178:336,1,140
276,384,117596,1,0,0:0:0:0:
252,262,117763,2,0,P|205:168|157:148,1,140
98,33,118096,5,0,0:0:0:0:
307,0,118263,1,0,0:0:0:0:
429,156,118430,1,0,0:0:0:0:
0,249,118763,6,0,B|57:283|57:283|187:259|187:259|239:285|239:285|243:281|243:281|243:288|243:288|294:317,1,280
401,384,119263,1,0,0:0:0:0:
368,238,119430,2,0,B|294:194|294:194|249:120,1,140
512,74,119930,6,0,L|377:18,2,125.999996154785
449,183,120430,1,0,0:0:0:0:
326,157,120596,1,0,0:0:0:0:
187,47,120763,5,0,0:0:0:0:
171,223,120930,1,0,0:0:0:0:
27,122,121096,1,0,0:0:0:0:
353,350,121430,2,0,B|398:289|398:289|378:233,1,125.999996154785
334,124,121763,1,0,0:0:0:0:
431,43,121930,1,0,0:0:0:0:
220,9,122096,5,0,0:0:0:0:
57,42,122263,2,0,B|80:111|80:111|125:140|125:140|148:189|148:189|171:207|171:207|186:253,1,251.999992309571
91,323,122763,2,0,P|163:252|244:253,1,125.999996154785
385,328,123096,1,0,0:0:0:0:
263,151,123263,1,0,0:0:0:0:
452,307,123430,1,0,0:0:0:0:
203,185,123596,1,0,0:0:0:0:
459,233,123763,6,0,B|380:199|373:144|364:91|320:47|257:63|238:79,1,265.999992897034
74,72,124430,2,0,B|4:104|-10:171,1,105.000004005432
141,265,124763,1,0,0:0:0:0:
182,92,124930,2,0,P|208:189|141:265,1,210.000008010865
74,265,125430,2,0,P|133:269|192:213,1,105.000004005432
314,253,125763,5,0,0:0:0:0:
177,107,125930,1,0,0:0:0:0:
373,73,126096,1,0,0:0:0:0:
314,253,126263,1,0,0:0:0:0:
373,73,126430,6,0,B|379:58|379:58|397:154|397:154|406:163|406:163|421:239|421:239|426:227,1,210.000008010865
465,383,127096,2,0,L|344:338,1,105.000004005432
219,364,127430,1,0,0:0:0:0:
154,232,127596,2,0,B|160:201|160:201|96:243|96:243|33:285|33:285|40:243,1,210.000008010865
0,142,128096,1,0,0:0:0:0:
12,0,128263,1,0,0:0:0:0:
138,80,128430,5,0,0:0:0:0:
405,304,128763,1,0,0:0:0:0:
254,191,129096,5,0,0:0:0:0:
181,324,129263,1,0,0:0:0:0:
30,311,129430,1,0,0:0:0:0:
0,84,129596,5,0,0:0:0:0:
189,184,129763,1,0,0:0:0:0:
73,364,129930,1,0,0:0:0:0:
185,148,130096,5,0,0:0:0:0:
311,43,130263,1,0,0:0:0:0:
363,198,130430,1,0,0:0:0:0:
482,86,130596,2,0,P|425:39|354:35,1,125.999996154785
211,4,130930,1,0,0:0:0:0:
73,91,131096,6,0,L|84:259,1,125.999996154785
194,337,131430,2,0,L|213:182,1,125.999996154785
332,103,131763,2,0,L|170:127,1,125.999996154785
44,138,132096,1,0,0:0:0:0:
164,249,132263,1,0,0:0:0:0:
302,238,132430,1,0,0:0:0:0:
376,170,132596,1,0,0:0:0:0:
404,113,132763,1,0,0:0:0:0:
411,75,132930,6,0,P|354:23|216:117,1,251.999992309571
318,112,133430,1,0,0:0:0:0:
261,14,133596,1,0,0:0:0:0:
150,15,133763,1,0,0:0:0:0:
93,114,133930,1,0,0:0:0:0:
148,210,134096,1,0,0:0:0:0:
261,211,134263,1,0,0:0:0:0:
318,112,134430,6,0,P|376:152|384:250,1,125.999996154785
336,329,134763,2,0,L|253:380,2,83.9999974365235
209,277,135096,2,0,L|270:199,2,83.9999974365235
131,366,135430,1,0,0:0:0:0:
0,195,135596,6,0,P|39:89|201:110,1,293.999991027832
109,159,136096,2,0,B|107:228|107:228|155:305,1,146.999995513916
222,331,136430,6,0,P|181:373|111:382,2,97.9999970092774
225,240,136763,2,0,P|179:257|148:294,2,97.9999970092774
276,266,137096,5,0,0:0:0:0:
312,301,137180,1,0,0:0:0:0:
361,310,137263,1,0,0:0:0:0:
406,289,137346,1,0,0:0:0:0:
434,247,137430,1,0,0:0:0:0:
437,196,137513,1,0,0:0:0:0:
416,150,137596,1,0,0:0:0:0:
376,118,137680,1,0,0:0:0:0:
331,156,137763,5,0,0:0:0:0:
277,180,137846,1,0,0:0:0:0:
221,158,137930,1,0,0:0:0:0:
190,108,138013,1,0,0:0:0:0:
182,52,138096,1,0,0:0:0:0:
127,153,138263,6,0,B|83:191|18:172|18:172|53:218|50:276|50:276|70:252|118:257,1,251.999992309571
102,253,138680,1,0,0:0:0:0:
133,254,138763,1,0,0:0:0:0:
161,267,138846,1,0,0:0:0:0:
186,286,138930,1,0,0:0:0:0:
216,293,139013,1,0,0:0:0:0:
246,284,139096,5,0,0:0:0:0:
375,213,139263,1,0,0:0:0:0:
346,191,139346,1,0,0:0:0:0:
318,167,139430,1,0,0:0:0:0:
148,131,139596,1,0,0:0:0:0:
177,153,139679,1,0,0:0:0:0:
207,180,139763,5,0,0:0:0:0:
277,60,139930,1,0,0:0:0:0:
324,325,140096,5,0,0:0:0:0:
324,325,140180,1,0,0:0:0:0:
324,325,140263,2,0,P|251:352|222:348,1,62.9999980773926
123,264,140430,5,0,0:0:0:0:
120,249,140514,1,0,0:0:0:0:
117,234,140597,2,0,P|124:196|151:149,1,62.9999980773926
241,111,140763,5,0,0:0:0:0:
279,110,140847,1,0,0:0:0:0:
315,123,140930,2,0,P|350:156|353:217,1,62.9999980773926
340,347,141096,5,0,0:0:0:0:
384,370,141180,1,0,0:0:0:0:
429,348,141263,1,0,0:0:0:0:
439,298,141346,1,0,0:0:0:0:
410,256,141430,1,0,0:0:0:0:
457,238,141513,1,0,0:0:0:0:
473,190,141596,1,0,0:0:0:0:
458,141,141680,1,0,0:0:0:0:
410,158,141763,5,0,0:0:0:0:
359,158,141846,1,0,0:0:0:0:
320,124,141930,1,0,0:0:0:0:
304,76,142013,1,0,0:0:0:0:
246,51,142096,5,0,0:0:0:0:
186,72,142180,1,0,0:0:0:0:
175,133,142263,1,0,0:0:0:0:
129,176,142346,1,0,0:0:0:0:
65,171,142430,6,0,B|1:145|1:145|48:234|32:332,1,220.499993270874
0,326,142763,2,0,B|76:338|76:338|141:290|141:290|228:304|228:304|251:355|329:371|381:324|365:262,1,440.999986541749
493,200,143430,1,0,0:0:0:0:
317,145,143596,2,0,B|241:135|199:147|199:147|298:95|418:109|495:203,1,440.999986541749
460,341,144263,6,0,L|393:284,1,73.4999977569581
320,258,144430,2,0,P|407:251|429:192,1,146.999995513916
512,195,144680,2,0,B|443:183|443:183|359:121,1,146.999995513916
390,101,144930,1,0,0:0:0:0:
137,51,145096,6,0,B|68:93|98:183|198:196|228:119|228:119|235:135|232:158|232:158|215:244|153:268|153:268|82:286|42:353|42:353|111:299|111:299|197:327|197:327|208:352|208:352|276:372|276:372|294:293|294:293|376:233|376:233|380:222|380:222|449:182|449:182|481:231|481:231|493:232|493:232|488:244|488:244|514:286|514:286|429:347|429:347|430:301,1,1385.99995770264
321,87,147096,6,0,P|238:236|251:56,1,440.999986541748
253,148,147763,6,0,B|182:151|182:151|179:145|179:145|93:150|93:150|84:140|84:140|111:211|111:211|104:262|104:262|144:260|144:260|151:276|151:276|157:259|157:259|330:250|330:250|319:332|376:365|376:365|439:335|422:249|422:249|465:212|465:212|501:128|501:128|449:171,1,1007.99996923828
411,52,149263,1,0,0:0:0:0:
251,6,149430,5,0,0:0:0:0:
251,6,149596,1,0,0:0:0:0:
278,240,149763,5,0,0:0:0:0:
71,174,149930,1,0,0:0:0:0:
171,339,150096,5,0,0:0:0:0:
416,221,150263,1,0,0:0:0:0:
191,30,150430,1,0,0:0:0:0:
74,25,160763,6,0,B|9:15|9:15|27:55,2,90.9999958343508
438,359,163430,6,0,B|503:369|503:369|485:329,2,90.9999958343508
372,83,164763,5,0,0:0:0:0:
194,6,164930,2,0,B|152:79|152:79|213:182,2,181.999991668702
278,99,165763,2,0,P|294:213|244:264,1,181.999991668702
186,380,166263,1,0,0:0:0:0:
451,270,166430,5,0,0:0:0:0:
15,19,167430,5,0,0:0:0:0:
1,201,167596,2,0,B|22:225|61:220|61:220|135:206|138:158|113:145|95:171,2,181.999991668702
24,105,168430,1,0,0:0:0:0:
261,14,168763,5,0,0:0:0:0:
201,127,168930,1,0,0:0:0:0:
39,296,169096,5,0,0:0:0:0:
39,296,169430,1,0,0:0:0:0:
39,296,169763,1,0,0:0:0:0:
39,296,169930,1,0,0:0:0:0:
39,296,170263,1,0,0:0:0:0:
39,296,170596,1,0,0:0:0:0:
39,296,170929,1,0,0:0:0:0:
39,296,171430,1,0,0:0:0:0:
470,361,171763,6,0,P|479:271|458:205,1,132.999996448517,8|0,0:0|0:0,0:0:0:0:
403,70,172096,1,8,0:0:0:0:
495,161,172263,6,0,P|437:90|376:59,1,132.999996448517,8|0,0:0|0:0,0:0:0:0:
241,2,172596,1,8,0:0:0:0:
371,1,172763,6,0,P|281:-8|215:13,1,132.999996448517,8|0,0:0|0:0,0:0:0:0:
80,68,173096,1,8,0:0:0:0:
235,170,173263,1,0,0:0:0:0:
0,299,173430,1,0,0:0:0:0:
235,170,173596,1,2,0:0:0:0:
235,170,173680,1,0,0:0:0:0:
235,170,173763,5,0,0:0:0:0:
339,384,173930,2,0,P|311:290|322:197,1,132.999996448517
320,55,174263,1,0,0:0:0:0:
493,36,174430,6,0,P|482:139|449:209,1,132.999996448517,8|0,0:0|0:0,0:0:0:0:
334,114,174763,1,8,0:0:0:0:
502,222,174930,6,0,P|427:293|357:326,1,132.999996448517,8|0,0:0|0:0,0:0:0:0:
252,79,175263,1,8,0:0:0:0:
387,364,175430,6,0,P|283:371|208:350,1,132.999996448517,8|0,0:0|0:0,0:0:0:0:
178,48,175763,1,8,0:0:0:0:
344,17,175930,1,0,0:0:0:0:
311,172,176096,1,0,0:0:0:0:
152,210,176263,1,2,0:0:0:0:
152,210,176346,1,0,0:0:0:0:
152,210,176430,5,0,0:0:0:0:
125,370,176596,1,0,0:0:0:0:
320,338,176763,2,0,B|344:245|344:245|338:188,1,132.999996448517
237,98,177096,6,0,L|242:255,1,132.999996448517,8|0,0:0|0:0,0:0:0:0:
451,342,177429,1,8,0:0:0:0:
113,201,177596,6,0,L|217:318,1,132.999996448517,8|0,0:0|0:0,0:0:0:0:
437,250,177929,1,8,0:0:0:0:
123,366,178096,6,0,L|278:388,1,132.999996448517,8|0,0:0|0:0,0:0:0:0:
400,197,178429,1,8,0:0:0:0:
171,88,178596,1,0,0:0:0:0:
4,278,178763,1,0,0:0:0:0:
171,88,178930,1,8,0:0:0:0:
222,334,179096,6,0,L|191:200,1,132.999996448517
265,54,179430,2,0,L|311:220,1,132.999996448517,8|0,0:0|0:0,0:0:0:0:
404,320,179763,1,8,0:0:0:0:
477,163,179930,1,0,0:0:0:0:
402,318,180096,2,0,P|291:366|224:350,1,132.999996448517
108,376,180430,5,2,0:0:0:0:
229,254,180596,1,0,0:0:0:0:
57,87,180763,2,0,L|183:209,1,132.999996448517
258,42,181096,5,0,0:0:0:0:
467,227,181263,1,0,0:0:0:0:
231,75,181430,1,0,0:0:0:0:
482,191,181596,1,0,0:0:0:0:
245,339,181763,5,0,0:0:0:0:
134,81,181930,1,0,0:0:0:0:
104,357,182096,1,0,0:0:0:0:
13,92,182263,1,2,0:0:0:0:
29,124,182346,1,0,0:0:0:0:
48,150,182430,6,0,P|129:190|199:172,1,119.000002269745,8|0,0:0|0:0,0:0:0:0:
306,4,182763,1,10,0:0:0:0:
187,297,182930,6,0,P|262:246|281:177,1,119.000002269745,8|0,0:0|0:0,0:0:0:0:
189,0,183263,1,8,0:0:0:0:
377,244,183430,6,0,P|371:153|320:102,1,119.000002269745,8|0,0:0|0:0,0:0:0:0:
121,93,183763,1,8,0:0:0:0:
55,322,183930,1,0,0:0:0:0:
0,173,184096,1,0,0:0:0:0:
315,333,184263,1,8,0:0:0:0:
315,333,184346,1,8,0:0:0:0:
315,333,184430,6,0,B|392:287|392:287|395:238,1,119.000002269745,8|0,0:0|0:0,0:0:0:0:
508,90,184763,1,0,0:0:0:0:
319,16,184930,1,0,0:0:0:0:
157,51,185096,6,0,B|96:79|96:79|68:178,1,119.000002269745,8|0,0:0|0:0,0:0:0:0:
140,316,185430,1,8,0:0:0:0:
0,124,185596,6,0,B|16:188|16:188|109:233,1,119.000002269745,8|0,0:0|0:0,0:0:0:0:
257,186,185930,1,8,0:0:0:0:
43,293,186096,6,0,B|109:287|109:287|170:204,1,119.000002269745,8|0,0:0|0:0,0:0:0:0:
149,49,186430,1,8,0:0:0:0:
351,72,186596,1,0,0:0:0:0:
65,35,186763,1,0,0:0:0:0:
435,84,186930,1,8,0:0:0:0:
247,181,187096,6,0,P|171:204|106:189,2,119.000002269745,8|0|0,0:0|0:0|0:0,0:0:0:0:
0,292,187596,2,0,P|76:269|141:284,1,119.000002269745
149,348,187930,1,0,0:0:0:0:
293,381,188096,2,0,P|405:367|438:359,1,119.000002269745
336,228,188430,5,0,0:0:0:0:
507,228,188596,1,0,0:0:0:0:
332,53,188763,1,0,0:0:0:0:
510,53,188930,1,0,0:0:0:0:
332,53,189096,6,0,P|238:90|202:147,1,119.000002269745
59,80,189430,2,0,P|138:142|205:145,1,119.000002269745
221,296,189763,1,0,0:0:0:0:
238,188,189930,1,0,0:0:0:0:
251,79,190096,5,0,0:0:0:0:
478,236,190263,1,0,0:0:0:0:
221,296,190430,6,0,B|145:265|145:265|125:190,1,119.000002269745
201,62,190763,2,0,B|212:143|212:143|157:198,1,119.000002269745
3,194,191096,2,0,B|67:143|67:143|142:163,1,119.000002269745,0|0,2:0|2:0,2:0:0:0:
62,298,191430,1,0,0:0:0:0:
280,179,191596,1,0,0:0:0:0:
512,348,191763,6,0,L|386:387,1,119.000002269745
290,298,192096,2,0,L|139:266,1,119.000002269745
15,225,192430,5,0,0:0:0:0:
248,183,192596,1,0,0:0:0:0:
54,43,192763,1,0,0:0:0:0:
134,267,192930,5,0,0:0:0:0:
509,3,193263,1,0,0:0:0:0:
250,39,199763,6,0,P|150:42|98:128,1,178.500003404617
0,202,200096,6,0,B|34:263|34:263|176:304,1,146.999995513916
377,342,200430,5,0,0:0:0:0:
416,23,200596,1,0,0:0:0:0:
197,258,200763,1,0,0:0:0:0:
512,196,200930,1,0,0:0:0:0:
221,61,201096,1,4,0:0:0:0:
221,61,201263,1,4,0:0:0:0:
23,348,201763,5,4,0:0:0:0:
23,348,201930,1,4,0:0:0:0:
283,60,202430,6,0,B|250:69|218:68|218:68|244:98|257:173,1,146.999995513916
386,262,202763,2,0,B|418:252|450:253|450:253|424:223|411:148,1,146.999995513916
246,282,203096,1,0,0:0:0:0:
419,51,203263,1,0,0:0:0:0:
193,189,203430,5,0,0:0:0:0:
512,144,203597,1,0,0:0:0:0:
242,27,203763,6,0,B|196:124|196:124|192:194,1,146.999995513916
214,374,204096,1,0,0:0:0:0:
10,297,204263,1,0,0:0:0:0:
10,297,204346,1,0,0:0:0:0:
10,297,204430,5,0,0:0:0:0:
184,115,204596,1,0,0:0:0:0:
350,281,204763,2,0,P|308:227|242:174,1,146.999995513916
152,332,205096,5,0,0:0:0:0:
364,381,205263,1,0,0:0:0:0:
69,377,205430,5,0,0:0:0:0:
324,249,205596,1,0,0:0:0:0:
106,243,205763,5,0,0:0:0:0:
476,351,205930,1,0,0:0:0:0:
211,166,206096,2,0,B|289:176|289:176|380:243,1,146.999995513916
228,358,206430,5,0,0:0:0:0:
0,313,206596,2,0,L|135:216,1,146.999995513916
321,77,206930,1,0,0:0:0:0:
321,77,207013,1,0,0:0:0:0:
321,77,207096,6,0,B|352:168|352:168|326:250,1,146.999995513916
179,319,207430,2,0,B|148:228|148:228|176:144,1,161.000003070831
406,177,207763,5,4,0:0:0:0:
287,384,207930,1,0,0:0:0:0:
81,265,208096,1,0,0:0:0:0:
201,58,208263,1,0,0:0:0:0:
201,58,208346,1,0,0:0:0:0:
201,58,208430,6,0,L|302:199,1,140
448,384,208763,1,0,0:0:0:0:
252,340,208930,1,0,0:0:0:0:
86,381,209096,6,0,B|18:351|18:351|0:258,1,140
85,105,209430,2,0,L|116:279,1,140
301,285,209763,2,0,B|286:210|286:210|279:201|279:201|264:127,1,140
433,43,210096,1,0,0:0:0:0:
236,38,210263,1,0,0:0:0:0:
484,174,210430,5,0,0:0:0:0:
188,231,210596,1,0,0:0:0:0:
475,298,210763,1,0,0:0:0:0:
180,368,210930,1,0,0:0:0:0:
301,164,211096,5,0,0:0:0:0:
68,321,211263,1,0,0:0:0:0:
71,20,211430,1,0,0:0:0:0:
199,270,211596,2,0,B|264:307|352:300|396:254|369:183|304:192|299:234|333:273,1,280,4|0,0:0|0:0,0:0:0:0:
512,81,212096,2,0,B|479:121|439:138|439:138|471:145|512:117,1,140
480,345,212430,5,0,0:0:0:0:
428,365,212513,1,0,0:0:0:0:
372,363,212596,1,0,0:0:0:0:
324,332,212680,1,0,0:0:0:0:
287,290,212763,5,0,0:0:0:0:
233,274,212846,1,0,0:0:0:0:
182,299,212930,1,0,0:0:0:0:
126,297,213013,1,0,0:0:0:0:
86,257,213096,6,0,P|81:150|151:94,1,154.000004699707,4|0,0:0|0:0,0:0:0:0:
250,4,213430,2,0,P|255:111|185:167,1,154.000004699707,4|0,0:0|0:0,0:0:0:0:
228,375,213763,5,0,0:0:0:0:
422,248,213930,1,0,0:0:0:0:
422,17,214096,1,0,0:0:0:0:
229,143,214263,1,0,0:0:0:0:
342,344,214430,5,0,0:0:0:0:
149,217,214596,1,0,0:0:0:0:
246,6,214763,1,0,0:0:0:0:
402,245,214930,5,0,0:0:0:0:
179,302,215096,1,0,0:0:0:0:
164,70,215263,1,0,0:0:0:0:
36,263,215430,5,0,0:0:0:0:
371,69,215596,1,0,0:0:0:0:
308,291,215763,6,0,B|275:285|275:285|178:196,1,154.000004699707
223,22,216096,2,0,B|256:28|256:28|353:117,1,154.000004699707
419,297,216430,1,0,0:0:0:0:
344,109,216596,1,0,0:0:0:0:
216,263,216763,1,0,0:0:0:0:
414,292,216930,1,0,0:0:0:0:
267,157,217096,6,0,B|202:116|202:116|205:110|205:110|198:114|198:114|133:75,1,154.000004699707
0,217,217430,2,0,B|29:256|29:256|86:270|86:270|124:310,1,154.000004699707
273,308,217763,1,0,0:0:0:0:
107,176,217930,1,0,0:0:0:0:
0,3,218096,1,0,0:0:0:0:
107,176,218263,6,0,P|217:196|158:61,1,308.000009399414,4|0,0:0|0:0,0:0:0:0:
173,133,218763,2,0,B|230:184|230:184|308:193|308:193,1,154.000004699707
418,110,219096,1,0,0:0:0:0:
455,243,219263,1,0,0:0:0:0:
355,339,219430,1,0,0:0:0:0:
235,269,219596,6,0,B|155:308|84:244|100:142|178:132|178:132|166:153|163:183,1,308.000009399414
303,163,220096,2,0,P|338:109|285:134,1,154.000004699707
369,283,220430,5,0,0:0:0:0:
249,373,220596,1,0,0:0:0:0:
187,368,220680,1,0,0:0:0:0:
151,317,220763,1,0,0:0:0:0:
118,265,220846,1,0,0:0:0:0:
155,215,220930,1,0,0:0:0:0:
204,178,221013,1,0,0:0:0:0:
265,176,221096,5,4,0:0:0:0:
503,3,221263,1,0,0:0:0:0:
265,176,221430,1,0,0:0:0:0:
503,3,221596,1,0,0:0:0:0:
69,150,221763,6,0,B|84:241|84:241|189:319,1,154.000004699707
314,358,222096,2,0,B|299:267|299:267|194:189,1,154.000004699707
228,100,222430,5,0,0:0:0:0:
456,245,222596,1,0,0:0:0:0:
226,99,222763,1,0,0:0:0:0:
455,244,222930,1,0,0:0:0:0:
205,308,223096,6,0,B|213:234|213:234|224:220|224:220|217:203|217:203|222:142,1,154.000004699707
441,77,223430,2,0,B|436:100|436:100|426:110|426:110|434:126|434:126|417:235,1,154.000004699707
204,309,223763,5,4,0:0:0:0:
302,35,223930,1,0,0:0:0:0:
204,309,224096,1,0,0:0:0:0:
302,35,224263,1,0,0:0:0:0:
57,15,224430,6,0,B|35:109|35:109|52:188,1,154.000004699707
213,158,224763,2,0,B|225:214|225:214|203:308,1,154.000004699707
44,332,225096,5,0,0:0:0:0:
414,208,225263,1,0,0:0:0:0:
44,332,225430,1,0,0:0:0:0:
414,208,225596,1,0,0:0:0:0:
87,37,225763,6,0,B|131:91|207:86|207:86|205:119|176:133,1,154.000004699707
350,227,226096,2,0,B|295:274|229:273|229:273|236:260|236:245,1,154.000004699707
333,98,226430,5,4,0:0:0:0:
126,257,226596,1,0,0:0:0:0:
388,244,226763,1,0,0:0:0:0:
163,107,226930,1,0,0:0:0:0:
258,349,227096,6,0,L|313:169,1,154.000004699707
193,0,227430,2,0,L|138:180,1,154.000004699707
29,384,227763,1,0,0:0:0:0:
303,201,227930,1,0,0:0:0:0:
0,200,228096,1,0,0:0:0:0:
218,384,228263,1,0,0:0:0:0:
161,89,228430,6,0,P|243:20|348:22,1,154.000004699707
474,79,228763,2,0,P|421:134|349:157,1,154.000004699707
340,70,229096,5,4,0:0:0:0:
162,272,229263,1,0,0:0:0:0:
175,17,229430,1,0,0:0:0:0:
327,247,229596,1,0,0:0:0:0:
58,145,229763,6,0,P|-4:232|17:311,2,154.000004699707
212,284,230263,1,0,0:0:0:0:
347,35,230430,5,0,0:0:0:0:
418,221,230596,1,0,0:0:0:0:
418,221,230680,1,0,0:0:0:0:
418,221,230763,5,0,0:0:0:0:
431,247,230846,1,0,0:0:0:0:
425,285,230930,1,0,0:0:0:0:
395,306,231013,1,0,0:0:0:0:
337,301,231096,5,0,0:0:0:0:
288,324,231180,1,0,0:0:0:0:
234,318,231263,1,0,0:0:0:0:
194,281,231346,1,0,0:0:0:0:
244,232,231430,5,0,0:0:0:0:
255,163,231513,1,0,0:0:0:0:
201,119,231596,1,0,0:0:0:0:
133,137,231680,1,0,0:0:0:0:
96,195,231763,6,0,P|72:290|80:349,1,154.000004699707,4|0,0:0|0:0,0:0:0:0:
261,384,232096,2,0,P|285:289|277:230,1,154.000004699707
302,45,232430,5,0,0:0:0:0:
454,311,232596,1,0,0:0:0:0:
507,7,232763,1,0,0:0:0:0:
507,7,232930,1,0,0:0:0:0:
288,205,233096,6,0,B|204:225|204:225|136:190,1,154.000004699707,4|0,0:0|0:0,0:0:0:0:
0,299,233430,2,0,B|84:319|84:319|152:284,1,154.000004699707,0|0,0:0|0:0,0:0:0:0:
370,375,233763,5,0,0:0:0:0:
162,108,233930,1,0,0:0:0:0:
497,146,234096,1,0,0:0:0:0:
497,146,234263,1,0,0:0:0:0:
158,103,234430,6,0,B|124:71|124:71|169:242,1,154.000004699707,4|0,0:0|0:0,0:0:0:0:
248,313,234763,2,0,B|275:209|275:209|241:241,1,154.000004699707,0|0,0:0|0:0,0:0:0:0:
15,374,235096,5,0,0:0:0:0:
115,17,235263,1,0,0:0:0:0:
378,276,235430,1,0,0:0:0:0:
378,276,235596,1,0,0:0:0:0:
50,230,235763,6,0,B|118:168|118:168|126:166|126:166|185:113,1,167.999994873047,4|0,0:0|0:0,0:0:0:0:
194,258,236096,2,0,B|281:285|281:285|287:291|287:291|362:316,1,167.999994873047,0|0,0:0|0:0,0:0:0:0:
512,163,236430,5,0,0:0:0:0:
270,0,236596,1,0,0:0:0:0:
92,214,236763,1,0,0:0:0:0:
306,384,236930,1,0,0:0:0:0:
88,0,237096,5,0,0:0:0:0:
512,384,238430,5,0,0:0:0:0:
256,192,239763,5,0,0:0:0:0:
