osu file format v14

[General]
AudioFilename: audio.mp3
AudioLeadIn: 0
PreviewTime: -1
Countdown: 0
SampleSet: None
StackLeniency: 0.7
Mode: 0
LetterboxInBreaks: 0
WidescreenStoryboard: 0

[Editor]
DistanceSpacing: 2
BeatDivisor: 4
GridSize: 4
TimelineZoom: 1

[Metadata]
Title:Typrical Day
TitleUnicode:Typrical Day
Artist:yoru
ArtistUnicode:yoru
Creator:Mark416IX
Version:Normal
Source:
Tags:
BeatmapID:3613462
BeatmapSetID:1765282

[Difficulty]
HPDrainRate:5
CircleSize:5
OverallDifficulty:5
ApproachRate:5
SliderMultiplier:1.4
SliderTickRate:1

[Events]
//Background and Video events
Video,0,"Y2Mate.is - ヨルYORU - MY TYPICAL DAY - VALORANT-qVUGxJCwzaE-720p-1649104385649.mp4"
//Break Periods
2,41720,52176
2,53576,55140
2,56540,58104
2,65433,66997
2,89145,90709
2,92109,93583
2,103516,111458
//Storyboard Layer 0 (Background)
//Storyboard Layer 1 (Fail)
//Storyboard Layer 2 (Pass)
//Storyboard Layer 3 (Foreground)
//Storyboard Layer 4 (Overlay)
//Storyboard Sound Samples

[TimingPoints]
382.753342798123,359.281437125748,4,1,0,100,1,0

[HitObjects]
361,132,17807,5,0,0:0:0:0:
404,143,19604,5,0,0:0:0:0:
264,172,19963,1,0,0:0:0:0:
163,203,20322,1,0,0:0:0:0:
99,235,20682,1,0,0:0:0:0:
86,314,22568,5,0,0:0:0:0:
193,312,22927,1,0,0:0:0:0:
313,311,23286,1,0,0:0:0:0:
453,304,23736,1,0,0:0:0:0:
391,296,25532,5,0,0:0:0:0:
222,311,25981,1,0,0:0:0:0:
131,306,26251,1,0,0:0:0:0:
41,305,26700,1,0,0:0:0:0:
76,152,28586,5,0,0:0:0:0:
93,252,28945,1,0,0:0:0:0:
294,194,29304,1,0,0:0:0:0:
411,278,29664,1,0,0:0:0:0:
107,187,31550,5,0,0:0:0:0:
382,210,31909,1,0,0:0:0:0:
123,285,32268,1,0,0:0:0:0:
384,318,32628,1,0,0:0:0:0:
446,114,34424,5,0,0:0:0:0:
470,248,34783,1,0,0:0:0:0:
44,98,35233,1,0,0:0:0:0:
32,254,35592,1,0,0:0:0:0:
69,143,37388,5,0,0:0:0:0:
378,232,37748,1,0,0:0:0:0:
106,301,38197,1,0,0:0:0:0:
353,313,38556,1,0,0:0:0:0:
461,199,40442,5,0,0:0:0:0:
354,295,40801,1,0,0:0:0:0:
233,295,41161,1,0,0:0:0:0:
63,228,41520,1,0,0:0:0:0:
310,256,53376,5,0,0:0:0:0:
146,257,56340,5,0,0:0:0:0:
344,266,59304,5,0,0:0:0:0:
164,252,62268,1,0,0:0:0:0:
347,270,63706,5,0,0:0:0:0:
270,273,64065,1,0,0:0:0:0:
188,272,64424,1,0,0:0:0:0:
129,268,64873,1,0,0:0:0:0:
52,253,65233,1,0,0:0:0:0:
166,278,68197,5,0,0:0:0:0:
39,256,69993,5,0,0:0:0:0:
137,292,70442,1,0,0:0:0:0:
291,310,70712,1,0,0:0:0:0:
406,323,71161,1,0,0:0:0:0:
380,230,72957,5,0,0:0:0:0:
331,268,73406,1,0,0:0:0:0:
223,275,73765,1,0,0:0:0:0:
69,293,74125,1,0,0:0:0:0:
71,156,75921,5,0,0:0:0:0:
86,241,76280,1,0,0:0:0:0:
200,323,76640,1,0,0:0:0:0:
227,144,77807,5,0,0:0:0:0:
121,269,80053,5,0,0:0:0:0:
227,51,81939,5,0,0:0:0:0:
140,139,82298,1,0,0:0:0:0:
120,277,82658,1,0,0:0:0:0:
271,341,83017,1,0,0:0:0:0:
344,66,84903,5,0,0:0:0:0:
331,174,85173,1,0,0:0:0:0:
323,266,85532,1,0,0:0:0:0:
123,320,85981,1,0,0:0:0:0:
78,106,87777,5,0,0:0:0:0:
405,106,88137,1,0,0:0:0:0:
146,266,88586,1,0,0:0:0:0:
382,283,88945,1,0,0:0:0:0:
320,116,91909,5,0,0:0:0:0:
132,115,94783,5,0,0:0:0:0:
322,103,97837,5,0,0:0:0:0:
256,192,100801,12,0,103316,0:0:0:0:
283,235,112658,5,0,0:0:0:0:
135,82,114544,5,0,0:0:0:0:
116,160,114903,1,0,0:0:0:0:
144,254,115262,1,0,0:0:0:0:
171,330,115622,1,0,0:0:0:0:
74,69,117418,5,0,0:0:0:0:
60,132,117777,1,0,0:0:0:0:
105,265,118137,1,0,0:0:0:0:
193,318,118496,1,0,0:0:0:0:
359,60,120472,5,0,0:0:0:0:
371,123,120831,1,0,0:0:0:0:
385,198,121191,1,0,0:0:0:0:
384,296,121550,1,0,0:0:0:0:
416,328,123346,5,0,0:0:0:0:
321,328,123706,1,0,0:0:0:0:
196,325,124065,1,0,0:0:0:0:
78,330,124424,1,0,0:0:0:0:
35,202,126400,5,0,0:0:0:0:
172,243,126670,1,0,0:0:0:0:
313,273,127029,1,0,0:0:0:0:
490,234,127388,1,0,0:0:0:0:
420,113,129274,5,0,0:0:0:0:
348,235,129724,1,0,0:0:0:0:
275,295,129993,1,0,0:0:0:0:
112,292,130442,1,0,0:0:0:0:
415,61,132239,5,0,0:0:0:0:
101,213,132688,1,0,0:0:0:0:
439,289,132957,1,0,0:0:0:0:
147,91,133406,1,0,0:0:0:0:
405,61,135203,5,0,0:0:0:0:
366,207,135562,1,0,0:0:0:0:
164,315,135921,1,0,0:0:0:0:
