osu file format v14

[General]
AudioFilename: track.mp3
AudioLeadIn: 0
PreviewTime: 19689
Countdown: 0
SampleSet: Soft
StackLeniency: 0.7
Mode: 3
LetterboxInBreaks: 0
SpecialStyle: 0
WidescreenStoryboard: 1

[Editor]
Bookmarks: 2260,11403,20546,38832,47974,57117,75403,84546,102832,121117
DistanceSpacing: 0.8
BeatDivisor: 8
GridSize: 32
TimelineZoom: 1.7

[Metadata]
Title:Haru no Hime
TitleUnicode:春の姫
Artist:yomoha
ArtistUnicode:yomoha
Creator:Synere
Version:Quasar | Insane
Source:Sixtar Gate: STARTRAIL
Tags:hip hop rap electronic instrumental oriental guitar melody rhythm video game vgm edm はるのひめ シクスターゲート プリンセス オブ スプリング Princess of Spring seomin Lyrebird Studio Silence Music Pack
BeatmapID:3763411
BeatmapSetID:1833194

[Difficulty]
HPDrainRate:8
CircleSize:10
OverallDifficulty:8
ApproachRate:5
SliderMultiplier:1.4
SliderTickRate:1

[Events]
//Background and Video events
0,0,"harunohime.jpg",0,0
//Break Periods
//Storyboard Layer 0 (Background)
//Storyboard Layer 1 (Fail)
//Storyboard Layer 2 (Pass)
//Storyboard Layer 3 (Foreground)
//Storyboard Layer 4 (Overlay)
//Storyboard Sound Samples

[TimingPoints]
-25,571.428571428571,4,2,1,16,1,0
20546,-100,4,2,1,16,0,1
38832,-100,4,2,1,16,0,0
84546,-100,4,2,1,16,0,1
102260,-100,4,2,1,16,0,0
102832,-100,4,2,1,16,0,1
121117,-100,4,2,1,16,0,0

[HitObjects]
128,192,2260,128,0,2332:0:0:0:0:
332,192,2260,1,0,0:0:0:0:
128,192,2832,128,0,2903:0:0:0:0:
384,192,3403,128,0,3474:0:0:0:0:
179,192,3403,1,0,0:0:0:0:
384,192,3974,128,0,4046:0:0:0:0:
332,192,3974,1,0,0:0:0:0:
179,192,4546,128,0,4617:0:0:0:0:
128,192,4546,1,0,0:0:0:0:
179,192,5117,128,0,5189:0:0:0:0:
332,192,5689,128,0,5760:0:0:0:0:
76,192,5689,1,0,0:0:0:0:
332,192,6260,128,0,6332:0:0:0:0:
128,192,6832,128,0,6903:0:0:0:0:
435,192,6832,1,0,0:0:0:0:
128,192,7403,128,0,7474:0:0:0:0:
384,192,7974,128,0,8046:0:0:0:0:
76,192,7974,1,0,0:0:0:0:
384,192,8546,128,0,8617:0:0:0:0:
332,192,8546,1,0,0:0:0:0:
179,192,9117,128,0,9189:0:0:0:0:
435,192,9117,1,0,0:0:0:0:
179,192,9689,128,0,9760:0:0:0:0:
332,192,10260,128,0,10332:0:0:0:0:
384,192,10260,1,0,0:0:0:0:
332,192,10832,128,0,10903:0:0:0:0:
332,192,11260,1,0,0:0:0:0:
179,192,11332,1,0,0:0:0:0:
281,192,11403,5,0,0:0:0:0:
384,192,11403,1,0,0:0:0:0:
435,192,11689,1,0,0:0:0:0:
230,192,11832,1,0,0:0:0:0:
128,192,11832,1,0,0:0:0:0:
332,192,11832,1,0,0:0:0:0:
435,192,11974,1,0,0:0:0:0:
332,192,12260,1,0,0:0:0:0:
128,192,12403,1,0,0:0:0:0:
230,192,12403,1,0,0:0:0:0:
179,192,12546,1,0,0:0:0:0:
230,192,12689,1,0,0:0:0:0:
128,192,12832,128,0,13117:0:0:0:0:
384,192,12832,128,0,13117:0:0:0:0:
281,192,12832,1,0,0:0:0:0:
486,192,13117,1,0,0:0:0:0:
25,192,13117,1,0,0:0:0:0:
128,192,13260,1,0,0:0:0:0:
230,192,13260,1,0,0:0:0:0:
332,192,13403,1,0,0:0:0:0:
435,192,13546,1,0,0:0:0:0:
128,192,13689,1,0,0:0:0:0:
230,192,13689,1,0,0:0:0:0:
384,192,13832,1,0,0:0:0:0:
76,192,13974,1,0,0:0:0:0:
179,192,14117,1,0,0:0:0:0:
281,192,14117,1,0,0:0:0:0:
384,192,14117,1,0,0:0:0:0:
76,192,14260,1,0,0:0:0:0:
179,192,14546,1,0,0:0:0:0:
384,192,14689,1,0,0:0:0:0:
281,192,14689,1,0,0:0:0:0:
332,192,14832,1,0,0:0:0:0:
281,192,14974,1,0,0:0:0:0:
128,192,15117,128,0,15403:0:0:0:0:
384,192,15117,128,0,15403:0:0:0:0:
230,192,15117,1,0,0:0:0:0:
179,192,15260,1,0,0:0:0:0:
25,192,15403,1,0,0:0:0:0:
486,192,15403,1,0,0:0:0:0:
384,192,15546,1,0,0:0:0:0:
281,192,15546,1,0,0:0:0:0:
76,192,15689,1,0,0:0:0:0:
435,192,15832,1,0,0:0:0:0:
179,192,15903,1,0,0:0:0:0:
281,192,15974,1,0,0:0:0:0:
384,192,15974,1,0,0:0:0:0:
435,192,16260,1,0,0:0:0:0:
128,192,16403,1,0,0:0:0:0:
230,192,16403,1,0,0:0:0:0:
332,192,16403,1,0,0:0:0:0:
435,192,16546,1,0,0:0:0:0:
332,192,16832,1,0,0:0:0:0:
128,192,16974,1,0,0:0:0:0:
230,192,16974,1,0,0:0:0:0:
179,192,17117,1,0,0:0:0:0:
230,192,17260,1,0,0:0:0:0:
128,192,17403,128,0,17689:0:0:0:0:
384,192,17403,128,0,17689:0:0:0:0:
281,192,17403,1,0,0:0:0:0:
486,192,17689,1,0,0:0:0:0:
25,192,17689,1,0,0:0:0:0:
128,192,17832,1,0,0:0:0:0:
230,192,17832,1,0,0:0:0:0:
332,192,17974,1,0,0:0:0:0:
435,192,18117,1,0,0:0:0:0:
128,192,18260,1,0,0:0:0:0:
230,192,18260,1,0,0:0:0:0:
384,192,18403,1,0,0:0:0:0:
76,192,18546,1,0,0:0:0:0:
435,192,18546,1,0,0:0:0:0:
179,192,18689,1,0,0:0:0:0:
332,192,18689,1,0,0:0:0:0:
76,192,18832,1,0,0:0:0:0:
435,192,18832,1,0,0:0:0:0:
128,192,19117,1,0,0:0:0:0:
384,192,19117,1,0,0:0:0:0:
25,192,19403,1,0,0:0:0:0:
486,192,19403,1,0,0:0:0:0:
76,192,19689,1,0,0:0:0:0:
332,192,19689,1,0,0:0:0:0:
435,192,19832,1,0,0:0:0:0:
179,192,19832,1,0,0:0:0:0:
76,192,19974,1,0,0:0:0:0:
281,192,19974,1,0,0:0:0:0:
435,192,20117,1,0,0:0:0:0:
230,192,20117,1,0,0:0:0:0:
76,192,20260,1,0,0:0:0:0:
332,192,20260,1,0,0:0:0:0:
179,192,20403,1,0,0:0:0:0:
332,192,20474,1,0,0:0:0:0:
230,192,20546,1,0,0:0:0:0:
128,192,20546,1,0,0:0:0:0:
435,192,20832,1,0,0:0:0:0:
76,192,20832,1,0,0:0:0:0:
281,192,20974,1,0,0:0:0:0:
384,192,20974,1,0,0:0:0:0:
179,192,20974,1,0,0:0:0:0:
25,192,21117,1,0,0:0:0:0:
486,192,21117,1,0,0:0:0:0:
332,192,21117,1,0,0:0:0:0:
76,192,21403,1,0,0:0:0:0:
332,192,21403,1,0,0:0:0:0:
281,192,21546,1,0,0:0:0:0:
384,192,21546,1,0,0:0:0:0:
179,192,21689,1,0,0:0:0:0:
435,192,21689,1,0,0:0:0:0:
281,192,21832,1,0,0:0:0:0:
128,192,21974,128,0,22260:0:0:0:0:
384,192,21974,128,0,22260:0:0:0:0:
230,192,21974,1,0,0:0:0:0:
25,192,22260,1,0,0:0:0:0:
486,192,22260,1,0,0:0:0:0:
281,192,22403,1,0,0:0:0:0:
384,192,22403,1,0,0:0:0:0:
128,192,22546,1,0,0:0:0:0:
435,192,22546,1,0,0:0:0:0:
25,192,22689,1,0,0:0:0:0:
332,192,22689,1,0,0:0:0:0:
384,192,22832,1,0,0:0:0:0:
281,192,22832,1,0,0:0:0:0:
179,192,22974,1,0,0:0:0:0:
76,192,23117,1,0,0:0:0:0:
435,192,23117,1,0,0:0:0:0:
332,192,23260,1,0,0:0:0:0:
230,192,23260,1,0,0:0:0:0:
128,192,23260,1,0,0:0:0:0:
25,192,23403,1,0,0:0:0:0:
486,192,23403,1,0,0:0:0:0:
179,192,23403,1,0,0:0:0:0:
179,192,23689,1,0,0:0:0:0:
435,192,23689,1,0,0:0:0:0:
128,192,23832,1,0,0:0:0:0:
230,192,23832,1,0,0:0:0:0:
76,192,23974,1,0,0:0:0:0:
332,192,23974,1,0,0:0:0:0:
230,192,24117,1,0,0:0:0:0:
384,192,24260,128,0,24546:0:0:0:0:
128,192,24260,128,0,24546:0:0:0:0:
281,192,24260,1,0,0:0:0:0:
332,192,24403,1,0,0:0:0:0:
25,192,24546,1,0,0:0:0:0:
486,192,24546,1,0,0:0:0:0:
128,192,24689,1,0,0:0:0:0:
230,192,24689,1,0,0:0:0:0:
384,192,24832,1,0,0:0:0:0:
76,192,24832,1,0,0:0:0:0:
486,192,24974,1,0,0:0:0:0:
179,192,24974,1,0,0:0:0:0:
332,192,25046,1,0,0:0:0:0:
128,192,25117,1,0,0:0:0:0:
230,192,25117,1,0,0:0:0:0:
76,192,25403,1,0,0:0:0:0:
435,192,25403,1,0,0:0:0:0:
384,192,25546,1,0,0:0:0:0:
281,192,25546,1,0,0:0:0:0:
179,192,25546,1,0,0:0:0:0:
486,192,25689,1,0,0:0:0:0:
25,192,25689,1,0,0:0:0:0:
332,192,25689,1,0,0:0:0:0:
435,192,25974,1,0,0:0:0:0:
179,192,25974,1,0,0:0:0:0:
281,192,26117,1,0,0:0:0:0:
384,192,26117,1,0,0:0:0:0:
76,192,26260,1,0,0:0:0:0:
332,192,26260,1,0,0:0:0:0:
179,192,26403,1,0,0:0:0:0:
435,192,26403,1,0,0:0:0:0:
230,192,26546,1,0,0:0:0:0:
128,192,26546,128,0,26832:0:0:0:0:
384,192,26546,128,0,26832:0:0:0:0:
179,192,26689,1,0,0:0:0:0:
25,192,26832,1,0,0:0:0:0:
486,192,26832,1,0,0:0:0:0:
281,192,26974,1,0,0:0:0:0:
384,192,26974,1,0,0:0:0:0:
332,192,27117,1,0,0:0:0:0:
25,192,27117,1,0,0:0:0:0:
435,192,27260,1,0,0:0:0:0:
128,192,27260,1,0,0:0:0:0:
281,192,27403,1,0,0:0:0:0:
384,192,27403,1,0,0:0:0:0:
128,192,27546,1,0,0:0:0:0:
281,192,27689,1,0,0:0:0:0:
384,192,27689,1,0,0:0:0:0:
179,192,27689,1,0,0:0:0:0:
230,192,27832,1,0,0:0:0:0:
25,192,27974,1,0,0:0:0:0:
486,192,27974,1,0,0:0:0:0:
128,192,28117,1,0,0:0:0:0:
230,192,28117,1,0,0:0:0:0:
332,192,28117,1,0,0:0:0:0:
179,192,28260,1,0,0:0:0:0:
384,192,28260,1,0,0:0:0:0:
332,192,28403,1,0,0:0:0:0:
128,192,28403,1,0,0:0:0:0:
435,192,28474,1,0,0:0:0:0:
281,192,28546,1,0,0:0:0:0:
486,192,28689,1,0,0:0:0:0:
25,192,28689,1,0,0:0:0:0:
281,192,28832,1,0,0:0:0:0:
128,192,28832,128,0,29117:0:0:0:0:
384,192,28832,128,0,29117:0:0:0:0:
179,192,28974,1,0,0:0:0:0:
332,192,28974,1,0,0:0:0:0:
486,192,29117,1,0,0:0:0:0:
25,192,29117,1,0,0:0:0:0:
128,192,29260,1,0,0:0:0:0:
230,192,29260,1,0,0:0:0:0:
179,192,29403,1,0,0:0:0:0:
486,192,29403,1,0,0:0:0:0:
384,192,29546,1,0,0:0:0:0:
76,192,29546,1,0,0:0:0:0:
435,192,29617,1,0,0:0:0:0:
128,192,29689,1,0,0:0:0:0:
230,192,29689,1,0,0:0:0:0:
76,192,29974,1,0,0:0:0:0:
435,192,29974,1,0,0:0:0:0:
230,192,30117,1,0,0:0:0:0:
128,192,30117,1,0,0:0:0:0:
332,192,30117,1,0,0:0:0:0:
486,192,30260,1,0,0:0:0:0:
25,192,30260,1,0,0:0:0:0:
179,192,30260,1,0,0:0:0:0:
435,192,30546,1,0,0:0:0:0:
179,192,30546,1,0,0:0:0:0:
230,192,30689,1,0,0:0:0:0:
128,192,30689,1,0,0:0:0:0:
332,192,30832,1,0,0:0:0:0:
76,192,30832,1,0,0:0:0:0:
230,192,30974,1,0,0:0:0:0:
384,192,31117,128,0,31403:0:0:0:0:
128,192,31117,128,0,31403:0:0:0:0:
281,192,31117,1,0,0:0:0:0:
486,192,31403,1,0,0:0:0:0:
25,192,31403,1,0,0:0:0:0:
230,192,31546,1,0,0:0:0:0:
128,192,31546,1,0,0:0:0:0:
384,192,31689,1,0,0:0:0:0:
76,192,31689,1,0,0:0:0:0:
486,192,31832,1,0,0:0:0:0:
179,192,31832,1,0,0:0:0:0:
128,192,31974,1,0,0:0:0:0:
230,192,31974,1,0,0:0:0:0:
332,192,32117,1,0,0:0:0:0:
435,192,32260,1,0,0:0:0:0:
76,192,32260,1,0,0:0:0:0:
179,192,32403,1,0,0:0:0:0:
281,192,32403,1,0,0:0:0:0:
384,192,32403,1,0,0:0:0:0:
486,192,32546,1,0,0:0:0:0:
25,192,32546,1,0,0:0:0:0:
332,192,32546,1,0,0:0:0:0:
332,192,32832,1,0,0:0:0:0:
76,192,32832,1,0,0:0:0:0:
384,192,32974,1,0,0:0:0:0:
281,192,32974,1,0,0:0:0:0:
435,192,33117,1,0,0:0:0:0:
179,192,33117,1,0,0:0:0:0:
281,192,33260,1,0,0:0:0:0:
128,192,33403,128,0,33689:0:0:0:0:
384,192,33403,128,0,33689:0:0:0:0:
230,192,33403,1,0,0:0:0:0:
179,192,33546,1,0,0:0:0:0:
486,192,33689,1,0,0:0:0:0:
25,192,33689,1,0,0:0:0:0:
384,192,33832,1,0,0:0:0:0:
281,192,33832,1,0,0:0:0:0:
128,192,33974,1,0,0:0:0:0:
435,192,33974,1,0,0:0:0:0:
25,192,34117,1,0,0:0:0:0:
332,192,34117,1,0,0:0:0:0:
179,192,34189,1,0,0:0:0:0:
384,192,34260,1,0,0:0:0:0:
281,192,34260,1,0,0:0:0:0:
128,192,34403,1,0,0:0:0:0:
332,192,34403,1,0,0:0:0:0:
384,192,34546,1,0,0:0:0:0:
230,192,34546,1,0,0:0:0:0:
435,192,34689,1,0,0:0:0:0:
179,192,34689,1,0,0:0:0:0:
76,192,34689,1,0,0:0:0:0:
25,192,34832,1,0,0:0:0:0:
486,192,34832,1,0,0:0:0:0:
128,192,34974,1,0,0:0:0:0:
384,192,34974,1,0,0:0:0:0:
76,192,35117,1,0,0:0:0:0:
332,192,35117,1,0,0:0:0:0:
230,192,35260,1,0,0:0:0:0:
128,192,35260,1,0,0:0:0:0:
384,192,35260,1,0,0:0:0:0:
435,192,35403,1,0,0:0:0:0:
179,192,35403,1,0,0:0:0:0:
332,192,35546,1,0,0:0:0:0:
76,192,35546,1,0,0:0:0:0:
281,192,35689,1,0,0:0:0:0:
384,192,35689,128,0,35974:0:0:0:0:
128,192,35689,128,0,35974:0:0:0:0:
332,192,35832,1,0,0:0:0:0:
486,192,35974,1,0,0:0:0:0:
25,192,35974,1,0,0:0:0:0:
230,192,36117,1,0,0:0:0:0:
128,192,36117,1,0,0:0:0:0:
179,192,36260,1,0,0:0:0:0:
486,192,36260,1,0,0:0:0:0:
76,192,36403,1,0,0:0:0:0:
384,192,36403,1,0,0:0:0:0:
230,192,36546,1,0,0:0:0:0:
128,192,36546,1,0,0:0:0:0:
384,192,36689,1,0,0:0:0:0:
230,192,36832,1,0,0:0:0:0:
128,192,36832,1,0,0:0:0:0:
332,192,36832,1,0,0:0:0:0:
281,192,36974,1,0,0:0:0:0:
486,192,37117,1,0,0:0:0:0:
25,192,37117,1,0,0:0:0:0:
179,192,37260,1,0,0:0:0:0:
435,192,37260,1,0,0:0:0:0:
332,192,37260,1,0,0:0:0:0:
128,192,37403,1,0,0:0:0:0:
281,192,37403,1,0,0:0:0:0:
179,192,37546,1,0,0:0:0:0:
332,192,37546,1,0,0:0:0:0:
76,192,37617,1,0,0:0:0:0:
230,192,37689,1,0,0:0:0:0:
486,192,37832,1,0,0:0:0:0:
25,192,37832,1,0,0:0:0:0:
230,192,37974,1,0,0:0:0:0:
384,192,37974,128,0,38260:0:0:0:0:
128,192,37974,128,0,38260:0:0:0:0:
332,192,38117,1,0,0:0:0:0:
179,192,38117,1,0,0:0:0:0:
25,192,38260,1,0,0:0:0:0:
486,192,38260,1,0,0:0:0:0:
76,192,38403,1,0,0:0:0:0:
435,192,38403,1,0,0:0:0:0:
384,192,38546,1,0,0:0:0:0:
128,192,38546,1,0,0:0:0:0:
179,192,38689,1,0,0:0:0:0:
76,192,38760,1,0,0:0:0:0:
332,192,38832,128,0,43403:0:0:0:0:
128,192,39974,1,0,0:0:0:0:
230,192,39974,1,0,0:0:0:0:
486,192,40546,1,0,0:0:0:0:
76,192,41117,1,0,0:0:0:0:
179,192,41117,1,0,0:0:0:0:
128,192,42260,1,0,0:0:0:0:
25,192,42260,1,0,0:0:0:0:
179,192,43403,128,0,45117:0:0:0:0:
76,192,43403,1,0,0:0:0:0:
281,192,44546,1,0,0:0:0:0:
384,192,44546,1,0,0:0:0:0:
486,192,45117,1,0,0:0:0:0:
230,192,45689,1,0,0:0:0:0:
128,192,45689,1,0,0:0:0:0:
25,192,46832,1,0,0:0:0:0:
128,192,46832,1,0,0:0:0:0:
230,192,47974,1,0,0:0:0:0:
128,192,47974,1,0,0:0:0:0:
486,192,48260,1,0,0:0:0:0:
281,192,48403,1,0,0:0:0:0:
384,192,48403,1,0,0:0:0:0:
486,192,48546,1,0,0:0:0:0:
230,192,48832,1,0,0:0:0:0:
435,192,48974,1,0,0:0:0:0:
332,192,48974,1,0,0:0:0:0:
179,192,49117,1,0,0:0:0:0:
281,192,49260,1,0,0:0:0:0:
435,192,49403,1,0,0:0:0:0:
332,192,49403,1,0,0:0:0:0:
281,192,49832,1,0,0:0:0:0:
384,192,49832,1,0,0:0:0:0:
76,192,49974,1,0,0:0:0:0:
332,192,50117,1,0,0:0:0:0:
281,192,50260,1,0,0:0:0:0:
384,192,50260,1,0,0:0:0:0:
128,192,50403,1,0,0:0:0:0:
25,192,50546,1,0,0:0:0:0:
230,192,50689,1,0,0:0:0:0:
128,192,50689,1,0,0:0:0:0:
25,192,50832,1,0,0:0:0:0:
281,192,51117,1,0,0:0:0:0:
179,192,51260,1,0,0:0:0:0:
76,192,51260,1,0,0:0:0:0:
332,192,51403,1,0,0:0:0:0:
230,192,51546,1,0,0:0:0:0:
76,192,51689,1,0,0:0:0:0:
179,192,51689,1,0,0:0:0:0:
332,192,51832,1,0,0:0:0:0:
486,192,51974,1,0,0:0:0:0:
230,192,52117,1,0,0:0:0:0:
128,192,52117,1,0,0:0:0:0:
25,192,52260,1,0,0:0:0:0:
179,192,52403,1,0,0:0:0:0:
281,192,52546,1,0,0:0:0:0:
384,192,52546,1,0,0:0:0:0:
25,192,52832,1,0,0:0:0:0:
230,192,52974,1,0,0:0:0:0:
128,192,52974,1,0,0:0:0:0:
25,192,53117,1,0,0:0:0:0:
281,192,53403,1,0,0:0:0:0:
76,192,53546,1,0,0:0:0:0:
179,192,53546,1,0,0:0:0:0:
332,192,53689,1,0,0:0:0:0:
230,192,53832,1,0,0:0:0:0:
76,192,53974,1,0,0:0:0:0:
179,192,53974,1,0,0:0:0:0:
230,192,54403,1,0,0:0:0:0:
128,192,54403,1,0,0:0:0:0:
435,192,54546,1,0,0:0:0:0:
179,192,54689,1,0,0:0:0:0:
230,192,54832,1,0,0:0:0:0:
128,192,54832,1,0,0:0:0:0:
384,192,54974,1,0,0:0:0:0:
486,192,55117,5,0,0:0:0:0:
486,192,55403,1,0,0:0:0:0:
128,192,55689,1,0,0:0:0:0:
179,192,55974,1,0,0:0:0:0:
332,192,55974,1,0,0:0:0:0:
25,192,56260,5,0,0:0:0:0:
486,192,56260,1,0,0:0:0:0:
179,192,56260,128,0,56832:0:0:0:0:
332,192,56260,128,0,56832:0:0:0:0:
25,192,56546,1,0,0:0:0:0:
486,192,56546,1,0,0:0:0:0:
486,192,56832,1,0,0:0:0:0:
25,192,56832,1,0,0:0:0:0:
179,192,56974,1,0,0:0:0:0:
332,192,57046,1,0,0:0:0:0:
230,192,57117,1,0,0:0:0:0:
128,192,57117,128,0,58260:0:0:0:0:
486,192,57403,1,0,0:0:0:0:
281,192,57546,1,0,0:0:0:0:
384,192,57546,1,0,0:0:0:0:
486,192,57689,1,0,0:0:0:0:
25,192,57689,1,0,0:0:0:0:
281,192,57974,1,0,0:0:0:0:
332,192,58117,1,0,0:0:0:0:
435,192,58117,1,0,0:0:0:0:
179,192,58260,128,0,59403:0:0:0:0:
435,192,58546,1,0,0:0:0:0:
332,192,58546,1,0,0:0:0:0:
25,192,58832,1,0,0:0:0:0:
486,192,58832,1,0,0:0:0:0:
281,192,58974,1,0,0:0:0:0:
384,192,58974,1,0,0:0:0:0:
76,192,59117,1,0,0:0:0:0:
332,192,59260,1,0,0:0:0:0:
281,192,59403,1,0,0:0:0:0:
384,192,59403,128,0,60546:0:0:0:0:
128,192,59546,1,0,0:0:0:0:
25,192,59689,1,0,0:0:0:0:
230,192,59832,1,0,0:0:0:0:
128,192,59832,1,0,0:0:0:0:
486,192,59974,1,0,0:0:0:0:
25,192,59974,1,0,0:0:0:0:
230,192,60260,1,0,0:0:0:0:
76,192,60403,1,0,0:0:0:0:
179,192,60403,1,0,0:0:0:0:
332,192,60546,128,0,61689:0:0:0:0:
281,192,60689,1,0,0:0:0:0:
76,192,60832,1,0,0:0:0:0:
179,192,60832,1,0,0:0:0:0:
230,192,60974,1,0,0:0:0:0:
486,192,61117,1,0,0:0:0:0:
25,192,61117,1,0,0:0:0:0:
230,192,61260,1,0,0:0:0:0:
128,192,61260,1,0,0:0:0:0:
25,192,61403,1,0,0:0:0:0:
179,192,61546,1,0,0:0:0:0:
76,192,61617,1,0,0:0:0:0:
281,192,61689,1,0,0:0:0:0:
384,192,61689,128,0,62832:0:0:0:0:
25,192,61974,1,0,0:0:0:0:
230,192,62117,1,0,0:0:0:0:
128,192,62117,1,0,0:0:0:0:
25,192,62260,1,0,0:0:0:0:
486,192,62260,1,0,0:0:0:0:
230,192,62546,1,0,0:0:0:0:
76,192,62689,1,0,0:0:0:0:
179,192,62689,1,0,0:0:0:0:
332,192,62832,128,0,63974:0:0:0:0:
76,192,63117,1,0,0:0:0:0:
179,192,63117,1,0,0:0:0:0:
486,192,63403,1,0,0:0:0:0:
25,192,63403,1,0,0:0:0:0:
230,192,63546,1,0,0:0:0:0:
128,192,63546,1,0,0:0:0:0:
435,192,63689,1,0,0:0:0:0:
179,192,63832,1,0,0:0:0:0:
230,192,63974,1,0,0:0:0:0:
128,192,63974,1,0,0:0:0:0:
384,192,64117,1,0,0:0:0:0:
486,192,64260,1,0,0:0:0:0:
230,192,64260,1,0,0:0:0:0:
128,192,64260,128,0,65117:0:0:0:0:
25,192,64546,1,0,0:0:0:0:
486,192,64546,1,0,0:0:0:0:
281,192,64689,1,0,0:0:0:0:
384,192,64689,1,0,0:0:0:0:
435,192,64832,1,0,0:0:0:0:
332,192,64974,1,0,0:0:0:0:
435,192,65046,1,0,0:0:0:0:
179,192,65117,128,0,66260:0:0:0:0:
230,192,65260,1,0,0:0:0:0:
435,192,65403,1,0,0:0:0:0:
332,192,65403,1,0,0:0:0:0:
281,192,65546,1,0,0:0:0:0:
25,192,65689,1,0,0:0:0:0:
486,192,65689,1,0,0:0:0:0:
281,192,65832,1,0,0:0:0:0:
384,192,65832,1,0,0:0:0:0:
486,192,65974,1,0,0:0:0:0:
76,192,66117,1,0,0:0:0:0:
435,192,66189,1,0,0:0:0:0:
128,192,66260,1,0,0:0:0:0:
230,192,66260,128,0,67403:0:0:0:0:
332,192,66403,1,0,0:0:0:0:
486,192,66546,1,0,0:0:0:0:
281,192,66689,1,0,0:0:0:0:
384,192,66689,1,0,0:0:0:0:
486,192,66832,1,0,0:0:0:0:
25,192,66832,1,0,0:0:0:0:
281,192,67117,1,0,0:0:0:0:
332,192,67260,1,0,0:0:0:0:
435,192,67260,1,0,0:0:0:0:
179,192,67403,128,0,68546:0:0:0:0:
332,192,67689,1,0,0:0:0:0:
435,192,67689,1,0,0:0:0:0:
25,192,67974,1,0,0:0:0:0:
486,192,67974,1,0,0:0:0:0:
281,192,68117,1,0,0:0:0:0:
384,192,68117,1,0,0:0:0:0:
76,192,68260,1,0,0:0:0:0:
332,192,68403,1,0,0:0:0:0:
384,192,68546,1,0,0:0:0:0:
281,192,68546,128,0,69689:0:0:0:0:
128,192,68689,1,0,0:0:0:0:
25,192,68832,1,0,0:0:0:0:
230,192,68974,1,0,0:0:0:0:
128,192,68974,1,0,0:0:0:0:
486,192,69117,1,0,0:0:0:0:
25,192,69117,1,0,0:0:0:0:
230,192,69403,1,0,0:0:0:0:
76,192,69546,1,0,0:0:0:0:
179,192,69546,1,0,0:0:0:0:
332,192,69689,128,0,70832:0:0:0:0:
230,192,69832,1,0,0:0:0:0:
76,192,69974,1,0,0:0:0:0:
179,192,69974,1,0,0:0:0:0:
281,192,70117,1,0,0:0:0:0:
486,192,70260,1,0,0:0:0:0:
25,192,70260,1,0,0:0:0:0:
230,192,70403,1,0,0:0:0:0:
128,192,70403,1,0,0:0:0:0:
25,192,70546,1,0,0:0:0:0:
179,192,70689,1,0,0:0:0:0:
76,192,70760,1,0,0:0:0:0:
281,192,70832,128,0,71974:0:0:0:0:
384,192,70832,1,0,0:0:0:0:
25,192,71117,1,0,0:0:0:0:
128,192,71260,1,0,0:0:0:0:
230,192,71260,1,0,0:0:0:0:
486,192,71403,1,0,0:0:0:0:
25,192,71403,1,0,0:0:0:0:
230,192,71689,1,0,0:0:0:0:
76,192,71832,1,0,0:0:0:0:
179,192,71832,1,0,0:0:0:0:
332,192,71974,128,0,73117:0:0:0:0:
76,192,72260,1,0,0:0:0:0:
179,192,72260,1,0,0:0:0:0:
25,192,72546,1,0,0:0:0:0:
486,192,72546,1,0,0:0:0:0:
128,192,72689,1,0,0:0:0:0:
230,192,72689,1,0,0:0:0:0:
435,192,72832,1,0,0:0:0:0:
179,192,72974,1,0,0:0:0:0:
128,192,73117,1,0,0:0:0:0:
230,192,73117,1,0,0:0:0:0:
384,192,73260,1,0,0:0:0:0:
486,192,73403,1,0,0:0:0:0:
128,192,73403,1,0,0:0:0:0:
230,192,73403,128,0,74260:0:0:0:0:
486,192,73689,1,0,0:0:0:0:
25,192,73689,1,0,0:0:0:0:
384,192,73832,1,0,0:0:0:0:
281,192,73832,1,0,0:0:0:0:
435,192,73974,1,0,0:0:0:0:
332,192,74117,1,0,0:0:0:0:
435,192,74189,1,0,0:0:0:0:
179,192,74260,128,0,75403:0:0:0:0:
281,192,74403,1,0,0:0:0:0:
435,192,74546,5,0,0:0:0:0:
332,192,74546,1,0,0:0:0:0:
230,192,74689,1,0,0:0:0:0:
486,192,74832,1,0,0:0:0:0:
25,192,74832,1,0,0:0:0:0:
384,192,74974,1,0,0:0:0:0:
281,192,74974,1,0,0:0:0:0:
486,192,75117,1,0,0:0:0:0:
76,192,75260,1,0,0:0:0:0:
435,192,75332,1,0,0:0:0:0:
128,192,75403,1,0,0:0:0:0:
76,192,75689,5,0,0:0:0:0:
384,192,75689,1,0,0:0:0:0:
179,192,75832,1,0,0:0:0:0:
486,192,75832,1,0,0:0:0:0:
76,192,75974,1,0,0:0:0:0:
384,192,75974,1,0,0:0:0:0:
435,192,76260,1,0,0:0:0:0:
179,192,76260,1,0,0:0:0:0:
128,192,76546,128,0,77117:0:0:0:0:
384,192,76546,128,0,77117:0:0:0:0:
76,192,77403,1,0,0:0:0:0:
384,192,77403,1,0,0:0:0:0:
179,192,77546,1,0,0:0:0:0:
486,192,77546,1,0,0:0:0:0:
332,192,77689,1,0,0:0:0:0:
25,192,77689,1,0,0:0:0:0:
76,192,77832,1,0,0:0:0:0:
384,192,77832,1,0,0:0:0:0:
435,192,77974,5,0,0:0:0:0:
128,192,77974,1,0,0:0:0:0:
332,192,78117,1,0,0:0:0:0:
25,192,78117,1,0,0:0:0:0:
435,192,78260,1,0,0:0:0:0:
128,192,78260,1,0,0:0:0:0:
76,192,78546,1,0,0:0:0:0:
332,192,78546,1,0,0:0:0:0:
128,192,78832,1,0,0:0:0:0:
384,192,78832,1,0,0:0:0:0:
76,192,79117,1,0,0:0:0:0:
332,192,79117,1,0,0:0:0:0:
128,192,79260,1,0,0:0:0:0:
384,192,79260,1,0,0:0:0:0:
435,192,79403,1,0,0:0:0:0:
179,192,79403,1,0,0:0:0:0:
25,192,79546,1,0,0:0:0:0:
332,192,79546,1,0,0:0:0:0:
435,192,79689,1,0,0:0:0:0:
128,192,79689,1,0,0:0:0:0:
332,192,79832,1,0,0:0:0:0:
25,192,79832,1,0,0:0:0:0:
179,192,79974,1,0,0:0:0:0:
486,192,79974,1,0,0:0:0:0:
435,192,80260,5,0,0:0:0:0:
128,192,80260,1,0,0:0:0:0:
332,192,80403,1,0,0:0:0:0:
25,192,80403,1,0,0:0:0:0:
435,192,80546,1,0,0:0:0:0:
128,192,80546,1,0,0:0:0:0:
76,192,80832,1,0,0:0:0:0:
332,192,80832,1,0,0:0:0:0:
384,192,81117,128,0,81689:0:0:0:0:
128,192,81117,128,0,81689:0:0:0:0:
435,192,81974,1,0,0:0:0:0:
128,192,81974,1,0,0:0:0:0:
332,192,82117,1,0,0:0:0:0:
25,192,82117,1,0,0:0:0:0:
179,192,82260,1,0,0:0:0:0:
486,192,82260,1,0,0:0:0:0:
435,192,82403,1,0,0:0:0:0:
128,192,82403,1,0,0:0:0:0:
76,192,82546,5,0,0:0:0:0:
384,192,82546,1,0,0:0:0:0:
179,192,82689,1,0,0:0:0:0:
486,192,82689,1,0,0:0:0:0:
76,192,82832,1,0,0:0:0:0:
384,192,82832,1,0,0:0:0:0:
435,192,83117,1,0,0:0:0:0:
179,192,83117,1,0,0:0:0:0:
384,192,83403,1,0,0:0:0:0:
128,192,83403,1,0,0:0:0:0:
179,192,83546,5,0,0:0:0:0:
332,192,83617,1,0,0:0:0:0:
435,192,83689,5,0,0:0:0:0:
179,192,83689,1,0,0:0:0:0:
76,192,83832,1,0,0:0:0:0:
332,192,83832,1,0,0:0:0:0:
435,192,83974,1,0,0:0:0:0:
230,192,83974,1,0,0:0:0:0:
76,192,84117,1,0,0:0:0:0:
281,192,84117,1,0,0:0:0:0:
435,192,84260,1,0,0:0:0:0:
179,192,84260,1,0,0:0:0:0:
76,192,84403,1,0,0:0:0:0:
332,192,84403,1,0,0:0:0:0:
281,192,84546,5,0,0:0:0:0:
384,192,84546,1,0,0:0:0:0:
230,192,84546,1,0,0:0:0:0:
128,192,84546,1,0,0:0:0:0:
25,192,84832,1,0,0:0:0:0:
332,192,84832,1,0,0:0:0:0:
128,192,84974,1,0,0:0:0:0:
435,192,84974,1,0,0:0:0:0:
230,192,84974,1,0,0:0:0:0:
25,192,85117,1,0,0:0:0:0:
332,192,85117,1,0,0:0:0:0:
486,192,85117,1,0,0:0:0:0:
76,192,85403,1,0,0:0:0:0:
332,192,85403,1,0,0:0:0:0:
128,192,85546,1,0,0:0:0:0:
230,192,85546,1,0,0:0:0:0:
179,192,85689,1,0,0:0:0:0:
435,192,85689,1,0,0:0:0:0:
332,192,85832,1,0,0:0:0:0:
128,192,85974,128,0,86260:0:0:0:0:
384,192,85974,128,0,86260:0:0:0:0:
281,192,85974,1,0,0:0:0:0:
230,192,86117,1,0,0:0:0:0:
25,192,86260,1,0,0:0:0:0:
486,192,86260,1,0,0:0:0:0:
128,192,86403,1,0,0:0:0:0:
230,192,86403,1,0,0:0:0:0:
486,192,86546,1,0,0:0:0:0:
179,192,86546,1,0,0:0:0:0:
76,192,86689,1,0,0:0:0:0:
384,192,86689,1,0,0:0:0:0:
128,192,86832,1,0,0:0:0:0:
230,192,86832,1,0,0:0:0:0:
25,192,86974,1,0,0:0:0:0:
332,192,86974,1,0,0:0:0:0:
486,192,87117,1,0,0:0:0:0:
179,192,87117,1,0,0:0:0:0:
384,192,87260,1,0,0:0:0:0:
76,192,87260,1,0,0:0:0:0:
281,192,87260,1,0,0:0:0:0:
486,192,87403,1,0,0:0:0:0:
179,192,87403,1,0,0:0:0:0:
25,192,87403,1,0,0:0:0:0:
435,192,87689,1,0,0:0:0:0:
179,192,87689,1,0,0:0:0:0:
281,192,87832,1,0,0:0:0:0:
384,192,87832,1,0,0:0:0:0:
76,192,87974,1,0,0:0:0:0:
332,192,87974,1,0,0:0:0:0:
179,192,88117,1,0,0:0:0:0:
128,192,88260,128,0,88546:0:0:0:0:
384,192,88260,128,0,88546:0:0:0:0:
230,192,88260,1,0,0:0:0:0:
332,192,88403,1,0,0:0:0:0:
179,192,88403,1,0,0:0:0:0:
486,192,88546,1,0,0:0:0:0:
25,192,88546,1,0,0:0:0:0:
281,192,88689,1,0,0:0:0:0:
384,192,88689,1,0,0:0:0:0:
25,192,88832,1,0,0:0:0:0:
332,192,88832,1,0,0:0:0:0:
128,192,88974,1,0,0:0:0:0:
435,192,88974,1,0,0:0:0:0:
76,192,89046,1,0,0:0:0:0:
281,192,89117,1,0,0:0:0:0:
384,192,89117,1,0,0:0:0:0:
76,192,89403,1,0,0:0:0:0:
384,192,89403,1,0,0:0:0:0:
128,192,89546,1,0,0:0:0:0:
230,192,89546,1,0,0:0:0:0:
435,192,89546,1,0,0:0:0:0:
486,192,89689,1,0,0:0:0:0:
25,192,89689,1,0,0:0:0:0:
179,192,89689,1,0,0:0:0:0:
25,192,89974,1,0,0:0:0:0:
332,192,89974,1,0,0:0:0:0:
128,192,90117,1,0,0:0:0:0:
230,192,90117,1,0,0:0:0:0:
179,192,90260,1,0,0:0:0:0:
486,192,90260,1,0,0:0:0:0:
25,192,90403,1,0,0:0:0:0:
332,192,90403,1,0,0:0:0:0:
281,192,90546,1,0,0:0:0:0:
384,192,90546,128,0,90832:0:0:0:0:
128,192,90546,128,0,90832:0:0:0:0:
230,192,90689,1,0,0:0:0:0:
332,192,90689,1,0,0:0:0:0:
486,192,90832,1,0,0:0:0:0:
25,192,90832,1,0,0:0:0:0:
128,192,90974,1,0,0:0:0:0:
230,192,90974,1,0,0:0:0:0:
384,192,91117,1,0,0:0:0:0:
76,192,91117,1,0,0:0:0:0:
486,192,91260,1,0,0:0:0:0:
179,192,91260,1,0,0:0:0:0:
128,192,91403,1,0,0:0:0:0:
230,192,91403,1,0,0:0:0:0:
332,192,91403,1,0,0:0:0:0:
384,192,91546,1,0,0:0:0:0:
332,192,91689,1,0,0:0:0:0:
230,192,91689,1,0,0:0:0:0:
128,192,91689,1,0,0:0:0:0:
281,192,91832,1,0,0:0:0:0:
76,192,91832,1,0,0:0:0:0:
25,192,91974,1,0,0:0:0:0:
486,192,91974,1,0,0:0:0:0:
281,192,92117,1,0,0:0:0:0:
384,192,92117,1,0,0:0:0:0:
179,192,92117,1,0,0:0:0:0:
128,192,92260,1,0,0:0:0:0:
332,192,92260,1,0,0:0:0:0:
179,192,92403,1,0,0:0:0:0:
384,192,92403,1,0,0:0:0:0:
76,192,92474,1,0,0:0:0:0:
435,192,92546,1,0,0:0:0:0:
230,192,92546,1,0,0:0:0:0:
486,192,92689,1,0,0:0:0:0:
25,192,92689,1,0,0:0:0:0:
128,192,92832,128,0,93117:0:0:0:0:
384,192,92832,128,0,93117:0:0:0:0:
230,192,92832,1,0,0:0:0:0:
281,192,92832,1,0,0:0:0:0:
179,192,92974,1,0,0:0:0:0:
332,192,92974,1,0,0:0:0:0:
25,192,93117,1,0,0:0:0:0:
486,192,93117,1,0,0:0:0:0:
281,192,93260,1,0,0:0:0:0:
384,192,93260,1,0,0:0:0:0:
435,192,93403,1,0,0:0:0:0:
128,192,93403,1,0,0:0:0:0:
25,192,93546,1,0,0:0:0:0:
332,192,93546,1,0,0:0:0:0:
179,192,93617,1,0,0:0:0:0:
281,192,93689,1,0,0:0:0:0:
384,192,93689,1,0,0:0:0:0:
486,192,93974,1,0,0:0:0:0:
179,192,93974,1,0,0:0:0:0:
384,192,94117,1,0,0:0:0:0:
76,192,94117,1,0,0:0:0:0:
281,192,94117,1,0,0:0:0:0:
486,192,94260,1,0,0:0:0:0:
179,192,94260,1,0,0:0:0:0:
25,192,94260,1,0,0:0:0:0:
435,192,94546,1,0,0:0:0:0:
179,192,94546,1,0,0:0:0:0:
384,192,94689,1,0,0:0:0:0:
281,192,94689,1,0,0:0:0:0:
332,192,94832,1,0,0:0:0:0:
76,192,94832,1,0,0:0:0:0:
179,192,94974,1,0,0:0:0:0:
384,192,95117,128,0,95403:0:0:0:0:
128,192,95117,128,0,95403:0:0:0:0:
230,192,95117,1,0,0:0:0:0:
281,192,95260,1,0,0:0:0:0:
486,192,95403,1,0,0:0:0:0:
25,192,95403,1,0,0:0:0:0:
384,192,95546,1,0,0:0:0:0:
281,192,95546,1,0,0:0:0:0:
25,192,95689,1,0,0:0:0:0:
332,192,95689,1,0,0:0:0:0:
435,192,95832,1,0,0:0:0:0:
128,192,95832,1,0,0:0:0:0:
384,192,95974,1,0,0:0:0:0:
281,192,95974,1,0,0:0:0:0:
486,192,96117,1,0,0:0:0:0:
179,192,96117,1,0,0:0:0:0:
25,192,96260,1,0,0:0:0:0:
332,192,96260,1,0,0:0:0:0:
128,192,96403,1,0,0:0:0:0:
435,192,96403,1,0,0:0:0:0:
230,192,96403,1,0,0:0:0:0:
25,192,96546,1,0,0:0:0:0:
332,192,96546,1,0,0:0:0:0:
486,192,96546,1,0,0:0:0:0:
76,192,96832,1,0,0:0:0:0:
332,192,96832,1,0,0:0:0:0:
230,192,96974,1,0,0:0:0:0:
128,192,96974,1,0,0:0:0:0:
435,192,97117,1,0,0:0:0:0:
179,192,97117,1,0,0:0:0:0:
332,192,97260,1,0,0:0:0:0:
384,192,97403,128,0,97689:0:0:0:0:
281,192,97403,1,0,0:0:0:0:
128,192,97403,128,0,97689:0:0:0:0:
332,192,97546,1,0,0:0:0:0:
179,192,97546,1,0,0:0:0:0:
25,192,97689,1,0,0:0:0:0:
486,192,97689,1,0,0:0:0:0:
230,192,97832,1,0,0:0:0:0:
128,192,97832,1,0,0:0:0:0:
486,192,97974,1,0,0:0:0:0:
179,192,97974,1,0,0:0:0:0:
384,192,98117,1,0,0:0:0:0:
76,192,98117,1,0,0:0:0:0:
435,192,98189,1,0,0:0:0:0:
230,192,98260,1,0,0:0:0:0:
128,192,98260,1,0,0:0:0:0:
179,192,98403,1,0,0:0:0:0:
486,192,98403,1,0,0:0:0:0:
128,192,98546,1,0,0:0:0:0:
281,192,98546,1,0,0:0:0:0:
76,192,98689,1,0,0:0:0:0:
332,192,98689,1,0,0:0:0:0:
435,192,98689,1,0,0:0:0:0:
25,192,98832,1,0,0:0:0:0:
486,192,98832,1,0,0:0:0:0:
76,192,98974,1,0,0:0:0:0:
281,192,98974,1,0,0:0:0:0:
128,192,99117,1,0,0:0:0:0:
332,192,99117,1,0,0:0:0:0:
384,192,99260,1,0,0:0:0:0:
281,192,99260,1,0,0:0:0:0:
179,192,99260,1,0,0:0:0:0:
332,192,99403,1,0,0:0:0:0:
25,192,99403,1,0,0:0:0:0:
486,192,99546,1,0,0:0:0:0:
179,192,99546,1,0,0:0:0:0:
230,192,99689,1,0,0:0:0:0:
128,192,99689,128,0,99974:0:0:0:0:
384,192,99689,128,0,99974:0:0:0:0:
281,192,99832,1,0,0:0:0:0:
179,192,99832,1,0,0:0:0:0:
25,192,99974,1,0,0:0:0:0:
486,192,99974,1,0,0:0:0:0:
384,192,100117,1,0,0:0:0:0:
281,192,100117,1,0,0:0:0:0:
128,192,100260,1,0,0:0:0:0:
435,192,100260,1,0,0:0:0:0:
25,192,100403,1,0,0:0:0:0:
332,192,100403,1,0,0:0:0:0:
384,192,100546,1,0,0:0:0:0:
281,192,100546,1,0,0:0:0:0:
179,192,100546,1,0,0:0:0:0:
128,192,100689,1,0,0:0:0:0:
384,192,100832,1,0,0:0:0:0:
281,192,100832,1,0,0:0:0:0:
179,192,100832,1,0,0:0:0:0:
230,192,100974,1,0,0:0:0:0:
435,192,100974,1,0,0:0:0:0:
486,192,101117,1,0,0:0:0:0:
25,192,101117,1,0,0:0:0:0:
332,192,101260,1,0,0:0:0:0:
76,192,101260,1,0,0:0:0:0:
179,192,101260,1,0,0:0:0:0:
384,192,101403,1,0,0:0:0:0:
230,192,101403,1,0,0:0:0:0:
332,192,101546,1,0,0:0:0:0:
179,192,101546,1,0,0:0:0:0:
435,192,101617,1,0,0:0:0:0:
128,192,101689,1,0,0:0:0:0:
281,192,101689,1,0,0:0:0:0:
25,192,101832,1,0,0:0:0:0:
486,192,101832,1,0,0:0:0:0:
384,192,101974,128,0,102260:0:0:0:0:
128,192,101974,128,0,102260:0:0:0:0:
230,192,101974,1,0,0:0:0:0:
281,192,101974,1,0,0:0:0:0:
332,192,102117,1,0,0:0:0:0:
179,192,102117,1,0,0:0:0:0:
486,192,102260,1,0,0:0:0:0:
25,192,102260,1,0,0:0:0:0:
435,192,102403,1,0,0:0:0:0:
76,192,102403,1,0,0:0:0:0:
384,192,102546,1,0,0:0:0:0:
128,192,102546,1,0,0:0:0:0:
332,192,102689,1,0,0:0:0:0:
179,192,102689,1,0,0:0:0:0:
230,192,102832,5,0,0:0:0:0:
128,192,102832,1,0,0:0:0:0:
281,192,102832,1,0,0:0:0:0:
384,192,102832,1,0,0:0:0:0:
486,192,103117,1,0,0:0:0:0:
179,192,103117,1,0,0:0:0:0:
384,192,103260,1,0,0:0:0:0:
76,192,103260,1,0,0:0:0:0:
281,192,103260,1,0,0:0:0:0:
486,192,103403,1,0,0:0:0:0:
179,192,103403,1,0,0:0:0:0:
25,192,103403,1,0,0:0:0:0:
435,192,103689,1,0,0:0:0:0:
179,192,103689,1,0,0:0:0:0:
384,192,103832,1,0,0:0:0:0:
281,192,103832,1,0,0:0:0:0:
332,192,103974,1,0,0:0:0:0:
76,192,103974,1,0,0:0:0:0:
179,192,104117,1,0,0:0:0:0:
384,192,104260,128,0,104546:0:0:0:0:
128,192,104260,128,0,104546:0:0:0:0:
230,192,104260,1,0,0:0:0:0:
281,192,104403,1,0,0:0:0:0:
486,192,104546,1,0,0:0:0:0:
25,192,104546,1,0,0:0:0:0:
384,192,104689,1,0,0:0:0:0:
281,192,104689,1,0,0:0:0:0:
25,192,104832,1,0,0:0:0:0:
332,192,104832,1,0,0:0:0:0:
435,192,104974,1,0,0:0:0:0:
128,192,104974,1,0,0:0:0:0:
384,192,105117,1,0,0:0:0:0:
281,192,105117,1,0,0:0:0:0:
486,192,105260,1,0,0:0:0:0:
179,192,105260,1,0,0:0:0:0:
25,192,105403,1,0,0:0:0:0:
332,192,105403,1,0,0:0:0:0:
128,192,105546,1,0,0:0:0:0:
435,192,105546,1,0,0:0:0:0:
230,192,105546,1,0,0:0:0:0:
25,192,105689,1,0,0:0:0:0:
332,192,105689,1,0,0:0:0:0:
486,192,105689,1,0,0:0:0:0:
76,192,105974,1,0,0:0:0:0:
332,192,105974,1,0,0:0:0:0:
230,192,106117,1,0,0:0:0:0:
128,192,106117,1,0,0:0:0:0:
435,192,106260,1,0,0:0:0:0:
179,192,106260,1,0,0:0:0:0:
332,192,106403,1,0,0:0:0:0:
384,192,106546,128,0,106832:0:0:0:0:
128,192,106546,128,0,106832:0:0:0:0:
281,192,106546,1,0,0:0:0:0:
179,192,106689,1,0,0:0:0:0:
332,192,106689,1,0,0:0:0:0:
25,192,106832,1,0,0:0:0:0:
486,192,106832,1,0,0:0:0:0:
230,192,106974,1,0,0:0:0:0:
128,192,106974,1,0,0:0:0:0:
486,192,107117,1,0,0:0:0:0:
179,192,107117,1,0,0:0:0:0:
384,192,107260,1,0,0:0:0:0:
76,192,107260,1,0,0:0:0:0:
435,192,107332,1,0,0:0:0:0:
230,192,107403,1,0,0:0:0:0:
128,192,107403,1,0,0:0:0:0:
435,192,107689,1,0,0:0:0:0:
128,192,107689,1,0,0:0:0:0:
384,192,107832,1,0,0:0:0:0:
281,192,107832,1,0,0:0:0:0:
76,192,107832,1,0,0:0:0:0:
25,192,107974,1,0,0:0:0:0:
486,192,107974,1,0,0:0:0:0:
332,192,107974,1,0,0:0:0:0:
486,192,108260,1,0,0:0:0:0:
179,192,108260,1,0,0:0:0:0:
384,192,108403,1,0,0:0:0:0:
281,192,108403,1,0,0:0:0:0:
332,192,108546,1,0,0:0:0:0:
25,192,108546,1,0,0:0:0:0:
486,192,108689,1,0,0:0:0:0:
179,192,108689,1,0,0:0:0:0:
230,192,108832,1,0,0:0:0:0:
128,192,108832,128,0,109117:0:0:0:0:
384,192,108832,128,0,109117:0:0:0:0:
281,192,108974,1,0,0:0:0:0:
179,192,108974,1,0,0:0:0:0:
25,192,109117,1,0,0:0:0:0:
486,192,109117,1,0,0:0:0:0:
384,192,109260,1,0,0:0:0:0:
281,192,109260,1,0,0:0:0:0:
128,192,109403,1,0,0:0:0:0:
435,192,109403,1,0,0:0:0:0:
25,192,109546,1,0,0:0:0:0:
332,192,109546,1,0,0:0:0:0:
384,192,109689,1,0,0:0:0:0:
281,192,109689,1,0,0:0:0:0:
179,192,109689,1,0,0:0:0:0:
128,192,109832,1,0,0:0:0:0:
384,192,109974,1,0,0:0:0:0:
281,192,109974,1,0,0:0:0:0:
179,192,109974,1,0,0:0:0:0:
230,192,110117,1,0,0:0:0:0:
435,192,110117,1,0,0:0:0:0:
486,192,110260,1,0,0:0:0:0:
25,192,110260,1,0,0:0:0:0:
230,192,110403,1,0,0:0:0:0:
128,192,110403,1,0,0:0:0:0:
332,192,110403,1,0,0:0:0:0:
384,192,110546,1,0,0:0:0:0:
179,192,110546,1,0,0:0:0:0:
332,192,110689,1,0,0:0:0:0:
128,192,110689,1,0,0:0:0:0:
435,192,110760,1,0,0:0:0:0:
76,192,110832,1,0,0:0:0:0:
281,192,110832,1,0,0:0:0:0:
25,192,110974,1,0,0:0:0:0:
486,192,110974,1,0,0:0:0:0:
384,192,111117,128,0,111403:0:0:0:0:
128,192,111117,128,0,111403:0:0:0:0:
281,192,111117,1,0,0:0:0:0:
230,192,111117,1,0,0:0:0:0:
332,192,111260,1,0,0:0:0:0:
179,192,111260,1,0,0:0:0:0:
486,192,111403,1,0,0:0:0:0:
25,192,111403,1,0,0:0:0:0:
230,192,111546,1,0,0:0:0:0:
128,192,111546,1,0,0:0:0:0:
76,192,111689,1,0,0:0:0:0:
384,192,111689,1,0,0:0:0:0:
486,192,111832,1,0,0:0:0:0:
179,192,111832,1,0,0:0:0:0:
332,192,111903,1,0,0:0:0:0:
230,192,111974,1,0,0:0:0:0:
128,192,111974,1,0,0:0:0:0:
25,192,112260,1,0,0:0:0:0:
332,192,112260,1,0,0:0:0:0:
128,192,112403,1,0,0:0:0:0:
435,192,112403,1,0,0:0:0:0:
230,192,112403,1,0,0:0:0:0:
25,192,112546,1,0,0:0:0:0:
332,192,112546,1,0,0:0:0:0:
486,192,112546,1,0,0:0:0:0:
76,192,112832,1,0,0:0:0:0:
332,192,112832,1,0,0:0:0:0:
128,192,112974,1,0,0:0:0:0:
230,192,112974,1,0,0:0:0:0:
179,192,113117,1,0,0:0:0:0:
435,192,113117,1,0,0:0:0:0:
332,192,113260,1,0,0:0:0:0:
128,192,113403,128,0,113689:0:0:0:0:
384,192,113403,128,0,113689:0:0:0:0:
281,192,113403,1,0,0:0:0:0:
230,192,113546,1,0,0:0:0:0:
25,192,113689,1,0,0:0:0:0:
486,192,113689,1,0,0:0:0:0:
128,192,113832,1,0,0:0:0:0:
230,192,113832,1,0,0:0:0:0:
486,192,113974,1,0,0:0:0:0:
179,192,113974,1,0,0:0:0:0:
76,192,114117,1,0,0:0:0:0:
384,192,114117,1,0,0:0:0:0:
128,192,114260,1,0,0:0:0:0:
230,192,114260,1,0,0:0:0:0:
25,192,114403,1,0,0:0:0:0:
332,192,114403,1,0,0:0:0:0:
486,192,114546,1,0,0:0:0:0:
179,192,114546,1,0,0:0:0:0:
384,192,114689,1,0,0:0:0:0:
76,192,114689,1,0,0:0:0:0:
281,192,114689,1,0,0:0:0:0:
486,192,114832,1,0,0:0:0:0:
179,192,114832,1,0,0:0:0:0:
25,192,114832,1,0,0:0:0:0:
435,192,115117,1,0,0:0:0:0:
179,192,115117,1,0,0:0:0:0:
281,192,115260,1,0,0:0:0:0:
384,192,115260,1,0,0:0:0:0:
76,192,115403,1,0,0:0:0:0:
332,192,115403,1,0,0:0:0:0:
179,192,115546,1,0,0:0:0:0:
128,192,115689,128,0,115974:0:0:0:0:
230,192,115689,1,0,0:0:0:0:
384,192,115689,128,0,115974:0:0:0:0:
179,192,115832,1,0,0:0:0:0:
332,192,115832,1,0,0:0:0:0:
486,192,115974,1,0,0:0:0:0:
25,192,115974,1,0,0:0:0:0:
281,192,116117,1,0,0:0:0:0:
384,192,116117,1,0,0:0:0:0:
25,192,116260,1,0,0:0:0:0:
332,192,116260,1,0,0:0:0:0:
128,192,116403,1,0,0:0:0:0:
435,192,116403,1,0,0:0:0:0:
76,192,116474,1,0,0:0:0:0:
281,192,116546,1,0,0:0:0:0:
384,192,116546,1,0,0:0:0:0:
332,192,116689,1,0,0:0:0:0:
25,192,116689,1,0,0:0:0:0:
384,192,116832,1,0,0:0:0:0:
230,192,116832,1,0,0:0:0:0:
435,192,116974,1,0,0:0:0:0:
76,192,116974,1,0,0:0:0:0:
179,192,116974,1,0,0:0:0:0:
486,192,117117,1,0,0:0:0:0:
25,192,117117,1,0,0:0:0:0:
435,192,117260,1,0,0:0:0:0:
230,192,117260,1,0,0:0:0:0:
384,192,117403,1,0,0:0:0:0:
179,192,117403,1,0,0:0:0:0:
128,192,117546,1,0,0:0:0:0:
230,192,117546,1,0,0:0:0:0:
332,192,117546,1,0,0:0:0:0:
179,192,117689,1,0,0:0:0:0:
486,192,117689,1,0,0:0:0:0:
25,192,117832,1,0,0:0:0:0:
332,192,117832,1,0,0:0:0:0:
281,192,117974,1,0,0:0:0:0:
384,192,117974,128,0,118260:0:0:0:0:
128,192,117974,128,0,118260:0:0:0:0:
230,192,118117,1,0,0:0:0:0:
332,192,118117,1,0,0:0:0:0:
486,192,118260,1,0,0:0:0:0:
25,192,118260,1,0,0:0:0:0:
128,192,118403,1,0,0:0:0:0:
230,192,118403,1,0,0:0:0:0:
384,192,118546,1,0,0:0:0:0:
76,192,118546,1,0,0:0:0:0:
486,192,118689,1,0,0:0:0:0:
179,192,118689,1,0,0:0:0:0:
128,192,118832,1,0,0:0:0:0:
230,192,118832,1,0,0:0:0:0:
332,192,118832,1,0,0:0:0:0:
384,192,118974,1,0,0:0:0:0:
128,192,119117,1,0,0:0:0:0:
230,192,119117,1,0,0:0:0:0:
332,192,119117,1,0,0:0:0:0:
281,192,119260,1,0,0:0:0:0:
76,192,119260,1,0,0:0:0:0:
25,192,119403,1,0,0:0:0:0:
486,192,119403,1,0,0:0:0:0:
179,192,119546,1,0,0:0:0:0:
332,192,119546,1,0,0:0:0:0:
435,192,119546,1,0,0:0:0:0:
128,192,119689,1,0,0:0:0:0:
281,192,119689,1,0,0:0:0:0:
179,192,119832,1,0,0:0:0:0:
332,192,119832,1,0,0:0:0:0:
76,192,119903,1,0,0:0:0:0:
230,192,119974,1,0,0:0:0:0:
384,192,119974,1,0,0:0:0:0:
486,192,120117,1,0,0:0:0:0:
25,192,120117,1,0,0:0:0:0:
128,192,120260,128,0,120546:0:0:0:0:
384,192,120260,128,0,120546:0:0:0:0:
281,192,120260,1,0,0:0:0:0:
230,192,120260,1,0,0:0:0:0:
179,192,120403,1,0,0:0:0:0:
332,192,120403,1,0,0:0:0:0:
25,192,120546,1,0,0:0:0:0:
486,192,120546,1,0,0:0:0:0:
76,192,120689,1,0,0:0:0:0:
435,192,120689,1,0,0:0:0:0:
384,192,120832,1,0,0:0:0:0:
128,192,120832,1,0,0:0:0:0:
179,192,120974,1,0,0:0:0:0:
332,192,120974,1,0,0:0:0:0:
281,192,121117,1,0,0:0:0:0:
384,192,121117,128,0,121189:0:0:0:0:
384,192,121689,128,0,121760:0:0:0:0:
128,192,122260,128,0,122332:0:0:0:0:
128,192,122832,128,0,122903:0:0:0:0:
332,192,123403,128,0,123474:0:0:0:0:
332,192,123974,128,0,124046:0:0:0:0:
179,192,124546,128,0,124617:0:0:0:0:
179,192,125117,128,0,125189:0:0:0:0:
384,192,125689,128,0,125760:0:0:0:0:
384,192,126260,128,0,126332:0:0:0:0:
128,192,126832,128,0,126903:0:0:0:0:
384,192,127403,128,0,127474:0:0:0:0:
332,192,127974,128,0,128046:0:0:0:0:
179,192,129117,128,0,129189:0:0:0:0:
