osu file format v14

[General]
AudioFilename: track.mp3
AudioLeadIn: 0
PreviewTime: 19689
Countdown: 0
SampleSet: Soft
StackLeniency: 0.7
Mode: 3
LetterboxInBreaks: 0
SpecialStyle: 0
WidescreenStoryboard: 1

[Editor]
Bookmarks: 2260,11403,20546,38832,47974,57117,75403,84546,102832,121117
DistanceSpacing: 0.8
BeatDivisor: 2
GridSize: 32
TimelineZoom: 0.3999999

[Metadata]
Title:Haru no Hime
TitleUnicode:春の姫
Artist:yomoha
ArtistUnicode:yomoha
Creator:Synere
Version:Comet | Easy
Source:Sixtar Gate: STARTRAIL
Tags:hip hop rap electronic instrumental oriental guitar melody rhythm video game vgm edm はるのひめ シクスターゲート プリンセス オブ スプリング Princess of Spring seomin Lyrebird Studio Silence Music Pack
BeatmapID:3763409
BeatmapSetID:1833194

[Difficulty]
HPDrainRate:6.5
CircleSize:10
OverallDifficulty:6.5
ApproachRate:5
SliderMultiplier:1.4
SliderTickRate:1

[Events]
//Background and Video events
0,0,"harunohime.jpg",0,0
//Break Periods
//Storyboard Layer 0 (Background)
//Storyboard Layer 1 (Fail)
//Storyboard Layer 2 (Pass)
//Storyboard Layer 3 (Foreground)
//Storyboard Layer 4 (Overlay)
//Storyboard Sound Samples

[TimingPoints]
-25,571.428571428571,4,2,1,15,1,0
20546,-100,4,2,1,15,0,1
38832,-100,4,2,1,15,0,0
84546,-100,4,2,1,15,0,1
102260,-100,4,2,1,15,0,0
102832,-100,4,2,1,15,0,1
121117,-100,4,2,1,15,0,0

[HitObjects]
384,192,2260,5,0,0:0:0:0:
128,192,3403,1,0,0:0:0:0:
384,192,3974,1,0,0:0:0:0:
128,192,4546,1,0,0:0:0:0:
179,192,5689,1,0,0:0:0:0:
384,192,6832,1,0,0:0:0:0:
128,192,7974,1,0,0:0:0:0:
384,192,8546,1,0,0:0:0:0:
179,192,9117,1,0,0:0:0:0:
332,192,10260,1,0,0:0:0:0:
76,192,11689,5,0,0:0:0:0:
76,192,11974,1,0,0:0:0:0:
435,192,12260,1,0,0:0:0:0:
332,192,12546,1,0,0:0:0:0:
281,192,12832,128,0,13117:0:0:0:0:
76,192,13117,1,0,0:0:0:0:
332,192,13403,1,0,0:0:0:0:
179,192,13546,1,0,0:0:0:0:
435,192,13974,1,0,0:0:0:0:
435,192,14260,1,0,0:0:0:0:
76,192,14546,1,0,0:0:0:0:
179,192,14832,1,0,0:0:0:0:
230,192,15117,128,0,15403:0:0:0:0:
435,192,15403,1,0,0:0:0:0:
128,192,15689,1,0,0:0:0:0:
384,192,15832,1,0,0:0:0:0:
76,192,16260,1,0,0:0:0:0:
76,192,16546,1,0,0:0:0:0:
435,192,16832,1,0,0:0:0:0:
332,192,17117,1,0,0:0:0:0:
281,192,17403,128,0,17689:0:0:0:0:
76,192,17689,1,0,0:0:0:0:
332,192,17974,1,0,0:0:0:0:
179,192,18117,1,0,0:0:0:0:
76,192,18546,1,0,0:0:0:0:
435,192,18832,1,0,0:0:0:0:
128,192,19117,1,0,0:0:0:0:
332,192,19403,1,0,0:0:0:0:
281,192,19689,1,0,0:0:0:0:
230,192,19974,1,0,0:0:0:0:
281,192,20260,1,0,0:0:0:0:
179,192,20546,1,0,0:0:0:0:
332,192,20546,1,0,0:0:0:0:
435,192,20832,1,0,0:0:0:0:
435,192,21117,1,0,0:0:0:0:
76,192,21403,1,0,0:0:0:0:
179,192,21689,1,0,0:0:0:0:
230,192,21974,128,0,22260:0:0:0:0:
486,192,22260,1,0,0:0:0:0:
128,192,22546,1,0,0:0:0:0:
384,192,22832,1,0,0:0:0:0:
76,192,23117,1,0,0:0:0:0:
76,192,23403,1,0,0:0:0:0:
435,192,23689,1,0,0:0:0:0:
332,192,23974,1,0,0:0:0:0:
281,192,24260,128,0,24546:0:0:0:0:
25,192,24546,1,0,0:0:0:0:
384,192,24832,1,0,0:0:0:0:
128,192,25117,1,0,0:0:0:0:
435,192,25403,1,0,0:0:0:0:
384,192,25689,1,0,0:0:0:0:
179,192,25974,1,0,0:0:0:0:
76,192,26260,1,0,0:0:0:0:
230,192,26546,128,0,26832:0:0:0:0:
486,192,26832,1,0,0:0:0:0:
128,192,27117,1,0,0:0:0:0:
384,192,27403,1,0,0:0:0:0:
128,192,27689,1,0,0:0:0:0:
281,192,27974,1,0,0:0:0:0:
435,192,28260,1,0,0:0:0:0:
179,192,28546,1,0,0:0:0:0:
332,192,28689,1,0,0:0:0:0:
281,192,28832,128,0,29117:0:0:0:0:
230,192,29117,1,0,0:0:0:0:
230,192,29403,1,0,0:0:0:0:
281,192,29546,1,0,0:0:0:0:
128,192,29689,5,0,0:0:0:0:
435,192,29974,1,0,0:0:0:0:
435,192,30260,1,0,0:0:0:0:
76,192,30546,1,0,0:0:0:0:
179,192,30832,1,0,0:0:0:0:
230,192,31117,128,0,31403:0:0:0:0:
486,192,31403,1,0,0:0:0:0:
128,192,31689,1,0,0:0:0:0:
384,192,31974,1,0,0:0:0:0:
76,192,32260,1,0,0:0:0:0:
76,192,32546,1,0,0:0:0:0:
435,192,32832,1,0,0:0:0:0:
332,192,33117,1,0,0:0:0:0:
281,192,33403,128,0,33689:0:0:0:0:
25,192,33689,1,0,0:0:0:0:
384,192,33974,1,0,0:0:0:0:
128,192,34260,1,0,0:0:0:0:
435,192,34546,1,0,0:0:0:0:
332,192,34832,1,0,0:0:0:0:
179,192,35117,1,0,0:0:0:0:
76,192,35403,1,0,0:0:0:0:
230,192,35689,128,0,35974:0:0:0:0:
486,192,35974,1,0,0:0:0:0:
128,192,36260,1,0,0:0:0:0:
384,192,36546,1,0,0:0:0:0:
128,192,36832,1,0,0:0:0:0:
332,192,37117,1,0,0:0:0:0:
76,192,37403,1,0,0:0:0:0:
332,192,37689,1,0,0:0:0:0:
179,192,37832,1,0,0:0:0:0:
230,192,37974,128,0,38260:0:0:0:0:
281,192,38260,1,0,0:0:0:0:
281,192,38546,1,0,0:0:0:0:
230,192,38689,1,0,0:0:0:0:
384,192,38832,128,0,43403:0:0:0:0:
179,192,39974,1,0,0:0:0:0:
128,192,41117,1,0,0:0:0:0:
76,192,42260,1,0,0:0:0:0:
128,192,43403,128,0,45117:0:0:0:0:
332,192,44546,1,0,0:0:0:0:
384,192,45689,1,0,0:0:0:0:
435,192,46832,1,0,0:0:0:0:
76,192,48260,1,0,0:0:0:0:
76,192,48546,1,0,0:0:0:0:
435,192,48832,1,0,0:0:0:0:
332,192,49117,1,0,0:0:0:0:
435,192,50546,1,0,0:0:0:0:
435,192,50832,1,0,0:0:0:0:
76,192,51117,1,0,0:0:0:0:
179,192,51403,1,0,0:0:0:0:
435,192,52832,1,0,0:0:0:0:
435,192,53117,1,0,0:0:0:0:
76,192,53403,1,0,0:0:0:0:
179,192,53689,1,0,0:0:0:0:
76,192,55117,1,0,0:0:0:0:
435,192,55403,1,0,0:0:0:0:
179,192,55689,1,0,0:0:0:0:
332,192,55974,5,0,0:0:0:0:
128,192,56260,1,0,0:0:0:0:
384,192,56546,1,0,0:0:0:0:
128,192,56832,1,0,0:0:0:0:
281,192,56974,1,0,0:0:0:0:
384,192,57117,5,0,0:0:0:0:
76,192,57403,1,0,0:0:0:0:
76,192,57689,1,0,0:0:0:0:
435,192,57974,1,0,0:0:0:0:
332,192,58260,1,0,0:0:0:0:
128,192,58546,1,0,0:0:0:0:
230,192,58832,1,0,0:0:0:0:
384,192,58974,1,0,0:0:0:0:
128,192,59403,1,0,0:0:0:0:
435,192,59689,1,0,0:0:0:0:
435,192,59974,1,0,0:0:0:0:
76,192,60260,1,0,0:0:0:0:
179,192,60546,1,0,0:0:0:0:
384,192,60832,1,0,0:0:0:0:
230,192,61117,1,0,0:0:0:0:
128,192,61260,1,0,0:0:0:0:
128,192,61689,1,0,0:0:0:0:
435,192,61974,1,0,0:0:0:0:
435,192,62260,1,0,0:0:0:0:
76,192,62546,1,0,0:0:0:0:
179,192,62832,1,0,0:0:0:0:
384,192,63117,1,0,0:0:0:0:
281,192,63403,1,0,0:0:0:0:
128,192,63546,1,0,0:0:0:0:
384,192,63974,1,0,0:0:0:0:
76,192,64260,1,0,0:0:0:0:
76,192,64546,1,0,0:0:0:0:
435,192,64832,1,0,0:0:0:0:
332,192,65117,1,0,0:0:0:0:
230,192,65260,1,0,0:0:0:0:
128,192,65403,1,0,0:0:0:0:
281,192,65689,1,0,0:0:0:0:
384,192,65832,1,0,0:0:0:0:
230,192,65974,1,0,0:0:0:0:
128,192,66260,5,0,0:0:0:0:
435,192,66546,1,0,0:0:0:0:
435,192,66832,1,0,0:0:0:0:
76,192,67117,1,0,0:0:0:0:
179,192,67403,1,0,0:0:0:0:
384,192,67689,1,0,0:0:0:0:
281,192,67974,1,0,0:0:0:0:
128,192,68117,1,0,0:0:0:0:
384,192,68546,1,0,0:0:0:0:
76,192,68832,1,0,0:0:0:0:
76,192,69117,1,0,0:0:0:0:
435,192,69403,1,0,0:0:0:0:
332,192,69689,1,0,0:0:0:0:
128,192,69974,1,0,0:0:0:0:
281,192,70260,1,0,0:0:0:0:
384,192,70403,1,0,0:0:0:0:
384,192,70832,1,0,0:0:0:0:
76,192,71117,1,0,0:0:0:0:
76,192,71403,1,0,0:0:0:0:
435,192,71689,1,0,0:0:0:0:
332,192,71974,1,0,0:0:0:0:
128,192,72260,1,0,0:0:0:0:
230,192,72546,1,0,0:0:0:0:
384,192,72689,1,0,0:0:0:0:
128,192,73117,1,0,0:0:0:0:
435,192,73403,1,0,0:0:0:0:
435,192,73689,1,0,0:0:0:0:
76,192,73974,1,0,0:0:0:0:
179,192,74260,1,0,0:0:0:0:
281,192,74403,1,0,0:0:0:0:
384,192,74546,1,0,0:0:0:0:
230,192,74832,1,0,0:0:0:0:
128,192,74974,1,0,0:0:0:0:
281,192,75117,1,0,0:0:0:0:
486,192,75689,1,0,0:0:0:0:
486,192,75974,1,0,0:0:0:0:
76,192,76260,1,0,0:0:0:0:
179,192,76546,128,0,77117:0:0:0:0:
76,192,77403,1,0,0:0:0:0:
435,192,77546,1,0,0:0:0:0:
25,192,77974,1,0,0:0:0:0:
25,192,78260,1,0,0:0:0:0:
435,192,78546,1,0,0:0:0:0:
332,192,78832,1,0,0:0:0:0:
76,192,79117,1,0,0:0:0:0:
179,192,79403,1,0,0:0:0:0:
435,192,79689,1,0,0:0:0:0:
76,192,79832,1,0,0:0:0:0:
486,192,80260,1,0,0:0:0:0:
486,192,80546,1,0,0:0:0:0:
76,192,80832,1,0,0:0:0:0:
179,192,81117,128,0,81689:0:0:0:0:
76,192,81974,1,0,0:0:0:0:
435,192,82117,1,0,0:0:0:0:
25,192,82546,5,0,0:0:0:0:
25,192,82832,1,0,0:0:0:0:
435,192,83117,1,0,0:0:0:0:
76,192,83403,1,0,0:0:0:0:
128,192,83546,1,0,0:0:0:0:
179,192,83689,1,0,0:0:0:0:
281,192,83974,1,0,0:0:0:0:
230,192,84260,1,0,0:0:0:0:
332,192,84546,1,0,0:0:0:0:
179,192,84546,1,0,0:0:0:0:
25,192,84832,1,0,0:0:0:0:
25,192,85117,1,0,0:0:0:0:
435,192,85403,1,0,0:0:0:0:
332,192,85689,1,0,0:0:0:0:
281,192,85974,128,0,86260:0:0:0:0:
25,192,86260,1,0,0:0:0:0:
76,192,86546,1,0,0:0:0:0:
435,192,86689,1,0,0:0:0:0:
128,192,86832,1,0,0:0:0:0:
486,192,87117,1,0,0:0:0:0:
486,192,87403,1,0,0:0:0:0:
76,192,87689,1,0,0:0:0:0:
179,192,87974,1,0,0:0:0:0:
230,192,88260,128,0,88546:0:0:0:0:
486,192,88546,1,0,0:0:0:0:
435,192,88832,1,0,0:0:0:0:
179,192,88974,1,0,0:0:0:0:
384,192,89117,1,0,0:0:0:0:
25,192,89403,1,0,0:0:0:0:
76,192,89689,1,0,0:0:0:0:
332,192,89974,1,0,0:0:0:0:
435,192,90260,1,0,0:0:0:0:
179,192,90403,1,0,0:0:0:0:
281,192,90546,128,0,90832:0:0:0:0:
25,192,90832,1,0,0:0:0:0:
76,192,91117,1,0,0:0:0:0:
332,192,91260,1,0,0:0:0:0:
128,192,91403,1,0,0:0:0:0:
384,192,91689,1,0,0:0:0:0:
179,192,91974,1,0,0:0:0:0:
76,192,92260,1,0,0:0:0:0:
281,192,92403,1,0,0:0:0:0:
435,192,92546,1,0,0:0:0:0:
128,192,92689,1,0,0:0:0:0:
230,192,92832,128,0,93117:0:0:0:0:
332,192,93117,1,0,0:0:0:0:
332,192,93403,1,0,0:0:0:0:
179,192,93546,1,0,0:0:0:0:
384,192,93689,5,0,0:0:0:0:
25,192,93974,1,0,0:0:0:0:
25,192,94260,1,0,0:0:0:0:
435,192,94546,1,0,0:0:0:0:
332,192,94832,1,0,0:0:0:0:
281,192,95117,128,0,95403:0:0:0:0:
25,192,95403,1,0,0:0:0:0:
76,192,95689,1,0,0:0:0:0:
435,192,95832,1,0,0:0:0:0:
128,192,95974,1,0,0:0:0:0:
486,192,96260,1,0,0:0:0:0:
486,192,96546,1,0,0:0:0:0:
76,192,96832,1,0,0:0:0:0:
179,192,97117,1,0,0:0:0:0:
230,192,97403,128,0,97689:0:0:0:0:
486,192,97689,1,0,0:0:0:0:
435,192,97974,1,0,0:0:0:0:
179,192,98117,1,0,0:0:0:0:
384,192,98260,1,0,0:0:0:0:
76,192,98546,1,0,0:0:0:0:
179,192,98832,1,0,0:0:0:0:
384,192,99117,1,0,0:0:0:0:
128,192,99260,1,0,0:0:0:0:
435,192,99403,1,0,0:0:0:0:
281,192,99689,128,0,99974:0:0:0:0:
25,192,99974,1,0,0:0:0:0:
76,192,100260,1,0,0:0:0:0:
332,192,100403,1,0,0:0:0:0:
128,192,100546,1,0,0:0:0:0:
384,192,100832,1,0,0:0:0:0:
179,192,101117,1,0,0:0:0:0:
435,192,101403,1,0,0:0:0:0:
230,192,101546,1,0,0:0:0:0:
76,192,101689,1,0,0:0:0:0:
384,192,101832,1,0,0:0:0:0:
281,192,101974,128,0,102260:0:0:0:0:
179,192,102260,1,0,0:0:0:0:
179,192,102546,1,0,0:0:0:0:
332,192,102689,1,0,0:0:0:0:
128,192,102832,5,0,0:0:0:0:
384,192,102832,1,0,0:0:0:0:
486,192,103117,1,0,0:0:0:0:
486,192,103403,1,0,0:0:0:0:
76,192,103689,1,0,0:0:0:0:
179,192,103974,1,0,0:0:0:0:
230,192,104260,128,0,104546:0:0:0:0:
486,192,104546,1,0,0:0:0:0:
435,192,104832,1,0,0:0:0:0:
76,192,104974,1,0,0:0:0:0:
384,192,105117,1,0,0:0:0:0:
25,192,105403,1,0,0:0:0:0:
25,192,105689,1,0,0:0:0:0:
435,192,105974,1,0,0:0:0:0:
332,192,106260,1,0,0:0:0:0:
281,192,106546,128,0,106832:0:0:0:0:
25,192,106832,1,0,0:0:0:0:
76,192,107117,1,0,0:0:0:0:
332,192,107260,1,0,0:0:0:0:
128,192,107403,1,0,0:0:0:0:
486,192,107689,1,0,0:0:0:0:
435,192,107974,1,0,0:0:0:0:
179,192,108260,1,0,0:0:0:0:
76,192,108546,1,0,0:0:0:0:
332,192,108689,1,0,0:0:0:0:
230,192,108832,128,0,109117:0:0:0:0:
486,192,109117,1,0,0:0:0:0:
435,192,109403,1,0,0:0:0:0:
179,192,109546,1,0,0:0:0:0:
384,192,109689,1,0,0:0:0:0:
128,192,109974,1,0,0:0:0:0:
332,192,110260,1,0,0:0:0:0:
435,192,110546,1,0,0:0:0:0:
230,192,110689,1,0,0:0:0:0:
76,192,110832,1,0,0:0:0:0:
384,192,110974,1,0,0:0:0:0:
281,192,111117,128,0,111403:0:0:0:0:
179,192,111403,1,0,0:0:0:0:
179,192,111689,1,0,0:0:0:0:
332,192,111832,1,0,0:0:0:0:
128,192,111974,5,0,0:0:0:0:
486,192,112260,1,0,0:0:0:0:
486,192,112546,1,0,0:0:0:0:
76,192,112832,1,0,0:0:0:0:
179,192,113117,1,0,0:0:0:0:
230,192,113403,128,0,113689:0:0:0:0:
486,192,113689,1,0,0:0:0:0:
435,192,113974,1,0,0:0:0:0:
76,192,114117,1,0,0:0:0:0:
384,192,114260,1,0,0:0:0:0:
25,192,114546,1,0,0:0:0:0:
25,192,114832,1,0,0:0:0:0:
435,192,115117,1,0,0:0:0:0:
332,192,115403,1,0,0:0:0:0:
281,192,115689,128,0,115974:0:0:0:0:
25,192,115974,1,0,0:0:0:0:
76,192,116260,1,0,0:0:0:0:
332,192,116403,1,0,0:0:0:0:
128,192,116546,1,0,0:0:0:0:
435,192,116832,1,0,0:0:0:0:
332,192,117117,1,0,0:0:0:0:
128,192,117403,1,0,0:0:0:0:
384,192,117546,1,0,0:0:0:0:
76,192,117689,1,0,0:0:0:0:
230,192,117974,128,0,118260:0:0:0:0:
486,192,118260,1,0,0:0:0:0:
435,192,118546,1,0,0:0:0:0:
179,192,118689,1,0,0:0:0:0:
384,192,118832,1,0,0:0:0:0:
128,192,119117,1,0,0:0:0:0:
332,192,119403,1,0,0:0:0:0:
76,192,119689,1,0,0:0:0:0:
281,192,119832,1,0,0:0:0:0:
435,192,119974,1,0,0:0:0:0:
128,192,120117,1,0,0:0:0:0:
230,192,120260,128,0,120546:0:0:0:0:
332,192,120546,1,0,0:0:0:0:
332,192,120832,1,0,0:0:0:0:
179,192,120974,1,0,0:0:0:0:
384,192,121117,1,0,0:0:0:0:
384,192,122260,1,0,0:0:0:0:
384,192,123403,1,0,0:0:0:0:
384,192,124546,1,0,0:0:0:0:
128,192,125689,1,0,0:0:0:0:
128,192,126832,1,0,0:0:0:0:
128,192,127974,1,0,0:0:0:0:
128,192,129117,1,0,0:0:0:0:
