osu file format v14

[General]
AudioFilename: audio.mp3
AudioLeadIn: 0
PreviewTime: 53555
Countdown: 0
SampleSet: Normal
StackLeniency: 0.7
Mode: 1
LetterboxInBreaks: 0
WidescreenStoryboard: 0

[Editor]
DistanceSpacing: 0.8
BeatDivisor: 4
GridSize: 16
TimelineZoom: 2.4

[Metadata]
Title:Cooking Mama!!
TitleUnicode:Cooking Mama!!
Artist:yomoha
ArtistUnicode:ヨモハ✿
Creator:Nifty
Version:Oni
Source:クッキングママ
Tags:electronic video game instrumental title theme masayoshi ishi nintendo ds cooking mama axer chiptune ニンテンドーDS
BeatmapID:3639825
BeatmapSetID:1776078

[Difficulty]
HPDrainRate:5
CircleSize:2
OverallDifficulty:5
ApproachRate:10
SliderMultiplier:1.4
SliderTickRate:3

[Events]
//Background and Video events
0,0,"mother.jpg",0,-60
//Break Periods
//Storyboard Layer 0 (Background)
//Storyboard Layer 1 (Fail)
//Storyboard Layer 2 (Pass)
//Storyboard Layer 3 (Foreground)
//Storyboard Layer 4 (Overlay)
//Storyboard Sound Samples

[TimingPoints]
642,413.793103448276,4,1,0,5,1,0
642,-142.857142857143,4,1,0,5,0,0
22107,-125,4,1,0,60,0,0
25055,-100,4,1,0,60,0,0
25417,-100,4,1,0,80,0,0
30693,-71.4285714285714,4,1,0,80,0,0
31261,-83.33333,4,1,0,80,0,0
31365,-85.2637,4,1,0,80,0,0
31468,-87.2196,4,1,0,80,0,0
31572,-89.24,4,1,0,80,0,0
31675,-91.2871,4,1,0,80,0,0
31778,-93.38115,4,1,0,80,0,0
31882,-95.54429,4,1,0,80,0,0
31985,-97.73599,4,1,0,80,0,0
32089,-100,4,1,0,80,0,0
37882,-100,4,1,0,80,0,0
38089,-97.64259,4,1,0,80,0,0
38296,-95.34077,4,1,0,80,0,0
38503,-93.09319,4,1,0,80,0,0
38709,-90.90909,4,1,0,80,0,0
44038,-66.6666666666667,4,1,0,80,0,0
44503,-76.92308,4,1,0,80,0,0
44709,-80.19154,4,1,0,80,0,0
44916,-83.61576,4,1,0,80,0,0
45123,-87.1862,4,1,0,80,0,0
45330,-90.90909,4,1,0,80,0,0
50296,-90.90909,4,1,0,80,0,0
50399,-89.96883,4,1,0,80,0,0
50503,-89.029305,4,1,0,80,0,0
50606,-88.10848,4,1,0,80,0,0
50709,-87.19719,4,1,0,80,0,0
50813,-86.28663,4,1,0,80,0,0
50916,-85.394165,4,1,0,80,0,0
51020,-84.50242,4,1,0,80,0,0
51123,-83.62842,4,1,0,80,0,0
51227,-82.755104,4,1,0,80,0,0
51330,-81.89919,4,1,0,80,0,0
51434,-81.04394,4,1,0,80,0,0
51537,-80.2057,4,1,0,80,0,0
51641,-79.36813,4,1,0,80,0,0
51744,-78.54724,4,1,0,80,0,0
51847,-77.73484,4,1,0,80,0,0
51951,-76.92307,4,1,0,80,0,0
52675,-111.09854,4,1,0,80,0,0
52778,-109.81241,4,1,0,80,0,0
52882,-106.52138,4,1,0,80,0,0
52985,-107.272545,4,1,0,80,0,0
53089,-106.01872,4,1,0,80,0,0
53192,-104.79141,4,1,0,80,0,0
53399,-102.367676,4,1,0,80,0,0
53606,-99.999985,4,1,0,80,0,0
58831,-71.42856377551,4,1,0,80,0,0
59399,-83.33332,4,1,0,80,0,0
59503,-85.263695,4,1,0,80,0,0
59606,-87.21959,4,1,0,80,0,0
59709,-89.22033,4,1,0,80,0,0
59813,-91.28708,4,1,0,80,0,0
59916,-93.38113,4,1,0,80,0,0
60020,-95.544266,4,1,0,80,0,0
60123,-97.735985,4,1,0,80,0,0
60227,-99.999985,4,1,0,80,0,0
61882,-99.985306,4,1,0,80,0,0
61985,-96.78514,4,1,0,80,0,0
62089,-96.99276,4,1,0,80,0,0
62192,-95.53726,4,1,0,80,0,0
62296,-94.089775,4,1,0,80,0,0
62399,-92.67783,4,1,0,80,0,0
62503,-91.27368,4,1,0,80,0,0
62606,-79.478165,4,1,0,80,0,0
62709,-88.55487,4,1,0,80,0,0
63020,-84.602905,4,1,0,80,0,0
63123,-83.33332,4,1,0,80,0,0
63279,-76.9230650000001,4,1,0,80,0,0
63486,-76.9230650000001,4,1,0,80,0,0
68866,-66.666657711111,4,1,0,80,0,0
69330,-71.42856377551,4,1,0,80,0,0
69434,-72.103,4,1,0,80,0,0
69537,-72.77077,4,1,0,80,0,0
69641,-64.0357097332508,4,1,0,80,0,0
69744,-74.13155,4,1,0,80,0,0
69847,-74.818115,4,1,0,80,0,0
69951,-75.5083317533219,4,1,0,80,0,0
70054,-76.21719,4,1,0,80,0,0
70158,-76.92995,4,1,0,80,0,0
75951,-76.95447,4,1,0,80,0,0
76158,-78.51097,4,1,0,80,0,0
76365,-80.09895,4,1,0,80,0,0
76572,-81.71906,4,1,0,80,0,0
76779,-83.363884,4,1,0,80,0,1
82159,-50,4,1,0,80,0,0
82366,-25,4,1,0,80,0,0
83400,-83.3333291666669,4,1,0,80,0,1
88366,-83.33333,4,1,0,80,0,0
88468,-82.537674,4,1,0,80,0,0
88572,-81.742004,4,1,0,80,0,0
88675,-80.96155,4,1,0,80,0,0
88778,-80.188545,4,1,0,80,0,0
88882,-79.41553,4,1,0,80,0,0
88985,-78.65729,4,1,0,80,0,0
89089,-77.899025,4,1,0,80,0,0
89192,-77.155266,4,1,0,80,0,0
89296,-76.41148,4,1,0,80,0,0
89399,-75.68192,4,1,0,80,0,0
89503,-74.95235,4,1,0,80,0,0
89606,-74.23671,4,1,0,80,0,0
89710,-73.521065,4,1,0,80,0,0
89813,-72.81911,4,1,0,80,0,0
89916,-72.12384,4,1,0,80,0,0
90020,-71.428566,4,1,0,80,0,0
90744,-99.999985,4,1,0,80,0,0
90847,-97.98606,4,1,0,80,0,0
90951,-92.96015,4,1,0,80,0,0
91054,-94.09746,4,1,0,80,0,0
91158,-92.20239,4,1,0,80,0,0
91261,-90.363174,4,1,0,80,0,0
91468,-86.77709,4,1,0,80,0,0
91676,-83.33333,4,1,0,80,0,1
96642,-83.3333259444444,4,1,0,80,0,0
96840,-62.4999958437499,4,1,0,80,0,0
97468,-71.428566,4,1,0,80,0,0
97572,-72.825035,4,1,0,80,0,0
97675,-74.234985,4,1,0,80,0,0
97778,-75.67223,4,1,0,80,0,0
97882,-77.151665,4,1,0,80,0,0
97985,-78.64538,4,1,0,80,0,0
98089,-80.18295,4,1,0,80,0,0
98192,-81.735344,4,1,0,80,0,0
98297,-83.33333,4,1,0,80,0,1
103262,-83.33333,4,1,0,80,0,0
103469,-62.499998125,4,1,0,80,0,0
104089,-76.92307,4,1,0,80,0,0
104193,-79.503395,4,1,0,80,0,0
104296,-82.144196,4,1,0,80,0,0
104399,-84.87273,4,1,0,80,0,0
104503,-87.71971,4,1,0,80,0,0
104606,-90.63343,4,1,0,80,0,0
104710,-93.67365,4,1,0,80,0,0
104813,-96.78515,4,1,0,60,0,0
104917,-100.03172,4,1,0,60,0,0
106157,-100.00461,4,1,0,80,0,0
106208,-98.7627,4,1,0,80,0,0
106261,-97.48845,4,1,0,80,0,0
106364,-95.05891,4,1,0,80,0,0
106467,-92.689896,4,1,0,80,0,0
106519,-91.5164,4,1,0,80,0,0
106571,-90.35779,4,1,0,80,0,0
106640,-88.842995,4,1,0,80,0,0
106674,-88.10594,4,1,0,80,0,0
106708,-87.375,4,1,0,80,0,0
106777,-85.91021,4,1,0,80,0,0
106846,-84.46997,4,1,0,80,0,0
106915,-83.05389,4,1,0,80,0,0
106984,-81.66154,4,1,0,80,0,0
107053,-80.292534,4,1,0,80,0,0
107122,-78.94648,4,1,0,80,0,0
107191,-77.622986,4,1,0,80,0,0
107260,-76.32168,4,1,0,80,0,0
107295,-75.66997,4,1,0,80,0,0
107329,-75.04219,4,1,0,80,0,0
107398,-73.78416,4,1,0,80,0,0
107605,-70.13518,4,1,0,80,0,0
107674,-68.95941,4,1,0,80,0,0
107709,-68.37055,4,1,0,80,0,0
107743,-67.80334,4,1,0,80,0,0
107812,-66.666664,4,1,0,80,0,0
107917,-71.4447599688114,4,1,0,80,0,0
108176,-83.3553685676693,4,1,0,80,0,0
108227,-83.66791,4,1,0,80,0,0
108330,-84.29046,4,1,0,80,0,0
108537,-85.5556,4,1,0,80,0,0
108641,-86.19839,4,1,0,80,0,0
108744,-86.83976,4,1,0,80,0,0
108847,-87.485886,4,1,0,80,0,0
108951,-88.14317,4,1,0,80,0,0
109054,-88.79901,4,1,0,80,0,0
109158,-89.46616,4,1,0,80,0,0
109261,-90.131836,4,1,0,80,0,0
109365,-90.80901,4,1,0,80,0,0
109572,-92.172005,4,1,0,80,0,0
109675,-92.85782,4,1,0,80,0,0
109778,-93.54873,4,1,0,80,0,0
109882,-94.251564,4,1,0,80,0,0
109985,-94.95285,4,1,0,80,0,0
110089,-95.66624,4,1,0,80,0,0
110192,-96.378044,4,1,0,80,0,0
110296,-97.10215,4,1,0,80,0,0
110399,-97.824646,4,1,0,80,0,0
110503,-98.55959,4,1,0,80,0,0
110606,-99.29294,4,1,0,80,0,0
110709,-100.03172,4,1,0,80,0,0

[HitObjects]
315,94,22159,5,8,0:0:0:0:
315,94,22262,1,0,0:0:0:0:
323,105,22469,1,0,0:0:0:0:
323,105,22573,1,8,0:0:0:0:
315,94,22779,1,0,0:0:0:0:
315,94,22883,1,0,0:0:0:0:
315,94,22986,1,8,0:0:0:0:
317,84,23193,1,0,0:0:0:0:
320,84,23297,1,8,0:0:0:0:
313,88,23504,1,8,0:0:0:0:
312,88,23607,1,0,0:0:0:0:
315,94,23814,1,8,0:0:0:0:
315,94,23917,1,0,0:0:0:0:
315,94,24021,1,8,0:0:0:0:
315,100,24228,1,8,0:0:0:0:
314,98,24435,1,0,0:0:0:0:
314,98,24538,1,0,0:0:0:0:
308,97,24642,1,8,0:0:0:0:
316,83,25055,1,0,0:0:0:0:
306,89,25262,1,8,0:0:0:0:
312,79,25469,1,0,0:0:0:0:
312,82,25676,1,8,0:0:0:0:
316,83,25883,1,0,0:0:0:0:
316,83,25986,1,0,0:0:0:0:
312,78,26090,1,8,0:0:0:0:
310,80,26297,1,0,0:0:0:0:
314,81,26400,1,8,0:0:0:0:
312,82,26710,1,0,0:0:0:0:
316,83,26917,1,8,0:0:0:0:
316,83,27021,1,8,0:0:0:0:
332,83,27124,1,0,0:0:0:0:
328,90,27331,1,8,0:0:0:0:
302,79,27538,1,0,0:0:0:0:
302,79,27745,1,8,0:0:0:0:
302,72,27952,1,0,0:0:0:0:
303,72,28055,1,8,0:0:0:0:
304,72,28262,1,0,0:0:0:0:
308,74,28366,1,8,0:0:0:0:
302,79,28573,1,0,0:0:0:0:
302,79,28676,1,0,0:0:0:0:
302,72,28779,1,8,0:0:0:0:
312,90,28986,1,0,0:0:0:0:
311,87,29193,1,8,0:0:0:0:
322,66,29297,1,0,0:0:0:0:
303,79,29504,1,0,0:0:0:0:
299,85,29607,1,8,0:0:0:0:
314,75,29814,1,8,0:0:0:0:
311,75,29917,1,0,0:0:0:0:
311,75,30021,1,8,0:0:0:0:
311,87,30228,1,0,0:0:0:0:
315,84,30331,1,0,0:0:0:0:
317,84,30435,1,8,0:0:0:0:
300,78,30745,1,0,0:0:0:0:
314,75,30848,1,8,0:0:0:0:
311,60,31366,1,8,0:0:0:0:
308,63,31469,1,0,0:0:0:0:
309,69,31676,1,8,0:0:0:0:
309,73,31779,1,8,0:0:0:0:
309,72,31883,1,0,0:0:0:0:
320,74,32090,1,0,0:0:0:0:
323,73,32297,1,8,0:0:0:0:
326,67,32504,1,0,0:0:0:0:
309,69,32607,1,0,0:0:0:0:
309,69,32710,1,8,0:0:0:0:
314,65,32917,1,0,0:0:0:0:
314,65,33021,1,8,0:0:0:0:
317,64,33331,1,0,0:0:0:0:
326,67,33538,1,8,0:0:0:0:
328,67,33642,1,8,0:0:0:0:
322,69,33745,1,0,0:0:0:0:
322,69,33952,1,8,0:0:0:0:
317,64,34159,1,0,0:0:0:0:
324,67,34366,1,8,0:0:0:0:
326,67,34573,1,0,0:0:0:0:
316,62,34779,1,0,0:0:0:0:
316,62,34883,1,0,0:0:0:0:
317,64,35090,1,8,0:0:0:0:
317,64,35193,1,0,0:0:0:0:
324,67,35400,1,8,0:0:0:0:
329,58,35607,1,0,0:0:0:0:
329,59,35814,1,8,0:0:0:0:
317,64,36021,1,0,0:0:0:0:
326,65,36228,1,8,0:0:0:0:
324,67,36435,1,0,0:0:0:0:
325,64,36538,1,8,0:0:0:0:
319,58,36745,1,0,0:0:0:0:
319,59,36848,1,0,0:0:0:0:
317,64,37055,1,8,0:0:0:0:
319,59,37159,1,8,0:0:0:0:
319,59,37262,1,0,0:0:0:0:
319,59,37366,1,0,0:0:0:0:
312,63,37469,1,8,0:0:0:0:
309,68,37883,1,8,0:0:0:0:
328,61,38090,1,0,0:0:0:0:
325,64,38297,1,0,0:0:0:0:
325,64,38504,1,0,0:0:0:0:
317,67,38710,1,0,0:0:0:0:
317,67,38917,1,8,0:0:0:0:
333,60,39124,1,0,0:0:0:0:
325,64,39228,1,8,0:0:0:0:
325,64,39435,1,0,0:0:0:0:
335,62,39538,1,0,0:0:0:0:
320,62,39745,1,0,0:0:0:0:
319,62,39952,1,8,0:0:0:0:
332,63,40055,1,8,0:0:0:0:
331,61,40262,1,0,0:0:0:0:
334,58,40366,1,8,0:0:0:0:
335,62,40573,1,8,0:0:0:0:
342,58,40779,1,8,0:0:0:0:
342,59,40986,1,0,0:0:0:0:
340,60,41090,1,0,0:0:0:0:
340,60,41193,1,8,0:0:0:0:
323,63,41400,1,0,0:0:0:0:
351,66,41607,1,8,0:0:0:0:
342,59,42021,1,0,0:0:0:0:
340,60,42228,1,8,0:0:0:0:
343,61,42435,1,0,0:0:0:0:
343,61,42538,1,8,0:0:0:0:
353,63,42745,1,0,0:0:0:0:
351,62,42848,1,8,0:0:0:0:
342,59,43055,1,0,0:0:0:0:
339,61,43262,1,8,0:0:0:0:
351,59,43366,1,8,0:0:0:0:
351,59,43469,1,0,0:0:0:0:
353,63,43676,1,8,0:0:0:0:
353,63,43779,1,0,0:0:0:0:
351,62,43883,1,8,0:0:0:0:
342,59,44090,1,4,0:0:0:0:
345,64,44504,1,0,0:0:0:0:
345,63,44710,1,8,0:0:0:0:
351,62,44917,1,8,0:0:0:0:
342,59,45124,1,8,0:0:0:0:
345,64,45331,1,0,0:0:0:0:
332,66,45642,1,8,0:0:0:0:
333,66,45745,1,0,0:0:0:0:
327,59,45848,1,8,0:0:0:0:
348,66,45952,1,0,0:0:0:0:
345,69,46159,1,8,0:0:0:0:
332,68,46366,1,0,0:0:0:0:
331,69,46469,1,0,0:0:0:0:
332,68,46573,1,8,0:0:0:0:
332,66,46676,1,8,0:0:0:0:
337,66,46883,1,0,0:0:0:0:
348,66,46986,1,0,0:0:0:0:
337,67,47193,1,8,0:0:0:0:
342,73,47297,1,0,0:0:0:0:
345,68,47400,1,0,0:0:0:0:
344,63,47607,1,8,0:0:0:0:
344,65,47710,1,0,0:0:0:0:
344,65,47814,1,0,0:0:0:0:
348,66,48021,1,0,0:0:0:0:
338,67,48124,1,8,0:0:0:0:
360,78,48642,1,0,0:0:0:0:
323,92,48952,1,0,0:0:0:0:
325,94,49055,1,8,0:0:0:0:
322,95,49159,1,0,0:0:0:0:
323,92,49262,1,8,0:0:0:0:
342,80,49469,1,0,0:0:0:0:
355,66,49676,1,0,0:0:0:0:
351,63,49779,1,8,0:0:0:0:
354,63,49883,1,0,0:0:0:0:
350,64,50090,1,8,0:0:0:0:
350,66,50297,1,8,0:0:0:0:
364,50,50400,1,8,0:0:0:0:
368,64,50504,1,0,0:0:0:0:
368,64,50607,1,0,0:0:0:0:
363,62,50710,1,8,0:0:0:0:
365,51,50917,1,0,0:0:0:0:
358,59,51124,1,8,0:0:0:0:
358,57,51228,1,8,0:0:0:0:
358,57,51331,1,0,0:0:0:0:
364,50,51435,1,0,0:0:0:0:
359,52,51538,1,8,0:0:0:0:
365,51,51745,1,8,0:0:0:0:
358,51,51952,1,8,0:0:0:0:
359,51,52676,1,0,0:0:0:0:
365,51,52779,1,0,0:0:0:0:
369,53,52986,1,0,0:0:0:0:
365,55,53090,1,0,0:0:0:0:
364,55,53193,1,8,0:0:0:0:
373,58,53400,1,8,0:0:0:0:
370,57,53607,1,0,0:0:0:0:
365,51,53814,1,8,0:0:0:0:
368,72,54021,1,0,0:0:0:0:
371,66,54124,1,0,0:0:0:0:
367,65,54228,1,8,0:0:0:0:
367,65,54435,1,0,0:0:0:0:
367,65,54538,1,8,0:0:0:0:
375,59,54848,1,0,0:0:0:0:
374,59,55055,1,8,0:0:0:0:
372,46,55159,1,8,0:0:0:0:
372,46,55262,1,0,0:0:0:0:
369,54,55469,1,8,0:0:0:0:
366,56,55676,1,0,0:0:0:0:
375,59,55883,1,8,0:0:0:0:
367,61,56090,1,0,0:0:0:0:
367,61,56193,1,8,0:0:0:0:
364,62,56400,1,0,0:0:0:0:
357,64,56504,1,8,0:0:0:0:
353,66,56710,1,8,0:0:0:0:
349,64,56814,1,8,0:0:0:0:
348,60,56917,1,0,0:0:0:0:
344,65,57124,1,8,0:0:0:0:
348,67,57331,1,0,0:0:0:0:
357,56,57538,1,8,0:0:0:0:
354,66,57642,1,8,0:0:0:0:
352,55,57745,1,0,0:0:0:0:
349,54,57952,1,8,0:0:0:0:
348,67,58159,1,8,0:0:0:0:
348,67,58262,1,8,0:0:0:0:
351,64,58366,1,0,0:0:0:0:
345,63,58573,1,0,0:0:0:0:
346,75,58883,1,0,0:0:0:0:
339,69,58986,1,8,0:0:0:0:
355,64,59504,1,8,0:0:0:0:
348,69,59607,1,0,0:0:0:0:
346,75,59814,1,8,0:0:0:0:
346,75,59917,1,8,0:0:0:0:
345,72,60021,1,0,0:0:0:0:
353,71,60228,1,0,0:0:0:0:
349,70,60331,1,8,0:0:0:0:
353,84,60538,1,0,0:0:0:0:
354,83,60642,1,8,0:0:0:0:
362,76,60848,1,0,0:0:0:0:
364,72,61055,1,8,0:0:0:0:
362,78,61262,1,0,0:0:0:0:
349,70,61366,1,8,0:0:0:0:
349,72,61573,1,8,0:0:0:0:
350,73,61676,1,0,0:0:0:0:
343,74,61883,1,8,0:0:0:0:
356,81,62090,1,0,0:0:0:0:
362,78,62193,1,0,0:0:0:0:
362,78,62297,1,8,0:0:0:0:
356,78,62400,1,8,0:0:0:0:
349,72,62504,1,0,0:0:0:0:
350,73,62710,1,8,0:0:0:0:
353,72,63021,1,0,0:0:0:0:
352,63,63124,1,8,0:0:0:0:
349,72,63538,1,8,0:0:0:0:
349,72,63642,1,0,0:0:0:0:
348,66,63848,1,0,0:0:0:0:
348,64,63952,1,8,0:0:0:0:
348,63,64055,1,8,0:0:0:0:
352,63,64159,1,0,0:0:0:0:
350,55,64366,1,8,0:0:0:0:
349,72,64469,1,0,0:0:0:0:
334,74,64676,1,8,0:0:0:0:
333,73,64779,1,0,0:0:0:0:
348,66,64883,1,8,0:0:0:0:
344,71,64986,1,0,0:0:0:0:
344,72,65193,1,8,0:0:0:0:
333,64,65297,1,8,0:0:0:0:
332,61,65504,1,0,0:0:0:0:
333,64,65607,1,8,0:0:0:0:
339,66,65710,1,0,0:0:0:0:
340,67,65814,1,8,0:0:0:0:
344,71,66021,1,0,0:0:0:0:
339,69,66124,1,8,0:0:0:0:
344,72,66228,1,0,0:0:0:0:
326,55,66331,1,0,0:0:0:0:
333,62,66435,1,8,0:0:0:0:
344,67,66848,1,8,0:0:0:0:
342,63,66952,1,0,0:0:0:0:
341,63,67055,1,8,0:0:0:0:
339,69,67159,1,0,0:0:0:0:
332,64,67262,1,8,0:0:0:0:
317,63,67469,1,8,0:0:0:0:
326,75,67676,1,0,0:0:0:0:
323,73,67779,1,0,0:0:0:0:
325,72,67883,1,8,0:0:0:0:
323,74,67986,1,0,0:0:0:0:
323,74,68090,1,8,0:0:0:0:
317,66,68297,1,0,0:0:0:0:
317,63,68504,1,8,0:0:0:0:
327,74,68607,1,0,0:0:0:0:
325,72,68917,1,8,0:0:0:0:
332,76,69021,1,0,0:0:0:0:
332,73,69124,1,8,0:0:0:0:
323,69,69435,1,8,0:0:0:0:
324,68,69538,1,0,0:0:0:0:
324,66,69745,1,8,0:0:0:0:
314,69,69952,1,0,0:0:0:0:
314,72,70055,1,0,0:0:0:0:
299,69,70159,1,8,0:0:0:0:
319,61,70366,1,0,0:0:0:0:
324,68,70573,1,8,0:0:0:0:
304,55,70676,1,8,0:0:0:0:
334,65,70779,1,0,0:0:0:0:
335,75,70883,1,0,0:0:0:0:
331,59,70986,1,8,0:0:0:0:
324,58,71193,1,0,0:0:0:0:
345,64,71297,1,8,0:0:0:0:
338,60,71400,1,0,0:0:0:0:
332,56,71607,1,0,0:0:0:0:
336,55,71710,1,0,0:0:0:0:
336,55,71814,1,8,0:0:0:0:
341,66,72021,1,0,0:0:0:0:
328,56,72228,1,8,0:0:0:0:
336,54,72331,1,0,0:0:0:0:
338,50,72435,1,8,0:0:0:0:
336,63,72538,1,0,0:0:0:0:
327,61,72642,1,8,0:0:0:0:
336,55,72848,1,8,0:0:0:0:
332,66,73055,1,0,0:0:0:0:
333,67,73469,1,0,0:0:0:0:
343,68,73573,1,8,0:0:0:0:
325,74,73676,1,0,0:0:0:0:
314,78,73779,1,8,0:0:0:0:
329,74,73883,1,0,0:0:0:0:
323,67,74090,1,8,0:0:0:0:
320,65,74297,1,0,0:0:0:0:
333,67,74400,1,0,0:0:0:0:
333,67,74504,1,8,0:0:0:0:
328,72,74607,1,0,0:0:0:0:
326,69,74710,1,8,0:0:0:0:
314,77,74917,1,0,0:0:0:0:
311,75,75124,1,8,0:0:0:0:
320,65,75228,1,0,0:0:0:0:
320,71,75331,1,0,0:0:0:0:
322,75,75435,1,0,0:0:0:0:
328,72,75538,1,8,0:0:0:0:
323,75,75745,1,8,0:0:0:0:
323,76,75952,1,8,0:0:0:0:
323,74,76159,1,0,0:0:0:0:
320,71,76366,1,0,0:0:0:0:
317,67,76779,1,0,0:0:0:0:
317,67,76986,1,8,0:0:0:0:
333,60,77193,1,0,0:0:0:0:
325,64,77297,1,8,0:0:0:0:
325,64,77504,1,0,0:0:0:0:
335,62,77607,1,0,0:0:0:0:
320,62,77814,1,0,0:0:0:0:
319,62,78021,1,8,0:0:0:0:
332,63,78124,1,8,0:0:0:0:
331,61,78331,1,0,0:0:0:0:
334,58,78435,1,8,0:0:0:0:
335,62,78642,1,8,0:0:0:0:
342,58,78848,1,8,0:0:0:0:
342,59,79055,1,0,0:0:0:0:
340,60,79159,1,0,0:0:0:0:
340,60,79262,1,8,0:0:0:0:
323,63,79469,1,0,0:0:0:0:
351,66,79676,1,8,0:0:0:0:
342,59,80090,1,0,0:0:0:0:
340,60,80297,1,8,0:0:0:0:
343,61,80504,1,0,0:0:0:0:
343,61,80607,1,8,0:0:0:0:
353,63,80814,1,0,0:0:0:0:
351,62,80917,1,8,0:0:0:0:
342,59,81124,1,0,0:0:0:0:
339,61,81331,1,8,0:0:0:0:
351,59,81435,1,8,0:0:0:0:
351,59,81538,1,0,0:0:0:0:
353,63,81745,1,8,0:0:0:0:
353,63,81848,1,0,0:0:0:0:
351,62,81952,1,8,0:0:0:0:
342,59,82159,1,4,0:0:0:0:
256,192,82573,12,0,83193,0:0:0:0:
345,64,83400,5,4,0:0:0:0:
332,66,83711,1,8,0:0:0:0:
333,66,83814,1,0,0:0:0:0:
327,59,83917,1,8,0:0:0:0:
348,66,84021,1,0,0:0:0:0:
345,69,84228,1,8,0:0:0:0:
332,68,84435,1,0,0:0:0:0:
331,69,84538,1,0,0:0:0:0:
332,68,84642,1,8,0:0:0:0:
332,66,84745,1,8,0:0:0:0:
337,66,84952,1,0,0:0:0:0:
348,66,85055,1,0,0:0:0:0:
337,67,85262,1,8,0:0:0:0:
342,73,85366,1,0,0:0:0:0:
345,68,85469,1,0,0:0:0:0:
344,63,85676,1,8,0:0:0:0:
344,65,85779,1,0,0:0:0:0:
344,65,85883,1,0,0:0:0:0:
348,66,86090,1,0,0:0:0:0:
338,67,86193,1,8,0:0:0:0:
337,67,86297,1,0,0:0:0:0:
360,78,86711,1,0,0:0:0:0:
323,92,87021,1,0,0:0:0:0:
325,94,87124,1,8,0:0:0:0:
322,95,87228,1,0,0:0:0:0:
323,92,87331,1,8,0:0:0:0:
342,80,87538,1,0,0:0:0:0:
355,66,87745,1,0,0:0:0:0:
351,63,87848,1,8,0:0:0:0:
354,63,87952,1,0,0:0:0:0:
350,64,88159,1,8,0:0:0:0:
350,66,88366,1,8,0:0:0:0:
364,50,88469,1,8,0:0:0:0:
368,64,88573,1,0,0:0:0:0:
368,64,88676,1,0,0:0:0:0:
363,62,88779,1,8,0:0:0:0:
365,51,88986,1,0,0:0:0:0:
358,59,89193,1,8,0:0:0:0:
358,57,89297,1,8,0:0:0:0:
358,57,89400,1,0,0:0:0:0:
364,50,89504,1,0,0:0:0:0:
359,52,89607,1,8,0:0:0:0:
365,51,89814,1,8,0:0:0:0:
358,51,90021,1,8,0:0:0:0:
375,64,90848,1,0,0:0:0:0:
382,63,91055,1,0,0:0:0:0:
375,64,91159,1,0,0:0:0:0:
375,64,91262,1,8,0:0:0:0:
332,79,91469,1,8,0:0:0:0:
312,79,91676,1,0,0:0:0:0:
312,82,91883,1,8,0:0:0:0:
316,83,92090,1,0,0:0:0:0:
316,83,92193,1,0,0:0:0:0:
312,78,92297,1,8,0:0:0:0:
310,80,92504,1,0,0:0:0:0:
314,81,92607,1,8,0:0:0:0:
312,82,92917,1,0,0:0:0:0:
316,83,93124,1,8,0:0:0:0:
316,83,93228,1,8,0:0:0:0:
332,83,93331,1,0,0:0:0:0:
328,90,93538,1,8,0:0:0:0:
302,79,93745,1,0,0:0:0:0:
302,79,93952,1,8,0:0:0:0:
302,72,94159,1,0,0:0:0:0:
303,72,94262,1,8,0:0:0:0:
304,72,94469,1,0,0:0:0:0:
308,74,94573,1,8,0:0:0:0:
302,79,94780,1,0,0:0:0:0:
302,79,94883,1,0,0:0:0:0:
302,72,94986,1,8,0:0:0:0:
312,90,95193,1,0,0:0:0:0:
311,87,95400,1,8,0:0:0:0:
322,66,95607,1,0,0:0:0:0:
303,79,95711,1,0,0:0:0:0:
299,85,95814,1,8,0:0:0:0:
314,75,96021,1,8,0:0:0:0:
311,75,96124,1,0,0:0:0:0:
311,75,96228,1,8,0:0:0:0:
311,87,96435,1,0,0:0:0:0:
315,84,96538,1,8,0:0:0:0:
317,84,96642,1,0,0:0:0:0:
300,78,96952,1,0,0:0:0:0:
314,75,97055,1,8,0:0:0:0:
311,60,97573,1,8,0:0:0:0:
308,63,97676,1,0,0:0:0:0:
309,69,97883,5,8,0:0:0:0:
309,73,97986,1,8,0:0:0:0:
309,72,98090,1,0,0:0:0:0:
320,74,98297,5,0,0:0:0:0:
323,73,98504,1,8,0:0:0:0:
326,67,98711,1,0,0:0:0:0:
309,69,98814,1,0,0:0:0:0:
309,69,98917,1,8,0:0:0:0:
314,65,99124,1,0,0:0:0:0:
314,65,99228,1,8,0:0:0:0:
317,64,99538,1,0,0:0:0:0:
326,67,99745,1,8,0:0:0:0:
328,67,99849,1,8,0:0:0:0:
322,69,99952,1,0,0:0:0:0:
322,69,100159,1,8,0:0:0:0:
317,64,100366,1,0,0:0:0:0:
324,67,100573,1,8,0:0:0:0:
326,67,100780,1,0,0:0:0:0:
316,62,100883,1,8,0:0:0:0:
316,62,101090,1,0,0:0:0:0:
317,64,101193,1,0,0:0:0:0:
317,64,101400,1,8,0:0:0:0:
324,67,101607,1,0,0:0:0:0:
337,73,101814,1,0,0:0:0:0:
329,59,102021,1,8,0:0:0:0:
317,64,102228,1,0,0:0:0:0:
336,73,102331,1,0,0:0:0:0:
326,65,102435,1,8,0:0:0:0:
324,67,102642,1,0,0:0:0:0:
325,64,102745,1,8,0:0:0:0:
319,58,102848,1,8,0:0:0:0:
319,59,103055,1,0,0:0:0:0:
317,64,103262,5,8,0:0:0:0:
319,59,103573,1,0,0:0:0:0:
339,69,103676,1,8,0:0:0:0:
356,64,104193,1,8,0:0:0:0:
346,75,104297,1,0,0:0:0:0:
346,75,104504,1,8,0:0:0:0:
345,72,104607,1,8,0:0:0:0:
367,70,104710,1,0,0:0:0:0:
343,71,104917,1,0,0:0:0:0:
349,70,105021,1,8,0:0:0:0:
353,84,105228,1,0,0:0:0:0:
354,83,105332,1,8,0:0:0:0:
362,76,105538,1,0,0:0:0:0:
364,72,105745,1,8,0:0:0:0:
362,78,105952,1,0,0:0:0:0:
349,70,106056,1,8,0:0:0:0:
331,116,106159,1,0,0:0:0:0:
349,72,106263,1,8,0:0:0:0:
350,73,106366,1,8,0:0:0:0:
343,74,106573,1,8,0:0:0:0:
339,86,106676,1,8,0:0:0:0:
345,85,106779,1,0,0:0:0:0:
349,74,106986,1,8,0:0:0:0:
349,72,107193,1,0,0:0:0:0:
349,72,107297,1,0,0:0:0:0:
348,80,107400,1,8,0:0:0:0:
361,65,107710,1,0,0:0:0:0:
361,65,107814,1,8,0:0:0:0:
367,63,108021,1,0,0:0:0:0:
357,61,108228,1,8,0:0:0:0:
363,55,108331,1,0,0:0:0:0:
362,56,108538,1,0,0:0:0:0:
361,55,108642,1,8,0:0:0:0:
363,55,108848,1,0,0:0:0:0:
364,55,109055,1,8,0:0:0:0:
369,53,109262,1,0,0:0:0:0:
363,55,109366,1,8,0:0:0:0:
362,56,109573,1,8,0:0:0:0:
362,55,109676,1,0,0:0:0:0:
363,55,109883,1,8,0:0:0:0:
362,55,109986,1,0,0:0:0:0:
364,55,110090,1,8,0:0:0:0:
363,55,110297,1,8,0:0:0:0:
368,55,110504,1,0,0:0:0:0:
368,55,110607,1,0,0:0:0:0:
369,55,110710,1,8,0:0:0:0:
