osu file format v14

[General]
AudioFilename: audio.mp3
AudioLeadIn: 0
PreviewTime: 53555
Countdown: 0
SampleSet: Normal
StackLeniency: 0.7
Mode: 1
LetterboxInBreaks: 0
WidescreenStoryboard: 0

[Editor]
DistanceSpacing: 0.8
BeatDivisor: 4
GridSize: 16
TimelineZoom: 2.4

[Metadata]
Title:Cooking Mama!!
TitleUnicode:Cooking Mama!!
Artist:yomoha
ArtistUnicode:ヨモハ✿
Creator:Nifty
Version:Muzukashii
Source:クッキングママ
Tags:electronic video game instrumental title theme masayoshi ishi nintendo ds cooking mama axer chiptune ニンテンドーDS
BeatmapID:3639824
BeatmapSetID:1776078

[Difficulty]
HPDrainRate:5.5
CircleSize:2
OverallDifficulty:4.5
ApproachRate:10
SliderMultiplier:1.4
SliderTickRate:3

[Events]
//Background and Video events
0,0,"mother.jpg",0,-60
//Break Periods
//Storyboard Layer 0 (Background)
//Storyboard Layer 1 (Fail)
//Storyboard Layer 2 (Pass)
//Storyboard Layer 3 (Foreground)
//Storyboard Layer 4 (Overlay)
//Storyboard Sound Samples

[TimingPoints]
642,413.793103448276,4,1,0,5,1,0
642,-142.857142857143,4,1,0,5,0,0
22107,-125,4,1,0,60,0,0
25055,-100,4,1,0,60,0,0
25417,-100,4,1,0,80,0,0
63435,-83.3333333333333,4,1,0,80,0,0
76779,-83.363884,4,1,0,80,0,1
82159,-66.6666666666667,4,1,0,80,0,0
83400,-83.3333291666669,4,1,0,80,0,1
88366,-83.33333,4,1,0,80,0,0
91676,-83.33333,4,1,0,80,0,1
96642,-83.3333259444444,4,1,0,80,0,0
98297,-83.33333,4,1,0,80,0,1
103262,-83.33333,4,1,0,80,0,0
104297,-90.9090909090909,4,1,0,60,0,0
104504,-93.0232558139535,4,1,0,60,0,0
104607,-95.2380952380952,4,1,0,60,0,0
104710,-97.5609756097561,4,1,0,60,0,0
104917,-100,4,1,0,60,0,0
106157,-90.9129008104793,4,1,0,80,0,0
108124,-111.116802498289,4,1,0,80,0,0

[HitObjects]
315,94,22159,5,8,0:0:0:0:
323,105,22573,1,8,0:0:0:0:
315,94,22779,1,0,0:0:0:0:
315,94,22986,1,8,0:0:0:0:
320,84,23297,1,8,0:0:0:0:
312,88,23607,1,0,0:0:0:0:
315,94,23814,1,8,0:0:0:0:
315,94,24021,1,8,0:0:0:0:
315,100,24228,1,8,0:0:0:0:
314,98,24435,1,0,0:0:0:0:
308,97,24642,1,8,0:0:0:0:
306,89,25055,1,0,0:0:0:0:
312,79,25469,1,0,0:0:0:0:
316,83,25883,1,0,0:0:0:0:
312,78,26090,1,8,0:0:0:0:
310,80,26297,1,0,0:0:0:0:
329,67,26400,1,0,0:0:0:0:
312,82,26710,1,0,0:0:0:0:
316,83,26917,1,8,0:0:0:0:
332,83,27124,1,8,0:0:0:0:
302,79,27538,1,0,0:0:0:0:
302,72,27952,1,0,0:0:0:0:
323,72,28055,1,0,0:0:0:0:
308,74,28366,1,8,0:0:0:0:
302,79,28573,1,0,0:0:0:0:
302,72,28779,1,8,0:0:0:0:
311,87,29193,1,8,0:0:0:0:
303,79,29400,1,0,0:0:0:0:
299,85,29607,1,8,0:0:0:0:
316,66,29710,1,8,0:0:0:0:
314,75,29814,1,8,0:0:0:0:
311,75,30021,1,8,0:0:0:0:
311,87,30228,1,0,0:0:0:0:
317,84,30435,1,8,0:0:0:0:
314,75,30848,1,8,0:0:0:0:
308,63,31469,1,0,0:0:0:0:
309,69,31676,1,8,0:0:0:0:
305,69,31779,1,8,0:0:0:0:
300,67,31883,1,8,0:0:0:0:
320,74,32090,1,0,0:0:0:0:
326,67,32504,1,0,0:0:0:0:
309,69,32710,1,8,0:0:0:0:
314,65,32917,1,0,0:0:0:0:
320,74,33021,1,0,0:0:0:0:
317,64,33331,1,0,0:0:0:0:
326,67,33538,1,8,0:0:0:0:
322,69,33745,1,8,0:0:0:0:
317,64,34159,1,0,0:0:0:0:
326,67,34573,1,0,0:0:0:0:
316,62,34779,1,0,0:0:0:0:
317,64,34986,1,8,0:0:0:0:
317,64,35193,1,0,0:0:0:0:
324,67,35400,1,8,0:0:0:0:
329,59,35814,1,8,0:0:0:0:
317,64,36021,1,0,0:0:0:0:
326,65,36228,1,8,0:0:0:0:
333,63,36435,1,0,0:0:0:0:
319,58,36538,1,0,0:0:0:0:
319,59,36848,1,0,0:0:0:0:
317,64,37055,1,8,0:0:0:0:
309,68,37883,1,8,0:0:0:0:
328,61,38090,1,0,0:0:0:0:
325,64,38297,1,0,0:0:0:0:
325,64,38504,1,0,0:0:0:0:
317,67,38710,1,0,0:0:0:0:
317,67,38917,1,8,0:0:0:0:
325,64,39331,1,8,0:0:0:0:
335,62,39538,1,0,0:0:0:0:
320,62,39745,1,8,0:0:0:0:
311,58,39848,1,8,0:0:0:0:
331,61,39952,1,8,0:0:0:0:
334,58,40366,1,0,0:0:0:0:
335,62,40573,1,8,0:0:0:0:
342,58,40779,1,0,0:0:0:0:
329,49,40883,1,0,0:0:0:0:
342,59,40986,1,0,0:0:0:0:
340,60,41193,1,8,0:0:0:0:
342,59,42021,1,0,0:0:0:0:
340,60,42228,1,8,0:0:0:0:
343,61,42435,1,0,0:0:0:0:
351,62,42848,1,8,0:0:0:0:
342,59,43055,1,0,0:0:0:0:
339,61,43262,1,8,0:0:0:0:
350,62,43366,1,8,0:0:0:0:
346,66,43469,1,8,0:0:0:0:
353,63,43676,1,8,0:0:0:0:
342,59,44090,1,4,0:0:0:0:
345,64,44504,1,0,0:0:0:0:
345,63,44710,1,8,0:0:0:0:
351,62,44917,1,8,0:0:0:0:
342,59,45124,1,8,0:0:0:0:
345,64,45331,1,0,0:0:0:0:
353,64,45642,1,0,0:0:0:0:
333,66,45745,1,0,0:0:0:0:
348,66,45952,1,0,0:0:0:0:
345,69,46159,1,8,0:0:0:0:
362,69,46366,1,0,0:0:0:0:
332,68,46573,1,8,0:0:0:0:
348,66,46986,1,0,0:0:0:0:
337,67,47193,1,8,0:0:0:0:
345,68,47400,1,0,0:0:0:0:
344,63,47607,1,8,0:0:0:0:
344,65,47814,1,0,0:0:0:0:
337,67,48021,1,8,0:0:0:0:
337,67,48124,1,8,0:0:0:0:
338,67,48228,1,8,0:0:0:0:
360,78,48642,1,0,0:0:0:0:
323,92,48952,1,8,0:0:0:0:
325,94,49055,1,8,0:0:0:0:
323,92,49262,1,8,0:0:0:0:
342,80,49469,1,0,0:0:0:0:
355,66,49676,1,8,0:0:0:0:
354,63,49883,1,0,0:0:0:0:
350,66,50297,1,8,0:0:0:0:
368,64,50504,1,0,0:0:0:0:
363,62,50710,1,8,0:0:0:0:
365,51,50917,1,0,0:0:0:0:
358,59,51124,1,8,0:0:0:0:
358,57,51228,1,8,0:0:0:0:
358,57,51331,1,8,0:0:0:0:
359,52,51538,1,8,0:0:0:0:
365,51,51745,1,0,0:0:0:0:
358,51,51952,1,8,0:0:0:0:
365,51,52779,1,0,0:0:0:0:
369,53,52986,1,0,0:0:0:0:
364,55,53193,1,8,0:0:0:0:
312,79,53607,1,0,0:0:0:0:
316,83,54021,1,0,0:0:0:0:
312,78,54228,1,8,0:0:0:0:
310,80,54435,1,0,0:0:0:0:
329,67,54538,1,0,0:0:0:0:
312,82,54848,1,0,0:0:0:0:
316,83,55055,1,8,0:0:0:0:
332,83,55262,1,8,0:0:0:0:
302,79,55676,1,0,0:0:0:0:
302,72,56090,1,0,0:0:0:0:
323,72,56193,1,0,0:0:0:0:
308,74,56504,1,8,0:0:0:0:
302,79,56711,1,0,0:0:0:0:
302,72,56917,1,8,0:0:0:0:
311,87,57331,1,8,0:0:0:0:
303,79,57538,1,0,0:0:0:0:
299,85,57745,1,8,0:0:0:0:
316,66,57848,1,8,0:0:0:0:
314,75,57952,1,8,0:0:0:0:
311,75,58159,1,8,0:0:0:0:
311,87,58366,1,0,0:0:0:0:
317,84,58573,1,8,0:0:0:0:
314,75,58986,1,8,0:0:0:0:
308,63,59607,1,0,0:0:0:0:
309,69,59814,5,8,0:0:0:0:
305,69,59917,1,8,0:0:0:0:
300,67,60021,1,8,0:0:0:0:
320,74,60228,1,0,0:0:0:0:
354,83,60642,1,8,0:0:0:0:
362,76,60848,1,0,0:0:0:0:
364,72,61055,1,8,0:0:0:0:
349,70,61366,1,8,0:0:0:0:
350,73,61676,1,0,0:0:0:0:
343,74,61883,1,8,0:0:0:0:
356,81,62090,1,0,0:0:0:0:
362,78,62193,1,0,0:0:0:0:
362,78,62297,1,0,0:0:0:0:
349,72,62504,1,0,0:0:0:0:
350,73,62710,1,8,0:0:0:0:
349,72,63538,1,8,0:0:0:0:
349,72,63642,1,8,0:0:0:0:
348,64,63952,1,8,0:0:0:0:
352,63,64159,1,0,0:0:0:0:
350,55,64366,1,8,0:0:0:0:
349,72,64469,1,8,0:0:0:0:
333,73,64779,1,0,0:0:0:0:
344,71,64986,1,0,0:0:0:0:
344,72,65193,1,8,0:0:0:0:
333,64,65297,1,8,0:0:0:0:
333,64,65607,1,0,0:0:0:0:
339,66,65710,1,0,0:0:0:0:
340,67,65814,1,0,0:0:0:0:
339,69,66021,1,8,0:0:0:0:
344,72,66228,1,0,0:0:0:0:
333,62,66435,1,8,0:0:0:0:
344,67,66848,1,0,0:0:0:0:
341,63,67055,1,8,0:0:0:0:
339,69,67159,1,8,0:0:0:0:
332,64,67262,1,8,0:0:0:0:
317,63,67469,1,8,0:0:0:0:
326,75,67676,1,0,0:0:0:0:
325,72,67883,1,8,0:0:0:0:
323,74,68090,1,8,0:0:0:0:
317,63,68504,1,0,0:0:0:0:
325,72,68917,1,8,0:0:0:0:
324,68,69538,1,0,0:0:0:0:
324,66,69745,1,8,0:0:0:0:
314,69,69848,1,8,0:0:0:0:
314,72,69952,1,8,0:0:0:0:
299,69,70159,1,0,0:0:0:0:
319,61,70366,1,0,0:0:0:0:
324,68,70573,1,8,0:0:0:0:
331,59,70986,1,8,0:0:0:0:
324,58,71193,1,8,0:0:0:0:
338,60,71400,1,0,0:0:0:0:
332,56,71607,1,8,0:0:0:0:
336,55,71710,1,8,0:0:0:0:
336,55,71814,1,8,0:0:0:0:
341,66,72021,1,0,0:0:0:0:
328,56,72228,1,8,0:0:0:0:
338,50,72435,1,0,0:0:0:0:
336,63,72538,1,0,0:0:0:0:
327,61,72642,1,0,0:0:0:0:
336,55,72848,1,8,0:0:0:0:
332,66,73055,1,0,0:0:0:0:
333,67,73469,1,0,0:0:0:0:
325,74,73676,1,8,0:0:0:0:
314,78,73779,1,8,0:0:0:0:
329,74,73883,1,8,0:0:0:0:
323,67,74090,1,8,0:0:0:0:
320,65,74297,1,0,0:0:0:0:
333,67,74504,1,0,0:0:0:0:
326,69,74710,1,8,0:0:0:0:
311,75,75124,1,8,0:0:0:0:
320,71,75331,1,0,0:0:0:0:
322,75,75435,1,0,0:0:0:0:
328,72,75538,1,0,0:0:0:0:
323,76,75952,1,8,0:0:0:0:
323,74,76159,1,0,0:0:0:0:
320,71,76366,1,0,0:0:0:0:
328,72,76573,1,0,0:0:0:0:
317,67,76779,1,0,0:0:0:0:
317,67,76986,1,8,0:0:0:0:
325,64,77400,1,8,0:0:0:0:
335,62,77607,1,0,0:0:0:0:
320,62,77814,1,8,0:0:0:0:
311,58,77917,1,8,0:0:0:0:
331,61,78021,1,8,0:0:0:0:
334,58,78435,1,0,0:0:0:0:
335,62,78642,1,8,0:0:0:0:
342,58,78848,1,0,0:0:0:0:
329,49,78952,1,0,0:0:0:0:
342,59,79055,1,0,0:0:0:0:
340,60,79262,1,8,0:0:0:0:
342,59,80090,1,0,0:0:0:0:
340,60,80297,1,8,0:0:0:0:
343,61,80504,1,0,0:0:0:0:
351,62,80917,1,8,0:0:0:0:
342,59,81124,1,0,0:0:0:0:
339,61,81331,1,8,0:0:0:0:
350,62,81435,1,8,0:0:0:0:
346,66,81538,1,8,0:0:0:0:
353,63,81745,1,8,0:0:0:0:
342,59,82159,1,4,0:0:0:0:
256,192,82573,12,0,83193,0:0:0:0:
345,64,83400,5,4,0:0:0:0:
353,64,83711,1,0,0:0:0:0:
333,66,83814,1,0,0:0:0:0:
348,66,84021,1,0,0:0:0:0:
345,69,84228,1,8,0:0:0:0:
362,69,84435,1,0,0:0:0:0:
332,68,84642,1,8,0:0:0:0:
348,66,85055,1,0,0:0:0:0:
337,67,85262,1,8,0:0:0:0:
345,68,85469,1,0,0:0:0:0:
344,63,85676,1,8,0:0:0:0:
344,65,85883,1,0,0:0:0:0:
337,67,86090,1,8,0:0:0:0:
337,67,86193,1,8,0:0:0:0:
338,67,86297,1,8,0:0:0:0:
360,78,86711,1,0,0:0:0:0:
323,92,87021,1,8,0:0:0:0:
325,94,87124,1,8,0:0:0:0:
323,92,87331,1,8,0:0:0:0:
342,80,87538,1,0,0:0:0:0:
355,66,87745,1,8,0:0:0:0:
354,63,87952,1,0,0:0:0:0:
350,66,88366,1,8,0:0:0:0:
368,64,88573,1,0,0:0:0:0:
363,62,88779,1,8,0:0:0:0:
365,51,88986,1,0,0:0:0:0:
358,59,89193,1,8,0:0:0:0:
358,57,89297,1,8,0:0:0:0:
358,57,89400,1,8,0:0:0:0:
359,52,89607,1,8,0:0:0:0:
365,51,89814,1,0,0:0:0:0:
358,51,90021,1,8,0:0:0:0:
375,64,90848,5,0,0:0:0:0:
382,63,91055,1,0,0:0:0:0:
375,64,91262,1,8,0:0:0:0:
312,79,91676,1,0,0:0:0:0:
316,83,92090,1,0,0:0:0:0:
312,78,92297,1,8,0:0:0:0:
310,80,92504,1,0,0:0:0:0:
329,67,92607,1,0,0:0:0:0:
312,82,92917,1,0,0:0:0:0:
316,83,93124,1,8,0:0:0:0:
332,83,93331,1,8,0:0:0:0:
302,79,93745,1,0,0:0:0:0:
310,80,93952,1,8,0:0:0:0:
302,72,94159,1,0,0:0:0:0:
323,72,94262,1,0,0:0:0:0:
308,74,94573,1,8,0:0:0:0:
302,79,94780,1,0,0:0:0:0:
302,72,94986,1,8,0:0:0:0:
311,87,95400,1,8,0:0:0:0:
303,79,95607,1,0,0:0:0:0:
299,85,95814,1,8,0:0:0:0:
316,66,95917,1,8,0:0:0:0:
314,75,96021,1,8,0:0:0:0:
311,75,96228,1,8,0:0:0:0:
311,87,96435,1,0,0:0:0:0:
317,84,96642,1,8,0:0:0:0:
314,75,97055,1,8,0:0:0:0:
308,63,97676,1,0,0:0:0:0:
309,69,97883,1,8,0:0:0:0:
305,69,97986,1,8,0:0:0:0:
300,67,98090,1,8,0:0:0:0:
320,74,98297,1,0,0:0:0:0:
326,67,98711,1,0,0:0:0:0:
309,69,98917,1,8,0:0:0:0:
314,65,99124,1,0,0:0:0:0:
320,74,99228,1,0,0:0:0:0:
317,64,99538,1,0,0:0:0:0:
326,67,99745,1,8,0:0:0:0:
322,69,99952,1,8,0:0:0:0:
317,64,100366,1,0,0:0:0:0:
325,73,100573,1,8,0:0:0:0:
326,67,100780,1,0,0:0:0:0:
316,62,100883,1,0,0:0:0:0:
317,64,101193,1,8,0:0:0:0:
317,64,101400,1,0,0:0:0:0:
324,67,101607,1,8,0:0:0:0:
329,59,102021,1,8,0:0:0:0:
317,64,102228,1,0,0:0:0:0:
326,65,102435,1,8,0:0:0:0:
333,63,102642,1,0,0:0:0:0:
319,58,102745,1,0,0:0:0:0:
319,59,102848,1,0,0:0:0:0:
329,59,103055,1,0,0:0:0:0:
317,64,103262,1,8,0:0:0:0:
287,60,103676,1,8,0:0:0:0:
346,75,104297,1,0,0:0:0:0:
346,75,104504,1,8,0:0:0:0:
345,72,104607,1,8,0:0:0:0:
367,70,104710,1,8,0:0:0:0:
343,71,104917,1,8,0:0:0:0:
354,83,105332,1,8,0:0:0:0:
364,72,105745,1,0,0:0:0:0:
362,78,105952,1,8,0:0:0:0:
349,70,106056,1,8,0:0:0:0:
350,73,106366,1,8,0:0:0:0:
343,74,106573,1,8,0:0:0:0:
345,85,106779,1,0,0:0:0:0:
349,74,106986,1,8,0:0:0:0:
349,72,107193,1,0,0:0:0:0:
349,72,107297,1,0,0:0:0:0:
348,80,107400,1,0,0:0:0:0:
361,65,107814,1,8,0:0:0:0:
357,61,108228,1,8,0:0:0:0:
361,55,108642,1,8,0:0:0:0:
361,65,108848,1,0,0:0:0:0:
364,55,109055,1,8,0:0:0:0:
363,55,109366,1,8,0:0:0:0:
362,55,109676,1,0,0:0:0:0:
363,55,109883,1,8,0:0:0:0:
364,55,110090,1,8,0:0:0:0:
363,55,110297,1,8,0:0:0:0:
368,55,110504,1,0,0:0:0:0:
369,55,110710,1,8,0:0:0:0:
