osu file format v14

[General]
AudioFilename: audio.mp3
AudioLeadIn: 0
PreviewTime: 48248
Countdown: 0
SampleSet: Soft
StackLeniency: 0.7
Mode: 0
LetterboxInBreaks: 0
WidescreenStoryboard: 1

[Editor]
Bookmarks: 260,4010,19010,26510,41510,49010,64010,82760,90260,105260,109010,124010,139010,146510,161510,176510,191510,195026
DistanceSpacing: 0.8
BeatDivisor: 4
GridSize: 4
TimelineZoom: 1

[Metadata]
Title:Shut Up and osu! With Me (2020 ver.)
TitleUnicode:Shut Up and osu! With Me (2020 ver.)
Artist:yomegA
ArtistUnicode:yomegA
Creator:Sonnyc
Version:Normal
Source:
Tags:pippi WALK THE MOON Dance Cover English Pop Satya Rizqy BeyondTheRevolution
BeatmapID:2289271
BeatmapSetID:1095376

[Difficulty]
HPDrainRate:4
CircleSize:3.5
OverallDifficulty:5
ApproachRate:5
SliderMultiplier:1.5
SliderTickRate:1

[Events]
//Background and Video events
0,0,"bg.jpg",0,0
//Break Periods
2,19209,24606
2,64004,65388
//Storyboard Layer 0 (Background)
//Storyboard Layer 1 (Fail)
//Storyboard Layer 2 (Pass)
//Storyboard Layer 3 (Foreground)
//Storyboard Layer 4 (Overlay)
//Storyboard Sound Samples

[TimingPoints]
260,468.75,4,2,1,40,1,0
260,-125,4,2,1,40,0,0
4010,-111.111111111111,4,2,1,50,0,0
16900,-111.111111111111,4,2,1,70,0,0
19010,-125,4,2,1,50,0,0
25806,-111.111111111111,4,2,1,50,0,0
41744,-111.111111111111,4,2,1,60,0,0
47369,-111.111111111111,4,2,1,65,0,0
48306,-100,4,2,1,70,0,0
49010,-100,4,2,1,70,0,1
54635,-100,4,2,1,80,0,1
56744,-100,4,2,1,70,0,1
62135,-100,4,2,1,80,0,1
64010,-111.111111111111,4,2,1,60,0,0
88619,-111.111111111111,4,2,1,65,0,0
89556,-100,4,2,1,70,0,0
90260,-100,4,2,1,70,0,1
95885,-100,4,2,1,80,0,1
97291,-100,4,2,1,80,0,1
103385,-100,4,2,1,80,0,1
105260,-100,4,2,1,60,0,0
120963,-100,4,2,1,65,0,0
121666,-100,4,2,1,70,0,0
122369,-100,4,2,1,80,0,0
124010,-111.111111111111,4,2,1,60,0,0
139010,-125,4,2,1,40,0,0
146510,-111.111111111111,4,2,1,50,0,0
159635,-111.111111111111,4,2,1,40,0,0
161041,-111.111111111111,4,2,1,70,0,0
161510,-100,4,2,1,70,0,1
167135,-100,4,2,1,80,0,1
169244,-100,4,2,1,70,0,1
174635,-100,4,2,1,80,0,1
176510,-100,4,2,1,60,0,0
182135,-100,4,2,1,80,0,0
184010,-100,4,2,1,60,0,0
189635,-100,4,2,1,80,0,0
191510,-100,4,2,1,60,0,0
192213,-100,4,2,1,65,0,0
192916,-100,4,2,1,70,0,0
193619,-100,4,2,1,80,0,0
195142,-100,4,2,1,50,0,0
195728,-100,4,2,1,40,0,0
196197,-100,4,2,1,20,0,0
196666,-100,4,2,1,10,0,0
197135,-100,4,2,1,5,0,0

[Colours]
Combo1 : 255,150,0
Combo2 : 149,198,47
Combo3 : 104,143,249
Combo4 : 218,27,80

[HitObjects]
171,170,260,38,0,L|349:186,2,180,2|2|2,0:0|0:0|0:0,0:0:0:0:
210,269,2135,2,0,L|31:252,2,180,2|2|2,0:0|0:0|0:0,0:0:0:0:
171,170,4010,22,0,P|237:182|288:127,2,134.999995880127,0|0|0,1:0|1:0|1:0,0:0:0:0:
89,101,5416,1,0,1:0:0:0:
0,162,5885,2,0,L|11:296,2,134.999995880127,0|0|0,1:0|1:0|1:0,0:0:0:0:
89,101,7291,1,8,1:0:0:0:
171,170,7760,6,0,P|237:182|288:127,2,134.999995880127,0|0|0,1:0|1:0|1:0,0:0:0:0:
117,263,9166,1,0,1:0:0:0:
200,331,9635,2,0,P|263:343|313:300,1,134.999995880127,2|2,1:0|1:0,0:0:0:0:
341,196,10572,2,0,P|277:183|227:226,2,134.999995880127,2|10|0,1:0|1:0|1:0,0:0:0:0:
421,268,11978,5,0,1:0:0:0:
490,185,12447,2,0,L|479:51,1,134.999995880127,0|0,1:0|1:0,0:0:0:0:
384,103,13385,2,0,L|250:92,2,134.999995880127,0|0|0,1:0|1:0|1:0,0:0:0:0:
478,50,14791,1,8,1:0:0:0:
502,155,15260,5,8,1:0:0:0:
403,199,15728,1,8,1:0:0:0:
328,120,16197,1,8,1:0:0:0:
229,164,16666,1,8,1:0:0:0:
154,85,17135,2,0,P|90:72|40:115,1,134.999995880127,10|10,1:0|1:0,0:0:0:0:
13,220,18072,2,0,P|76:232|126:189,2,134.999995880127,10|10|0,1:0|1:0|1:0,0:0:0:0:
76,91,25806,5,0,0:0:0:0:
76,91,26041,1,8,1:0:0:0:
174,162,26510,2,0,L|185:298,2,134.999995880127,2|0|0,1:2|1:0|1:0,0:0:0:0:
255,71,27916,1,8,1:0:0:0:
255,71,28150,1,0,0:0:0:0:
495,194,29088,6,0,P|459:166|354:250,1,202.499993820191,2|8,0:0|1:0,0:0:0:0:
239,202,30260,1,0,1:0:0:0:
157,291,30728,1,0,1:0:0:0:
41,253,31197,2,0,P|13:217|97:112,1,202.499993820191,0|2,1:0|0:0,0:0:0:0:
304,228,32838,6,0,P|308:168|235:51,1,202.499993820191,2|8,0:0|1:0,0:0:0:0:
117,20,34010,1,0,1:0:0:0:
159,133,34478,1,0,1:0:0:0:
42,166,34947,2,0,L|53:379,1,202.499993820191,0|0,1:0|0:0,0:0:0:0:
294,349,36588,6,0,P|330:377|435:293,1,202.499993820191,2|8,0:0|1:0,0:0:0:0:
394,254,37525,2,0,L|414:48,1,202.499993820191,2|0,0:0|1:0,0:0:0:0:
311,118,38697,1,0,1:0:0:0:
228,28,39166,1,0,1:0:0:0:
228,28,39400,2,0,P|192:0|87:84,1,202.499993820191,2|8,0:0|1:0,0:0:0:0:
172,164,40572,1,0,1:0:0:0:
122,275,41041,1,0,1:0:0:0:
122,275,41275,1,8,0:1:0:0:
213,353,41744,6,0,B|306:336,1,67.4999979400635,0|8,1:0|1:1,0:0:0:0:
366,256,42447,2,0,B|314:265|314:265|289:254|289:254|234:262,1,134.999995880127,0|8,1:0|0:1,0:0:0:0:
351,122,43619,6,0,B|334:28,1,67.4999979400635,0|8,1:0|1:1,0:0:0:0:
219,38,44322,2,0,B|242:171,1,134.999995880127,0|8,1:0|0:1,0:0:0:0:
256,230,45025,1,0,1:0:0:0:
139,195,45494,6,0,B|122:288,1,67.4999979400635,0|8,1:0|1:1,0:0:0:0:
60,363,46197,1,0,1:0:0:0:
179,338,46666,1,8,0:1:0:0:
298,313,47135,6,0,B|364:325,2,67.4999979400635,8|8|8,1:0|1:1|1:0,0:0:0:0:
259,266,47838,1,8,1:1:0:0:
359,176,48306,5,8,0:1:0:0:
320,129,48541,2,0,L|241:135,1,75,8|8,1:0|1:0,0:0:0:0:
194,102,49010,2,0,P|161:125|150:193,2,112.5,6|2|2,1:0|0:1|0:1,0:0:0:0:
326,171,50181,5,2,0:1:0:0:
279,210,50416,2,0,L|285:289,1,75,8|2,1:0|0:1,0:0:0:0:
318,334,50885,2,0,P|227:371|157:284,1,225,2|2,1:0|0:1,0:0:0:0:
51,178,52056,5,2,0:1:0:0:
90,131,52291,2,0,L|169:137,1,75,8|2,1:0|0:1,0:0:0:0:
206,93,52760,2,0,P|203:38|161:2,2,112.5,2|2|2,1:0|0:1|0:1,0:0:0:0:
347,142,53931,6,0,L|341:221,1,75,2|8,0:1|1:1,0:0:0:0:
381,261,54400,1,2,0:1:0:0:
381,261,54635,1,6,1:0:0:0:
267,376,55103,1,10,1:0:0:0:
123,304,55572,1,6,1:0:0:0:
148,145,56041,1,8,1:0:0:0:
148,145,56275,1,2,0:1:0:0:
307,118,56744,5,2,0:1:0:0:
244,254,57213,2,0,P|351:273|433:201,1,225,2|8,0:1|1:0,0:0:0:0:
348,76,58385,2,0,P|293:69|250:103,2,112.5,2|2|2,1:0|0:1|0:1,0:0:0:0:
298,217,59556,5,2,0:1:0:0:
298,217,59791,1,8,1:0:0:0:
442,172,60260,2,2,P|360:359|168:290,1,450,2|8,1:1|1:0,0:1:0:0:
145,234,61900,21,2,0:1:0:0:
145,234,62135,1,6,1:0:0:0:
307,260,62603,1,10,1:0:0:0:
207,128,63072,1,6,1:0:0:0:
369,154,63541,1,8,1:0:0:0:
369,154,63775,1,2,0:1:0:0:
128,263,66588,5,0,0:0:0:0:
128,263,66822,1,0,1:0:0:0:
63,365,67291,1,8,1:0:0:0:
128,263,67760,2,0,L|264:274,2,134.999995880127,2|0|0,1:2|1:0|1:0,0:0:0:0:
46,172,69166,1,0,1:0:0:0:
46,172,69400,1,0,0:0:0:0:
265,72,70338,5,2,0:0:0:0:
265,72,70572,1,0,1:0:0:0:
309,185,71041,1,8,1:0:0:0:
188,168,71510,1,0,1:0:0:0:
232,281,71978,1,8,1:0:0:0:
309,185,72447,2,0,P|345:157|450:241,1,202.499993820191,0|2,1:0|0:0,0:0:0:0:
248,370,74088,6,0,P|170:307|71:301,1,202.499993820191,2|8,0:0|1:0,0:0:0:0:
150,208,75260,1,0,1:0:0:0:
87,103,75728,1,0,1:0:0:0:
184,29,76197,2,0,L|388:42,1,202.499993820191,0|0,1:0|0:0,0:0:0:0:
471,269,77838,6,0,P|499:233|415:128,1,202.499993820191,2|8,0:0|1:0,0:0:0:0:
376,169,78775,2,0,L|170:149,1,202.499993820191,2|0,0:0|1:0,0:0:0:0:
112,45,79947,1,0,1:0:0:0:
19,123,80416,1,0,1:0:0:0:
19,123,80650,2,0,P|-9:159|75:264,1,202.499993820191,2|8,0:0|1:0,0:0:0:0:
177,320,81822,1,0,1:0:0:0:
237,214,82291,1,0,1:0:0:0:
237,214,82525,1,8,0:1:0:0:
127,161,82994,6,0,B|110:254,1,67.4999979400635,0|8,1:0|1:1,0:0:0:0:
30,314,83697,2,0,B|39:262|39:262|28:237|28:237|36:182,1,134.999995880127,0|8,1:0|0:1,0:0:0:0:
194,273,84869,6,0,B|288:256,1,67.4999979400635,0|8,1:0|1:1,0:0:0:0:
361,328,85572,2,0,B|384:195,1,134.999995880127,0|8,1:0|0:1,0:0:0:0:
398,136,86275,1,0,1:0:0:0:
287,186,86744,6,0,B|270:93,1,67.4999979400635,0|8,1:0|1:1,0:0:0:0:
333,12,87447,1,0,1:0:0:0:
214,37,87916,1,8,0:1:0:0:
95,62,88385,6,0,B|29:50,2,67.4999979400635,8|8|8,1:0|1:1|1:0,0:0:0:0:
134,109,89088,1,8,1:1:0:0:
22,185,89556,5,8,0:1:0:0:
69,224,89791,2,0,L|63:303,1,75,8|8,1:0|1:0,0:0:0:0:
109,337,90260,2,0,P|163:343|206:309,2,112.5,6|2|2,1:0|0:1|0:1,0:0:0:0:
35,206,91431,5,2,0:1:0:0:
74,159,91666,2,0,L|153:165,1,75,8|2,1:0|0:1,0:0:0:0:
182,214,92135,2,0,P|273:251|343:164,1,225,2|2,1:0|0:1,0:0:0:0:
284,24,93306,5,2,0:1:0:0:
244,68,93541,2,0,L|165:62,1,75,8|2,1:0|0:1,0:0:0:0:
111,80,94010,2,0,P|76:122|83:177,2,112.5,2|2|2,1:0|0:1|0:1,0:0:0:0:
237,160,95181,6,0,L|316:166,1,75,2|8,0:1|1:1,0:0:0:0:
356,126,95650,1,2,0:1:0:0:
356,126,95885,1,6,1:0:0:0:
471,240,96353,1,10,1:0:0:0:
399,384,96822,1,6,1:0:0:0:
240,359,97291,1,8,1:0:0:0:
240,359,97525,1,2,0:1:0:0:
213,200,97994,5,2,0:1:0:0:
347,267,98463,2,0,P|366:160|294:78,1,225,2|8,0:1|1:0,0:0:0:0:
168,160,99635,2,0,P|161:215|195:258,2,112.5,2|2|2,1:0|0:1|0:1,0:0:0:0:
309,209,100806,5,2,0:1:0:0:
309,209,101041,1,8,1:0:0:0:
439,136,101510,2,2,P|247:66|165:254,1,450,2|8,1:1|1:0,0:1:0:0:
198,303,103150,21,2,0:1:0:0:
198,303,103385,1,6,1:0:0:0:
360,277,103853,1,10,1:0:0:0:
223,184,104322,1,6,1:0:0:0:
385,158,104791,1,8,1:0:0:0:
385,158,105025,1,2,0:1:0:0:
256,192,105260,12,4,109010,1:2:0:0:
156,200,109947,6,0,P|171:164|281:168,1,150,0|8,1:0|1:0,0:0:0:0:
371,91,110885,2,0,B|345:122|354:169|389:190|389:190|424:209|433:254|409:285,2,225,2|2|8,1:2|0:0|1:0,0:0:0:0:
269,155,112760,22,0,B|237:129|190:138|169:173|169:173|150:208|105:217|74:193,2,225,0|2|8,1:2|0:0|1:0,0:0:0:0:
239,271,114635,2,0,B|270:296|317:287|338:252|338:252|357:217|402:208|433:232,2,225,2|2|8,1:2|0:0|1:0,0:0:0:0:
133,327,116510,38,0,B|166:285|154:223|108:195|108:195|62:169|50:108|82:67,1,300,4|0,1:2|1:0,0:0:0:0:
193,113,117916,1,8,1:0:0:0:
277,28,118385,2,0,L|427:44,1,150,0|8,1:0|1:0,0:0:0:0:
494,142,119322,2,0,L|344:158,1,150,2|8,1:0|1:1,0:0:0:0:
394,267,120260,5,10,0:1:0:0:
394,267,120494,1,14,0:1:0:0:
274,280,120963,1,10,0:1:0:0:
274,280,121197,1,14,0:1:0:0:
154,293,121666,1,10,0:1:0:0:
154,293,121900,1,14,0:1:0:0:
34,306,122369,1,10,0:1:0:0:
34,306,122603,2,0,P|2:201|204:151,1,375,2|8,1:0|0:1,0:0:0:0:
324,127,124244,22,0,B|318:194,1,67.4999979400635,0|8,1:0|1:0,0:0:0:0:
372,303,124947,2,0,B|347:285|347:285|243:294,1,134.999995880127,0|8,1:0|0:1,0:0:0:0:
87,198,126119,6,0,B|92:130,1,67.4999979400635,0|8,1:0|1:0,0:0:0:0:
207,89,126822,2,0,B|218:223,1,134.999995880127,0|8,1:0|0:1,0:0:0:0:
225,284,127525,1,0,1:0:0:0:
338,240,127994,6,0,B|343:172,1,67.4999979400635,0|8,1:0|1:0,0:0:0:0:
458,136,128697,2,0,B|440:111|440:111|449:7,1,134.999995880127,0|8,1:0|0:1,0:0:0:0:
287,91,129869,6,0,B|219:85,1,67.4999979400635,0|8,1:0|1:0,0:0:0:0:
312,180,130572,2,0,B|177:168,1,134.999995880127,4|4,1:2|1:2,0:0:0:0:
282,318,131744,6,0,B|375:301,1,67.4999979400635,0|8,1:0|1:1,0:0:0:0:
435,221,132447,2,0,B|383:230|383:230|358:219|358:219|303:227,1,134.999995880127,0|8,1:0|0:1,0:0:0:0:
153,123,133619,6,0,B|136:217,1,67.4999979400635,0|8,1:0|1:1,0:0:0:0:
21,207,134322,2,0,B|44:74,1,134.999995880127,0|8,1:0|0:1,0:0:0:0:
58,20,135025,1,0,1:0:0:0:
159,86,135494,6,0,B|252:69,1,67.4999979400635,0|8,1:0|1:1,0:0:0:0:
327,11,136197,1,0,1:0:0:0:
302,126,136666,1,8,0:1:0:0:
277,244,137135,6,0,P|406:167|446:358,1,404.999987640381,2|8,1:0|1:0,0:0:0:0:
344,378,139010,22,0,L|164:361,2,180,2|2|2,1:2|0:0|1:2,0:0:0:0:
317,285,140885,2,0,L|137:268,2,180,2|2|2,1:2|0:0|1:2,0:0:0:0:
284,194,142760,6,0,L|464:177,2,180,2|2|2,1:2|0:0|1:2,0:0:0:0:
311,101,144635,2,0,L|491:84,2,180,2|2|8,1:2|0:0|1:0,0:0:0:0:
203,113,146510,22,0,P|191:47|246:-4,2,134.999995880127,0|0|0,1:0|1:0|1:0,0:0:0:0:
272,195,147916,1,0,1:0:0:0:
211,284,148385,2,0,L|77:273,2,134.999995880127,0|0|0,1:0|1:0|1:0,0:0:0:0:
272,195,149791,1,8,1:0:0:0:
352,266,150260,6,0,P|418:278|469:223,2,134.999995880127,0|0|0,1:0|1:0|1:0,0:0:0:0:
271,338,151666,1,0,1:0:0:0:
166,310,152135,2,0,P|123:260|135:196,1,134.999995880127,2|2,1:0|1:0,0:0:0:0:
222,132,153072,2,0,P|264:181|252:245,2,134.999995880127,2|10|0,1:0|1:0|1:0,0:0:0:0:
117,103,154478,5,0,1:0:0:0:
38,176,154947,2,0,L|49:310,1,134.999995880127,0|0,1:0|1:0,0:0:0:0:
144,258,155885,2,0,L|278:269,2,134.999995880127,0|0|0,1:0|1:0|1:0,0:0:0:0:
50,311,157291,1,8,1:0:0:0:
4,213,157760,6,0,P|28:107|174:90,1,269.999991760254,0|0,1:0|1:0,0:0:0:0:
257,151,159166,1,0,1:0:0:0:
214,250,159635,2,0,P|166:243|110:302,2,134.999995880127,2|2|2,0:1|0:1|0:1,0:0:0:0:
319,316,161041,5,8,0:1:0:0:
319,316,161275,1,2,0:0:0:0:
371,287,161510,2,0,P|368:232|326:196,2,112.5,6|2|2,1:0|0:1|0:1,0:0:0:0:
239,357,162681,5,2,0:1:0:0:
179,352,162916,2,0,L|100:346,1,75,8|2,1:0|0:1,0:0:0:0:
48,322,163385,2,0,P|11:231|98:161,1,225,2|2,1:0|0:1,0:0:0:0:
244,190,164556,5,2,0:1:0:0:
240,129,164791,2,0,L|234:50,1,75,8|2,1:0|0:1,0:0:0:0:
283,19,165260,2,0,P|337:21|373:63,2,112.5,2|2|2,1:0|0:1|0:1,0:0:0:0:
171,118,166431,6,0,L|177:197,1,75,2|8,0:1|1:1,0:0:0:0:
137,237,166900,1,2,0:1:0:0:
137,237,167135,1,6,1:0:0:0:
303,270,167603,1,10,1:0:0:0:
336,104,168072,1,6,1:0:0:0:
170,71,168541,1,8,1:0:0:0:
170,71,168775,1,2,0:1:0:0:
137,237,169244,5,2,0:1:0:0:
269,166,169713,2,0,P|340:247|321:354,1,225,2|8,0:1|1:0,0:0:0:0:
189,281,170885,2,0,P|134:283|98:325,2,112.5,2|2|2,1:0|0:1|0:1,0:0:0:0:
313,195,172056,5,2,0:1:0:0:
313,195,172291,1,8,1:0:0:0:
182,122,172760,2,2,P|374:52|457:240,1,450,2|8,1:1|1:0,0:1:0:0:
431,294,174400,21,2,0:1:0:0:
431,294,174635,1,6,1:1:0:0:
272,249,175103,1,10,1:0:0:0:
179,380,175572,1,6,1:1:0:0:
20,335,176041,1,8,1:0:0:0:
20,335,176275,1,2,0:1:0:0:
63,293,176510,6,0,B|89:262|80:215|45:194|45:194|10:175|1:130|25:99,2,225,4|2|8,1:2|0:0|1:0,0:0:0:0:
180,266,178385,2,0,B|206:235|197:188|162:167|162:167|127:148|118:103|142:72,2,225,0|2|8,1:2|0:0|1:0,0:0:0:0:
290,311,180260,6,2,P|477:228|407:36,1,450,2|8,1:1|1:0,0:1:0:0:
348,24,181900,21,2,0:1:0:0:
348,24,182135,1,6,1:0:0:0:
321,186,182603,1,10,1:0:0:0:
167,126,183072,1,6,1:0:0:0:
140,288,183541,1,8,1:0:0:0:
140,288,183775,1,2,0:1:0:0:
181,331,184010,6,0,B|212:357|259:348|280:313|280:313|299:278|344:269|375:293,2,225,4|2|8,1:2|0:0|1:0,0:0:0:0:
126,223,185885,2,0,B|157:249|204:240|225:205|225:205|244:170|289:161|320:185,2,225,0|2|8,1:2|0:0|1:0,0:0:0:0:
63,325,187760,6,2,P|-6:132|180:50,1,450,2|8,1:1|1:0,0:1:0:0:
231,81,189400,21,2,0:1:0:0:
231,81,189635,1,6,1:0:0:0:
204,243,190103,1,10,1:0:0:0:
362,197,190572,1,6,1:0:0:0:
335,359,191041,1,8,1:0:0:0:
335,359,191275,1,2,0:1:0:0:
375,314,191510,37,10,0:1:0:0:
375,314,191744,1,14,0:1:0:0:
255,327,192213,1,10,0:1:0:0:
255,327,192447,1,14,0:1:0:0:
185,229,192916,1,10,0:1:0:0:
185,229,193150,1,14,0:1:0:0:
305,216,193619,1,10,0:1:0:0:
305,216,193853,2,0,P|360:194|347:99,1,150,2|0,1:0|1:0,0:0:0:0:
250,65,194791,1,4,1:2:0:0:
250,65,195025,1,12,1:1:0:0:
256,192,195142,12,0,197135,0:0:0:0:
