osu file format v14

[General]
AudioFilename: audio.mp3
AudioLeadIn: 0
PreviewTime: 48248
Countdown: 0
SampleSet: Soft
StackLeniency: 0.7
Mode: 0
LetterboxInBreaks: 0
WidescreenStoryboard: 1

[Editor]
Bookmarks: 4010,19010,26510,41510,49010,64010,82760,90260,105260,109010,124010,139010,146510,161510,176510,191510,195026
DistanceSpacing: 0.8
BeatDivisor: 4
GridSize: 4
TimelineZoom: 1

[Metadata]
Title:Shut Up and osu! With Me (2020 ver.)
TitleUnicode:Shut Up and osu! With Me (2020 ver.)
Artist:yomegA
ArtistUnicode:yomegA
Creator:Sonnyc
Version:Easy
Source:
Tags:pippi WALK THE MOON Dance Cover English Pop Satya Rizqy BeyondTheRevolution
BeatmapID:2290338
BeatmapSetID:1095376

[Difficulty]
HPDrainRate:3
CircleSize:3
OverallDifficulty:2
ApproachRate:3
SliderMultiplier:1.2
SliderTickRate:1

[Events]
//Background and Video events
0,0,"bg.jpg",0,0
//Break Periods
2,19210,24601
2,139210,145070
//Storyboard Layer 0 (Background)
//Storyboard Layer 1 (Fail)
//Storyboard Layer 2 (Pass)
//Storyboard Layer 3 (Foreground)
//Storyboard Layer 4 (Overlay)
//Storyboard Sound Samples

[TimingPoints]
260,468.75,4,2,1,40,1,0
4010,-111.111111111111,4,2,1,50,0,0
16900,-111.111111111111,4,2,1,70,0,0
19010,-125,4,2,1,50,0,0
25806,-111.111111111111,4,2,1,50,0,0
41744,-111.111111111111,4,2,1,60,0,0
47369,-111.111111111111,4,2,1,65,0,0
48306,-100,4,2,1,70,0,0
49010,-100,4,2,1,70,0,1
54635,-100,4,2,1,80,0,1
56744,-100,4,2,1,70,0,1
62135,-100,4,2,1,80,0,1
64010,-111.111111111111,4,2,1,60,0,0
88619,-111.111111111111,4,2,1,65,0,0
89556,-100,4,2,1,70,0,0
90260,-100,4,2,1,70,0,1
95885,-100,4,2,1,80,0,1
97291,-100,4,2,1,80,0,1
103385,-100,4,2,1,80,0,1
105260,-100,4,2,1,60,0,0
120963,-100,4,2,1,65,0,0
121666,-100,4,2,1,70,0,0
122369,-100,4,2,1,80,0,0
124010,-111.111111111111,4,2,1,60,0,0
139010,-125,4,2,1,40,0,0
146510,-111.111111111111,4,2,1,50,0,0
159635,-111.111111111111,4,2,1,40,0,0
161041,-111.111111111111,4,2,1,70,0,0
161510,-100,4,2,1,70,0,1
167135,-100,4,2,1,80,0,1
169244,-100,4,2,1,70,0,1
174635,-100,4,2,1,80,0,1
176510,-100,4,2,1,60,0,0
182135,-100,4,2,1,80,0,0
184010,-100,4,2,1,60,0,0
189635,-100,4,2,1,80,0,0
191510,-100,4,2,1,60,0,0
192213,-100,4,2,1,65,0,0
192916,-100,4,2,1,70,0,0
193619,-100,4,2,1,80,0,0

[Colours]
Combo1 : 255,150,0
Combo2 : 149,198,47
Combo3 : 104,143,249
Combo4 : 218,27,80

[HitObjects]
123,279,4010,6,0,P|178:354|287:312,1,215.999993408203,0|0,1:0|1:0,0:0:0:0:
445,377,5885,2,0,P|482:290|391:217,1,215.999993408203,0|0,1:0|1:0,0:0:0:0:
369,48,7760,2,0,P|275:58|257:173,1,215.999993408203,0|0,1:0|1:0,0:0:0:0:
366,294,9635,5,2,1:0:0:0:
366,294,10572,1,2,1:0:0:0:
213,213,11510,6,0,P|158:288|49:246,1,215.999993408203,0|0,1:0|1:0,0:0:0:0:
9,87,13385,2,0,P|64:12|173:54,1,215.999993408203,0|0,1:0|1:0,0:0:0:0:
262,188,15260,6,2,P|413:83|455:262,1,431.999986816407,2|2,1:0|1:0,0:1:0:0:
312,359,18072,1,2,1:0:0:0:
312,359,19010,1,0,1:0:0:0:
120,225,26041,5,8,1:0:0:0:
186,280,26510,2,0,L|403:255,2,215.999993408203,0|0|0,1:0|1:0|1:0,0:0:0:0:
248,119,29322,5,0,1:0:0:0:
168,85,29791,1,8,1:0:0:0:
113,151,30260,2,0,L|138:368,2,215.999993408203,0|0|0,1:0|1:0|1:0,0:0:0:0:
235,273,33072,5,0,1:0:0:0:
291,207,33541,1,8,1:0:0:0:
375,225,34010,2,0,L|350:8,2,215.999993408203,0|0|0,1:0|1:0|1:0,0:0:0:0:
252,347,36822,6,0,L|143:334,1,107.999996704102,0|8,1:0|1:0,0:0:0:0:
63,364,37760,2,0,L|38:147,1,215.999993408203,0|0,1:0|1:0,0:0:0:0:
137,7,39635,2,0,L|526:51,1,377.999988464356,0|8,1:0|0:1,0:0:0:0:
429,148,41978,38,0,B|439:233|439:233|416:264|416:264|428:357,1,215.999993408203,8|8,0:1|0:1,0:0:0:0:
257,324,43853,2,0,B|245:232|245:232|268:201|268:201|258:116,1,215.999993408203,8|8,0:1|0:1,0:0:0:0:
87,144,45728,6,0,B|72:16,2,107.999996704102,8|0|8,0:1|1:1|0:1,0:0:0:0:
33,212,47135,2,2,P|78:272|214:275,1,215.999993408203,2|0,1:0|1:0,0:1:0:0:
278,209,48541,5,8,0:1:0:0:
218,133,49010,2,0,P|210:81|309:36,1,180,6|2,1:0|0:1,0:0:0:0:
278,209,50416,1,8,0:1:0:0:
373,195,50885,2,0,P|422:214|411:322,1,180,2|2,1:0|0:1,0:0:0:0:
278,209,52291,1,8,0:1:0:0:
242,298,52760,2,0,P|200:330|112:267,1,180,2|2,1:0|0:1,0:0:0:0:
186,102,54166,5,8,1:0:0:0:
186,102,54635,1,6,1:0:0:0:
154,325,55572,1,6,1:0:0:0:
186,102,56510,1,4,1:0:0:0:
274,138,56978,6,0,P|326:212|238:318,1,240,8|8,1:0|1:0,0:0:0:0:
156,282,58385,2,0,P|104:208|192:102,1,240,2|0,1:0|1:0,0:0:0:0:
419,147,60260,6,2,P|330:203|298:26,1,360,2|8,1:0|1:0,0:1:0:0:
392,8,62135,1,6,1:0:0:0:
360,230,63072,1,6,1:0:0:0:
392,8,64010,1,0,1:0:0:0:
160,156,66822,6,0,L|172:264,1,107.999996704102,0|8,1:0|1:0,0:0:0:0:
96,306,67760,2,0,L|313:331,2,215.999993408203,0|0|0,1:0|1:0|1:0,0:0:0:0:
237,206,70572,5,0,1:0:0:0:
203,126,71041,1,8,1:0:0:0:
269,71,71510,2,0,L|486:96,2,215.999993408203,0|0|0,1:0|1:0|1:0,0:0:0:0:
101,112,74322,5,0,1:0:0:0:
181,78,74791,1,8,1:0:0:0:
236,144,75260,2,0,L|211:361,2,215.999993408203,0|0|0,1:0|1:0|1:0,0:0:0:0:
320,294,78072,6,0,L|429:281,1,107.999996704102,0|8,1:0|1:0,0:0:0:0:
470,356,79010,2,0,L|495:139,1,215.999993408203,0|0,1:0|1:0,0:0:0:0:
376,15,80885,2,0,L|-13:59,1,377.999988464356,0|8,1:0|0:1,0:0:0:0:
57,173,83228,38,0,B|142:183|142:183|173:160|173:160|266:172,1,215.999993408203,8|8,0:1|0:1,0:0:0:0:
378,301,85103,2,0,B|293:291|293:291|262:314|262:314|169:302,1,215.999993408203,8|8,0:1|0:1,0:0:0:0:
218,136,86978,6,0,B|110:123,2,107.999996704102,8|0|8,0:1|1:1|0:1,0:0:0:0:
286,83,88385,2,2,P|346:128|349:264,1,215.999993408203,2|0,1:0|1:0,0:1:0:0:
274,317,89791,5,8,0:1:0:0:
198,257,90260,2,0,P|146:249|101:348,1,180,6|2,1:0|0:1,0:0:0:0:
46,177,91666,1,8,0:1:0:0:
136,141,92135,2,0,P|168:99|105:11,1,180,2|2,1:0|0:1,0:0:0:0:
281,49,93541,1,8,0:1:0:0:
267,145,94010,2,0,P|286:194|394:183,1,180,2|2,1:0|0:1,0:0:0:0:
274,317,95416,5,8,1:0:0:0:
274,317,95885,1,6,1:0:0:0:
497,285,96822,1,6,1:0:0:0:
274,317,97760,1,4,1:0:0:0:
181,293,98228,6,0,P|129:219|217:113,1,240,8|8,1:0|1:0,0:0:0:0:
304,102,99635,2,0,P|356:176|268:282,1,240,2|0,1:0|1:0,0:0:0:0:
42,224,101510,6,2,P|131:168|163:345,1,360,2|8,1:0|1:0,0:1:0:0:
71,372,103385,1,6,1:0:0:0:
294,340,104322,1,6,1:0:0:0:
71,372,105260,1,4,1:0:0:0:
256,192,105494,12,4,109010,1:2:0:0:
71,334,110885,6,0,B|109:366|163:371|205:344|225:306|225:306|249:262|298:240|346:251|379:280,1,360,0|8,1:2|1:0,0:0:0:0:
446,349,112760,21,0,1:0:0:0:
420,158,113697,1,0,1:0:0:0:
278,287,114635,2,0,P|219:293|174:256,1,120,0|8,1:0|1:0,0:0:0:0:
84,222,115572,2,0,P|87:163|132:125,1,120,8|8,1:0|1:0,0:0:0:0:
181,42,116510,37,4,1:2:0:0:
366,89,117447,1,0,1:0:0:0:
378,279,118385,1,2,1:2:0:0:
202,350,119322,1,2,1:0:0:0:
79,203,120260,6,0,L|317:180,1,240,14|10,1:0|1:0,0:0:0:0:
351,89,121666,2,0,L|113:112,1,240,10|10,1:0|1:0,0:0:0:0:
79,203,123072,2,0,L|263:185,1,180,8|8,1:0|1:0,0:0:0:0:
355,271,124478,22,0,B|395:237|395:237|365:76,1,215.999993408203,8|8,0:1|0:1,0:0:0:0:
200,25,126353,2,0,B|159:58|159:58|189:219,1,215.999993408203,8|8,0:1|0:1,0:0:0:0:
69,343,128228,6,0,L|288:321,1,215.999993408203,8|8,0:1|0:1,0:0:0:0:
247,152,130103,2,0,L|354:162,2,107.999996704102,8|4|4,0:1|1:2|1:2,0:0:0:0:
80,104,131978,6,0,B|70:189|70:189|93:220|93:220|81:313,1,215.999993408203,8|8,0:1|0:1,0:0:0:0:
249,273,133853,2,0,B|260:181|260:181|237:150|237:150|247:65,1,215.999993408203,8|8,0:1|0:1,0:0:0:0:
406,131,135728,6,0,B|419:23,2,107.999996704102,8|0|8,0:1|1:1|0:1,0:0:0:0:
459,199,137135,2,2,P|318:255|104:100,1,431.999986816407,2|0,1:0|1:0,0:1:0:0:
149,359,146510,6,0,P|84:291|144:191,1,215.999993408203,0|0,1:0|1:0,0:0:0:0:
308,179,148385,2,0,P|281:269|165:267,1,215.999993408203,0|0,1:0|1:0,0:0:0:0:
73,131,150260,2,0,P|163:108|219:211,1,215.999993408203,0|0,1:0|1:0,0:0:0:0:
149,359,152135,5,2,1:0:0:0:
149,359,153072,1,2,1:0:0:0:
288,258,154010,6,0,P|343:333|452:291,1,215.999993408203,0|0,1:0|1:0,0:0:0:0:
492,132,155885,2,0,P|437:57|328:99,1,215.999993408203,0|0,1:0|1:0,0:0:0:0:
237,234,157760,6,2,P|86:129|44:308,1,431.999986816407,2|2,1:0|0:1,0:1:0:0:
44,308,161041,5,8,0:1:0:0:
137,285,161510,2,0,P|147:336|255:345,1,180,6|2,1:0|0:1,0:0:0:0:
432,381,162916,1,8,0:1:0:0:
365,312,163385,2,0,P|404:277|357:179,1,180,2|2,1:0|0:1,0:0:0:0:
301,8,164791,1,8,0:1:0:0:
275,100,165260,2,0,P|225:83|163:172,1,180,2|2,1:0|0:1,0:0:0:0:
272,316,166666,5,8,1:0:0:0:
272,316,167135,1,6,1:0:0:0:
240,93,168072,1,6,1:0:0:0:
272,316,169010,1,4,1:0:0:0:
189,267,169478,6,0,P|115:319|9:231,1,240,8|8,1:0|1:0,0:0:0:0:
44,149,170885,2,0,P|118:97|224:185,1,240,2|0,1:0|1:0,0:0:0:0:
456,122,172760,6,2,P|367:66|335:243,1,360,2|8,1:0|1:0,0:1:0:0:
427,266,174635,1,6,1:0:0:0:
395,43,175572,1,6,1:0:0:0:
427,266,176510,6,0,B|389:298|335:303|293:276|273:238|273:238|249:194|200:172|152:183|119:212,1,360,4|8,1:2|1:0,0:0:0:0:
188,280,178385,1,0,1:0:0:0:
250,98,179322,1,0,1:0:0:0:
62,139,180260,38,2,P|151:83|183:260,1,360,2|8,1:0|1:0,0:1:0:0:
91,283,182135,1,6,1:0:0:0:
138,61,183072,1,6,1:0:0:0:
91,283,184010,6,0,B|129:315|183:320|225:293|245:255|245:255|269:211|318:189|366:200|399:229,1,360,4|8,1:2|1:0,0:0:0:0:
330,297,185885,1,0,1:0:0:0:
268,115,186822,1,0,1:0:0:0:
197,293,187760,38,2,P|108:349|76:172,1,360,2|8,1:0|1:0,0:1:0:0:
168,149,189635,1,6,1:0:0:0:
122,375,190572,1,6,1:0:0:0:
168,149,191510,38,0,L|406:172,1,240,14|10,1:0|1:0,0:0:0:0:
440,263,192916,2,0,L|202:240,1,240,10|10,1:0|1:0,0:0:0:0:
168,149,194322,2,0,L|352:167,1,180,8|12,1:0|1:0,0:0:0:0:
