osu file format v14

[General]
AudioFilename: audio.mp3
AudioLeadIn: 0
PreviewTime: 87743
Countdown: 0
SampleSet: Normal
StackLeniency: 0.7
Mode: 1
LetterboxInBreaks: 0
WidescreenStoryboard: 1

[Editor]
DistanceSpacing: 1
BeatDivisor: 1
GridSize: 32
TimelineZoom: 2

[Metadata]
Title:Ocean's Sahara
TitleUnicode:Ocean's Sahara
Artist:yoho
ArtistUnicode:yoho
Creator:Antti
Version:Kantan
Source:Shooter's Festival 2020
Tags:yoho114 SFES2020 K-Shoot MANIA KSM electronic instrumental AfterWorld Animism
BeatmapID:3985562
BeatmapSetID:1897914

[Difficulty]
HPDrainRate:8.6
CircleSize:2
OverallDifficulty:3.6
ApproachRate:10
SliderMultiplier:1.1
SliderTickRate:1

[Events]
//Background and Video events
0,0,"waterr.jpg",0,-20
//Break Periods
//Storyboard Layer 0 (Background)
//Storyboard Layer 1 (Fail)
//Storyboard Layer 2 (Pass)
//Storyboard Layer 3 (Foreground)
//Storyboard Layer 4 (Overlay)
//Storyboard Sound Samples

[TimingPoints]
528,209.059233449477,4,1,0,25,1,8
1416,-100,4,1,0,30,0,8
1521,-100,4,1,0,35,0,8
1625,-100,4,1,0,40,0,8
1730,-100,4,1,0,45,0,8
1834,-100,4,1,0,52,0,8
1939,-100,4,1,0,64,0,8
2043,-100,4,1,0,75,0,8
2148,-100,4,1,0,90,0,8
2200,209.059233449477,4,1,0,90,1,0
4708,-100,4,1,0,95,0,0
5544,209.059233449477,4,1,0,95,1,8
5700,209.059233449477,4,1,0,90,1,0
11553,209.059233449477,4,1,0,90,1,8
11658,209.059233449477,4,1,0,90,1,0
12493,209.059233449477,4,1,0,90,1,0
31674,-100,4,1,0,95,0,0
32458,-100,4,1,0,90,0,0
37632,-100,4,1,0,100,0,0
38625,-100,4,1,0,80,0,0
39148,-100,4,1,0,95,0,0
45890,209.059233449477,4,1,0,90,1,0
46725,209.059233449477,4,1,0,96,1,8
46778,209.059233449477,4,1,0,100,1,0
46778,-100,4,1,0,100,0,1
53258,-100,4,1,0,100,0,0
53467,-100,4,1,0,100,0,1
59321,209.059233449477,4,1,0,100,1,9
59530,209.059233449477,4,1,0,100,1,1
59948,-100,4,1,0,95,0,1
60314,-100,4,1,0,85,0,1
60366,209.059233449477,4,1,0,100,1,9
60419,213.523131672598,4,1,0,85,1,0
60419,-97.9096294120527,4,1,0,85,0,8
63784,230.769230769231,4,1,0,85,1,0
63784,-90.592338913912,4,1,0,85,0,0
68033,-100,4,1,0,90,0,0
68163,209.059233449477,4,1,0,90,1,8
68581,209.059233449477,4,1,0,95,1,0
75270,202.020202020202,4,1,0,100,1,1
75270,-103.484320557491,4,1,0,100,0,1
81532,-103.484320557491,4,1,0,100,0,0
81734,-103.484320557491,4,1,0,100,0,1
82135,-103.484320557491,4,1,0,100,0,1
86583,195.439739413681,4,1,0,100,1,1
86583,-106.968641114982,4,1,0,100,0,1
87755,-107.52688172043,4,1,0,100,0,0
88146,202.020202020202,4,1,0,100,1,1
88146,-103.484320557491,4,1,0,100,0,1
94408,-100,4,1,0,100,0,0
94610,-103.484320557491,4,1,0,100,0,1
94708,-103.484320557491,4,1,0,100,0,1
99358,-103.484320557491,4,1,0,100,0,0
99459,209.059233449477,4,1,0,95,1,0
101131,-100,4,1,0,100,0,1
107716,-100,4,1,0,100,0,0
107821,-100,4,1,0,90,0,0
107925,-100,4,1,0,95,0,0
108030,-100,4,1,0,100,0,1
109284,-100,4,1,0,100,0,0
109389,-100,4,1,0,90,0,0
109598,-100,4,1,0,95,0,0
109702,-100,4,1,0,100,0,1
110957,-100,4,1,0,100,0,0
111061,-100,4,1,0,90,0,0
111270,-100,4,1,0,95,0,0
111375,-100,4,1,0,100,0,1
114302,-100,4,1,0,100,0,0
114511,-100,4,1,0,100,0,1
122037,209.059233449477,4,1,0,100,1,9
122141,209.059233449477,4,1,0,100,1,1
122977,209.059233449477,4,1,0,90,1,9
123029,209.059233449477,4,1,0,90,1,0
129614,-100,4,1,0,80,0,0
129718,-100,4,1,0,70,0,0
130084,-100,4,1,0,65,0,0
130502,-100,4,1,0,60,0,0
130920,-100,4,1,0,55,0,0
131339,-100,4,1,0,50,0,0
131757,-100,4,1,0,45,0,0
132175,-100,4,1,0,40,0,0
132593,-100,4,1,0,35,0,0
133011,-100,4,1,0,30,0,0
133429,-100,4,1,0,25,0,0
133795,-100,4,1,0,20,0,0

[HitObjects]
256,192,1364,5,0,0:0:0:0:
256,192,1782,1,0,0:0:0:0:
256,192,2200,1,12,0:0:0:0:
256,192,2827,1,12,0:0:0:0:
256,192,3454,1,0,0:0:0:0:
256,192,4186,1,12,0:0:0:0:
256,192,5700,1,8,0:0:0:0:
256,192,6327,1,8,0:0:0:0:
256,192,6954,1,0,0:0:0:0:
256,192,7372,1,8,0:0:0:0:
256,192,7999,1,8,0:0:0:0:
256,192,9044,1,4,0:0:0:0:
256,192,9672,1,12,0:0:0:0:
256,192,10299,1,0,0:0:0:0:
256,192,10874,1,4,0:0:0:0:
256,192,11658,1,4,0:0:0:0:
256,192,12493,1,8,0:0:0:0:
256,192,13329,1,8,0:0:0:0:
256,192,14165,1,8,0:0:0:0:
256,192,14583,1,8,0:0:0:0:
256,192,15001,1,0,0:0:0:0:
256,192,15837,1,8,0:0:0:0:
256,192,16674,1,8,0:0:0:0:
256,192,17510,1,0,0:0:0:0:
256,192,18346,1,8,0:0:0:0:
256,192,18764,1,0,0:0:0:0:
256,192,19182,1,8,0:0:0:0:
256,192,20019,1,8,0:0:0:0:
256,192,20855,1,8,0:0:0:0:
256,192,21273,1,0,0:0:0:0:
256,192,21691,1,8,0:0:0:0:
256,192,22527,1,8,0:0:0:0:
256,192,23364,1,8,0:0:0:0:
256,192,24409,1,8,0:0:0:0:
256,192,25036,1,8,0:0:0:0:
256,192,25872,1,0,0:0:0:0:
256,192,26290,1,8,0:0:0:0:
256,192,26709,1,8,0:0:0:0:
256,192,27545,1,8,0:0:0:0:
256,192,28381,1,0,0:0:0:0:
256,192,29217,1,8,0:0:0:0:
256,192,29635,1,0,0:0:0:0:
256,192,30053,1,8,0:0:0:0:
256,192,30890,1,8,0:0:0:0:
256,192,31726,1,12,0:0:0:0:
256,192,32562,1,0,0:0:0:0:
256,192,32980,1,8,0:0:0:0:
256,192,33398,1,8,0:0:0:0:
256,192,34235,1,8,0:0:0:0:
256,192,35071,1,0,0:0:0:0:
256,192,35907,1,8,0:0:0:0:
256,192,36325,1,0,0:0:0:0:
256,192,36743,1,8,0:0:0:0:
256,192,37789,1,12,0:0:0:0:
256,192,38416,1,12,0:0:0:0:
256,192,39252,1,12,0:0:0:0:
256,192,39879,1,12,0:0:0:0:
256,192,40506,1,0,0:0:0:0:
256,192,40925,1,12,0:0:0:0:
256,192,41552,1,4,0:0:0:0:
256,192,42597,1,8,0:0:0:0:
256,192,43224,1,8,0:0:0:0:
256,192,43851,1,0,0:0:0:0:
256,192,44374,1,12,0:0:0:0:
256,192,45628,1,12,0:0:0:0:
256,192,46778,5,8,0:0:0:0:
256,192,47196,1,0,0:0:0:0:
256,192,47614,1,8,0:0:0:0:
256,192,48450,1,8,0:0:0:0:
256,192,49286,1,8,0:0:0:0:
256,192,50122,1,8,0:0:0:0:
256,192,50541,1,0,0:0:0:0:
256,192,50959,1,8,0:0:0:0:
256,192,51795,1,0,0:0:0:0:
256,192,52631,1,8,0:0:0:0:
256,192,53467,1,8,0:0:0:0:
256,192,53886,1,0,0:0:0:0:
256,192,54304,1,8,0:0:0:0:
256,192,55140,1,0,0:0:0:0:
256,192,55976,1,0,0:0:0:0:
256,192,56812,1,8,0:0:0:0:
256,192,57230,1,0,0:0:0:0:
256,192,57649,1,8,0:0:0:0:
256,192,58589,1,12,0:0:0:0:
256,192,59530,1,12,0:0:0:0:
256,192,60419,1,8,0:0:0:0:
256,192,60846,1,0,0:0:0:0:
256,192,61273,1,8,0:0:0:0:
256,192,62020,1,0,0:0:0:0:
256,192,63784,1,8,0:0:0:0:
256,192,64245,1,0,0:0:0:0:
256,192,64707,1,8,0:0:0:0:
256,192,65514,1,0,0:0:0:0:
256,192,66971,1,8,0:0:0:0:
256,192,68163,1,4,0:0:0:0:
256,192,68581,1,8,0:0:0:0:
256,192,69208,1,8,0:0:0:0:
256,192,69835,1,0,0:0:0:0:
256,192,70253,1,8,0:0:0:0:
256,192,71089,1,0,0:0:0:0:
256,192,71925,1,8,0:0:0:0:
256,192,72553,1,0,0:0:0:0:
256,192,73180,1,8,0:0:0:0:
256,192,73598,1,8,0:0:0:0:
256,192,74434,1,0,0:0:0:0:
256,192,75270,1,8,0:0:0:0:
256,192,76482,1,0,0:0:0:0:
256,192,76886,1,8,0:0:0:0:
256,192,77694,1,8,0:0:0:0:
256,192,78098,1,8,0:0:0:0:
256,192,78502,1,0,0:0:0:0:
256,192,79714,1,0,0:0:0:0:
256,192,80118,1,8,0:0:0:0:
256,192,80926,1,8,0:0:0:0:
256,192,81330,1,0,0:0:0:0:
256,192,81734,1,8,0:0:0:0:
256,192,82946,1,0,0:0:0:0:
256,192,83350,1,8,0:0:0:0:
256,192,84158,1,8,0:0:0:0:
256,192,84562,1,8,0:0:0:0:
256,192,84966,1,0,0:0:0:0:
256,192,86179,1,8,0:0:0:0:
256,192,86583,1,0,0:0:0:0:
256,192,87364,1,8,0:0:0:0:
256,192,87755,1,0,0:0:0:0:
256,192,88146,1,8,0:0:0:0:
256,192,88550,1,0,0:0:0:0:
256,192,88954,1,8,0:0:0:0:
256,192,89762,1,8,0:0:0:0:
256,192,90570,1,0,0:0:0:0:
256,192,91378,1,8,0:0:0:0:
256,192,91782,1,0,0:0:0:0:
256,192,92186,1,8,0:0:0:0:
256,192,92994,1,8,0:0:0:0:
256,192,93802,1,0,0:0:0:0:
256,192,94610,1,8,0:0:0:0:
256,192,95014,1,0,0:0:0:0:
256,192,95418,1,8,0:0:0:0:
256,192,96226,1,8,0:0:0:0:
256,192,97034,1,0,0:0:0:0:
256,192,97842,1,8,0:0:0:0:
256,192,98247,1,0,0:0:0:0:
256,192,98651,1,8,0:0:0:0:
256,192,99563,1,8,0:0:0:0:
256,192,100190,1,8,0:0:0:0:
256,192,100817,1,0,0:0:0:0:
256,192,101131,1,8,0:0:0:0:
256,192,101758,1,8,0:0:0:0:
256,192,102385,1,0,0:0:0:0:
256,192,102803,1,8,0:0:0:0:
256,192,103431,1,8,0:0:0:0:
256,192,104476,1,8,0:0:0:0:
256,192,105103,1,8,0:0:0:0:
256,192,105730,1,0,0:0:0:0:
256,192,106148,1,8,0:0:0:0:
256,192,106776,1,8,0:0:0:0:
256,192,107403,1,0,0:0:0:0:
256,192,108239,1,8,0:0:0:0:
256,192,108657,1,0,0:0:0:0:
256,192,109075,1,8,0:0:0:0:
256,192,109911,1,8,0:0:0:0:
256,192,110330,1,8,0:0:0:0:
256,192,111584,1,8,0:0:0:0:
256,192,112002,1,0,0:0:0:0:
256,192,112420,1,0,0:0:0:0:
256,192,112838,1,8,0:0:0:0:
256,192,113675,1,0,0:0:0:0:
256,192,114511,1,12,0:0:0:0:
256,192,115347,1,8,0:0:0:0:
256,192,116183,1,12,0:0:0:0:
256,192,117019,1,0,0:0:0:0:
256,192,117856,1,8,0:0:0:0:
256,192,118483,1,8,0:0:0:0:
256,192,119110,1,0,0:0:0:0:
256,192,119737,1,12,0:0:0:0:
256,192,120364,1,12,0:0:0:0:
256,192,121201,1,12,0:0:0:0:
256,192,122141,1,12,0:0:0:0:
256,192,123029,1,8,0:0:0:0:
256,192,123447,1,0,0:0:0:0:
256,192,123865,1,8,0:0:0:0:
256,192,124701,1,8,0:0:0:0:
256,192,125537,1,0,0:0:0:0:
256,192,126373,1,8,0:0:0:0:
256,192,126792,1,0,0:0:0:0:
256,192,127210,1,8,0:0:0:0:
256,192,128046,1,8,0:0:0:0:
256,192,128882,1,0,0:0:0:0:
256,192,129718,8,0,133900,0:0:0:0:
