osu file format v14

[General]
AudioFilename: audio.mp3
AudioLeadIn: 0
PreviewTime: 87743
Countdown: 0
SampleSet: Normal
StackLeniency: 0.7
Mode: 1
LetterboxInBreaks: 0
WidescreenStoryboard: 1

[Editor]
DistanceSpacing: 1
BeatDivisor: 4
GridSize: 32
TimelineZoom: 3.699999

[Metadata]
Title:Ocean's Sahara
TitleUnicode:Ocean's Sahara
Artist:yoho
ArtistUnicode:yoho
Creator:Antti
Version:Inner Oni
Source:Shooter's Festival 2020
Tags:yoho114 SFES2020 K-Shoot MANIA KSM electronic instrumental AfterWorld Animism
BeatmapID:3911901
BeatmapSetID:1897914

[Difficulty]
HPDrainRate:7.4
CircleSize:2
OverallDifficulty:6.4
ApproachRate:10
SliderMultiplier:1.4
SliderTickRate:1

[Events]
//Background and Video events
0,0,"waterr.jpg",0,-20
//Break Periods
//Storyboard Layer 0 (Background)
//Storyboard Layer 1 (Fail)
//Storyboard Layer 2 (Pass)
//Storyboard Layer 3 (Foreground)
//Storyboard Layer 4 (Overlay)
//Storyboard Sound Samples

[TimingPoints]
528,209.059233449477,4,1,0,25,1,8
1361,-172.413793103448,4,1,0,25,0,8
1416,-100,4,1,0,30,0,8
1465,-161.290322580645,4,1,0,30,0,8
1521,-100,4,1,0,35,0,8
1570,-151.515151515152,4,1,0,35,0,8
1625,-100,4,1,0,40,0,8
1674,-142.857142857143,4,1,0,40,0,8
1730,-100,4,1,0,45,0,8
1779,-135.135135135135,4,1,0,45,0,8
1834,-100,4,1,0,52,0,8
1883,-128.205128205128,4,1,0,52,0,8
1939,-100,4,1,0,64,0,8
1988,-121.951219512195,4,1,0,64,0,8
2043,-100,4,1,0,75,0,8
2092,-116.279069767442,4,1,0,75,0,8
2148,-100,4,1,0,90,0,8
2200,209.059233449477,4,1,0,90,1,0
2200,-100,4,1,0,90,0,0
2304,-111.111111111111,4,1,0,90,0,0
2461,-100,4,1,0,90,0,0
2618,-111.111111111111,4,1,0,90,0,0
2774,-100,4,1,0,90,0,0
2931,-111.111111111111,4,1,0,90,0,0
3088,-100,4,1,0,90,0,0
3346,-105.263157894737,4,1,0,90,0,0
3451,-106.673471991834,4,1,0,90,0,0
3503,-107.385998715478,4,1,0,90,0,0
3555,-108.108108108108,4,1,0,90,0,0
3660,-109.596224436287,4,1,0,90,0,0
3764,-111.111111111111,4,1,0,90,0,0
3872,-112.994350282486,4,1,0,90,0,0
3924,-100,4,1,0,90,0,0
4708,-129.032258064516,4,1,0,95,0,0
4810,-125,4,1,0,95,0,0
4966,-122.311086596801,4,1,0,95,0,0
5123,-119.719260359023,4,1,0,95,0,0
5280,-117.234998678298,4,1,0,95,0,0
5437,-114.851741551211,4,1,0,95,0,0
5544,209.059233449477,4,1,0,95,1,8
5593,-112.577738291661,4,1,0,95,0,8
5647,-100,4,1,0,90,0,8
5700,209.059233449477,4,1,0,90,1,0
5700,-111.111111111111,4,1,0,90,0,0
8992,-100,4,1,0,95,0,0
9251,-110.290497291974,4,1,0,95,0,0
9355,-99.0086506282756,4,1,0,95,0,0
9564,-109.089644136779,4,1,0,95,0,0
9669,-98.0367637864201,4,1,0,95,0,0
9878,-107.910945941296,4,1,0,95,0,0
9982,-97.0867774991489,4,1,0,95,0,0
10191,-106.761081228297,4,1,0,95,0,0
10247,-111.111111111111,4,1,0,90,0,0
10296,-105.263157894737,4,1,0,90,0,0
10348,-104.43864229765,4,1,0,90,0,0
10400,-104.166666666667,4,1,0,90,0,0
10505,-102.040816326531,4,1,0,90,0,0
10609,-100,4,1,0,90,0,0
10717,-142.857142857143,4,1,0,95,0,0
10871,-125,4,1,0,95,0,0
11027,-123.462630085147,4,1,0,95,0,0
11184,-121.953118915972,4,1,0,95,0,0
11341,-120.480073857517,4,1,0,95,0,0
11498,-119.042189281642,4,1,0,95,0,0
11553,209.059233449477,4,1,0,90,1,8
11553,-166.666666666667,4,1,0,95,0,0
11658,209.059233449477,4,1,0,90,1,0
11658,-117.647058823529,4,1,0,95,0,0
12493,209.059233449477,4,1,0,90,1,0
12493,-125,4,1,0,90,0,0
24200,-125,4,1,0,90,0,0
24406,-117.647058823529,4,1,0,90,0,0
24510,-117.157157157157,4,1,0,90,0,0
24615,-116.666666666667,4,1,0,90,0,0
24667,-116.425274550374,4,1,0,90,0,0
24719,-116.184879288437,4,1,0,90,0,0
24824,-115.702479338843,4,1,0,90,0,0
24929,-115.22406867764,4,1,0,90,0,0
24981,-114.988603316828,4,1,0,90,0,0
25033,-114.754098360656,4,1,0,90,0,0
25138,-114.283482404406,4,1,0,90,0,0
25242,-113.821138211382,4,1,0,90,0,0
25347,-113.358128002479,4,1,0,90,0,0
25399,-113.130219610269,4,1,0,90,0,0
25451,-112.903225806452,4,1,0,90,0,0
25556,-112.447638445871,4,1,0,90,0,0
25660,-112,4,1,0,90,0,0
25765,-111.551658406405,4,1,0,90,0,0
25869,-111.111111111111,4,1,0,90,0,0
29214,-111.111111111111,4,1,0,90,0,0
29319,-110.533009596485,4,1,0,90,0,0
31674,-100,4,1,0,95,0,0
32458,-111.111111111111,4,1,0,90,0,0
37632,-90.9090909090909,4,1,0,100,0,0
37945,-93.0232558139535,4,1,0,100,0,0
38259,-95.2380952380952,4,1,0,100,0,0
38625,-125,4,1,0,80,0,0
39148,-100,4,1,0,95,0,0
39304,-111.111111111111,4,1,0,95,0,0
39513,-100,4,1,0,95,0,0
39618,-111.111111111111,4,1,0,95,0,0
39827,-100,4,1,0,95,0,0
39932,-111.111111111111,4,1,0,95,0,0
40141,-100,4,1,0,95,0,0
40245,-111.111111111111,4,1,0,95,0,0
40399,-105.263157894737,4,1,0,95,0,0
40503,-106.376487338554,4,1,0,95,0,0
40556,-106.952965235174,4,1,0,95,0,0
40608,-107.524671052632,4,1,0,95,0,0
40712,-108.686616791355,4,1,0,95,0,0
40817,-109.885492173548,4,1,0,95,0,0
40922,-100,4,1,0,95,0,0
40977,-111.111111111111,4,1,0,95,0,0
41186,-100,4,1,0,95,0,0
41290,-111.111111111111,4,1,0,95,0,0
41499,-100,4,1,0,95,0,0
41604,-111.111111111111,4,1,0,95,0,0
41813,-100,4,1,0,95,0,0
42071,-105.263157894737,4,1,0,95,0,0
42176,-106.387306753458,4,1,0,95,0,0
42228,-106.952965235174,4,1,0,95,0,0
42280,-107.524671052632,4,1,0,95,0,0
42385,-108.697911254287,4,1,0,95,0,0
42489,-109.885492173548,4,1,0,95,0,0
42594,-111.111111111111,4,1,0,95,0,0
42646,-110.500352360817,4,1,0,95,0,0
42699,-109.884719156242,4,1,0,95,0,0
42751,-109.287332287855,4,1,0,95,0,0
42803,-108.696405670514,4,1,0,95,0,0
42908,-107.522457656175,4,1,0,95,0,0
42960,-106.950412659437,4,1,0,95,0,0
43012,-106.384422281023,4,1,0,95,0,0
43064,-105.824390902342,4,1,0,95,0,0
43117,-105.259624744067,4,1,0,95,0,0
43221,-104.168742733765,4,1,0,95,0,0
43273,-103.631737219523,4,1,0,95,0,0
43326,-103.090072320842,4,1,0,95,0,0
43378,-102.564102564103,4,1,0,95,0,0
43430,-102.043472601848,4,1,0,95,0,0
43535,-101.008148935485,4,1,0,95,0,0
43587,-100.503156747749,4,1,0,95,0,0
43639,-100.003188877196,4,1,0,95,0,0
43692,-99.4986991560378,4,1,0,95,0,0
43744,-99.0086506282756,4,1,0,95,0,0
43848,-98.0428937660226,4,1,0,95,0,0
43901,-97.557940581739,4,1,0,95,0,0
43953,-97.0867774991486,4,1,0,95,0,0
44005,-96.6201435745756,4,1,0,95,0,0
44057,-96.1579738141232,4,1,0,95,0,0
44162,-95.2380952380952,4,1,0,95,0,0
44270,-142.857142857143,4,1,0,95,0,0
44371,-125,4,1,0,95,0,0
44528,-121.20626329016,4,1,0,95,0,0
44685,-117.636022514071,4,1,0,95,0,0
44841,-114.290922347794,4,1,0,95,0,0
44998,-111.111111111111,4,1,0,95,0,0
45106,-166.666666666667,4,1,0,95,0,0
45155,-108.103448275862,4,1,0,95,0,0
45312,-105.254322645627,4,1,0,95,0,0
45469,-102.551521099117,4,1,0,95,0,0
45625,-100,4,1,0,95,0,0
45733,-111.111111111111,4,1,0,90,0,0
45890,209.059233449477,4,1,0,90,1,0
45890,-125,4,1,0,90,0,0
46308,-111.111111111111,4,1,0,90,0,0
46725,209.059233449477,4,1,0,96,1,8
46778,209.059233449477,4,1,0,100,1,0
46778,-100,4,1,0,100,0,1
53258,-100,4,1,0,100,0,0
53467,-100,4,1,0,100,0,1
58485,-100,4,1,0,100,0,1
58587,-95.2380952380952,4,1,0,100,0,1
58744,-94.3396226415094,4,1,0,100,0,1
58901,-93.4579439252336,4,1,0,100,0,1
59057,-92.5925925925926,4,1,0,100,0,1
59214,-91.743119266055,4,1,0,100,0,1
59321,209.059233449477,4,1,0,100,1,9
59321,-125,4,1,0,100,0,1
59371,-90.9090909090909,4,1,0,100,0,1
59530,209.059233449477,4,1,0,100,1,1
59530,-90.0900900900901,4,1,0,100,0,1
59948,-111.111111111111,4,1,0,95,0,1
60314,-111.111111111111,4,1,0,85,0,1
60366,209.059233449477,4,1,0,100,1,9
60419,213.523131672598,4,1,0,85,1,0
60522,-100.669476816266,4,1,0,85,0,8
60629,-101.347978032951,4,1,0,85,0,8
60734,-102.035687358633,4,1,0,85,0,8
60842,-102.739292718416,4,1,0,85,0,8
60903,-103.091474639751,4,1,0,85,0,8
60947,-103.446079368113,4,1,0,85,0,8
61053,-104.162657943685,4,1,0,85,0,8
61174,-104.896008267666,4,1,0,85,0,8
61268,-105.632886691817,4,1,0,85,0,8
61336,-106.005221932115,4,1,0,85,0,8
61374,-106.380191274728,4,1,0,85,0,8
61480,-107.145213432737,4,1,0,85,0,8
61590,-107.91414711941,4,1,0,85,0,8
61698,-108.694197175557,4,1,0,85,0,8
61769,-109.088466447236,4,1,0,85,0,8
61800,-109.485606418122,4,1,0,85,0,8
61910,-110.296115186091,4,1,0,85,0,8
62016,-111.111111111111,4,1,0,85,0,8
63784,230.769230769231,4,1,0,85,1,0
63877,-100.667280257708,4,1,0,85,0,0
63994,-101.349394799328,4,1,0,85,0,0
64111,-102.040816326531,4,1,0,85,0,0
64227,-102.735705060467,4,1,0,85,0,0
64286,-103.092783505155,4,1,0,85,0,0
64344,-103.446237512561,4,1,0,85,0,0
64461,-104.166666666667,4,1,0,85,0,0
64578,-104.897200743272,4,1,0,85,0,0
64694,-105.631677431038,4,1,0,85,0,0
64753,-106.009207656894,4,1,0,85,0,0
64811,-106.382978723404,4,1,0,85,0,0
64928,-107.145043776404,4,1,0,85,0,0
65045,-107.918105574741,4,1,0,85,0,0
65161,-108.695652173913,4,1,0,85,0,0
65220,-109.095442927498,4,1,0,85,0,0
65278,-109.491334542952,4,1,0,85,0,0
65395,-110.298752048405,4,1,0,85,0,0
65511,-111.111111111111,4,1,0,85,0,0
66915,-106.382978723404,4,1,0,85,0,0
67265,-111.111111111111,4,1,0,85,0,0
68033,-100,4,1,0,90,0,0
68163,209.059233449477,4,1,0,90,1,8
68163,-105.263157894737,4,1,0,90,0,8
68476,-100,4,1,0,90,0,8
68581,209.059233449477,4,1,0,95,1,0
75058,-100,4,1,0,95,0,8
75166,-98.5221674876847,4,1,0,95,0,8
75270,202.020202020202,4,1,0,100,1,1
81532,-100,4,1,0,100,0,0
81734,-100,4,1,0,100,0,1
86583,195.439739413681,4,1,0,100,1,1
87654,-100,4,1,0,100,0,1
87755,-100,4,1,0,100,0,0
88146,202.020202020202,4,1,0,100,1,1
94408,-100,4,1,0,100,0,0
94610,-100,4,1,0,100,0,1
99358,-100,4,1,0,100,0,0
99459,209.059233449477,4,1,0,95,1,0
99459,-111.111111111111,4,1,0,95,0,0
99511,-95.2380952380952,4,1,0,95,0,0
99668,-94.3396226415094,4,1,0,95,0,0
100033,-93.4579439252336,4,1,0,95,0,0
100242,-123.456790123457,4,1,0,95,0,0
100347,-92.5925925925926,4,1,0,95,0,0
100661,-91.743119266055,4,1,0,95,0,0
100922,-90.9090909090909,4,1,0,95,0,0
101131,-90.9090909090909,4,1,0,100,0,1
101233,-91.0410618000829,4,1,0,100,0,1
101337,-91.1721540719408,4,1,0,100,0,1
101442,-91.3048903925348,4,1,0,100,0,1
101546,-91.436744102087,4,1,0,100,0,1
101651,-91.5702525308711,4,1,0,100,0,1
101755,-91.7028743315508,4,1,0,100,0,1
101860,-91.8371616250366,4,1,0,100,0,1
101964,-91.9705582480202,4,1,0,100,0,1
102069,-92.1056312417825,4,1,0,100,0,1
102173,-92.2398094971284,4,1,0,100,0,1
102278,-92.375675106965,4,1,0,100,0,1
102382,-92.5106418847726,4,1,0,100,0,1
102591,-92.7830693794736,4,1,0,100,0,1
102696,-92.9205412956665,4,1,0,100,0,1
102800,-93.0571061147775,4,1,0,100,0,1
102905,-93.1953918876843,4,1,0,100,0,1
103010,-93.3340892662254,4,1,0,100,0,1
103114,-93.4718732700251,4,1,0,100,0,1
103219,-93.6113954281815,4,1,0,100,0,1
103323,-93.75,4,1,0,100,0,1
103428,-93.890354316675,4,1,0,100,0,1
103532,-94.029786808699,4,1,0,100,0,1
103637,-94.1709807510797,4,1,0,100,0,1
103741,-94.311248603592,4,1,0,100,0,1
103846,-94.4532897284737,4,1,0,100,0,1
103950,-94.5944004711763,4,1,0,100,0,1
104055,-94.7372964263106,4,1,0,100,0,1
104264,-95.0230162051401,4,1,0,100,0,1
104473,-95.3104646113765,4,1,0,100,0,1
104577,-95.4541501174151,4,1,0,100,0,1
104682,-95.5996573801193,4,1,0,100,0,1
104787,-95.7456089333488,4,1,0,100,0,1
104891,-95.8906104380242,4,1,0,100,0,1
104996,-96.037452418802,4,1,0,100,0,1
105100,-96.1833399062267,4,1,0,100,0,1
105205,-96.331080488019,4,1,0,100,0,1
105309,-96.47786210332,4,1,0,100,0,1
105414,-96.6265095599348,4,1,0,100,0,1
105518,-96.7741935483871,4,1,0,100,0,1
105623,-96.9237562555196,4,1,0,100,0,1
105727,-97.0723509640899,4,1,0,100,0,1
105936,-97.3723512798143,4,1,0,100,0,1
106041,-97.5237700305086,4,1,0,100,0,1
106145,-97.674211634875,4,1,0,100,0,1
106250,-97.8265713903704,4,1,0,100,0,1
106354,-97.9779493817792,4,1,0,100,0,1
106459,-98.1312589413448,4,1,0,100,0,1
106564,-98.2850490305825,4,1,0,100,0,1
106668,-98.4378503625084,4,1,0,100,0,1
106773,-98.5926036831861,4,1,0,100,0,1
106877,-98.7463635545692,4,1,0,100,0,1
106982,-98.9020891846022,4,1,0,100,0,1
107086,-99.0568166433503,4,1,0,100,0,1
107191,-99.2135237750859,4,1,0,100,0,1
107295,-99.3692279833404,4,1,0,100,0,1
107400,-99.5269259253661,4,1,0,100,0,1
107504,-99.6836161613104,4,1,0,100,0,1
107609,-99.8423143402978,4,1,0,100,0,1
107716,-100,4,1,0,100,0,0
107821,-100,4,1,0,90,0,0
107925,-100,4,1,0,95,0,0
108030,-100,4,1,0,100,0,1
109284,-100,4,1,0,100,0,0
109389,-100,4,1,0,90,0,0
109598,-100,4,1,0,95,0,0
109702,-100,4,1,0,100,0,1
110957,-100,4,1,0,100,0,0
111061,-100,4,1,0,90,0,0
111270,-100,4,1,0,95,0,0
111375,-100,4,1,0,100,0,1
114302,-100,4,1,0,100,0,0
114511,-95.2380952380952,4,1,0,100,0,1
114615,-100,4,1,0,100,0,1
116079,-95.2380952380952,4,1,0,100,0,1
116288,-100,4,1,0,100,0,1
119633,-95.2380952380952,4,1,0,100,0,1
120783,-100,4,1,0,100,0,1
121148,-95.2380952380952,4,1,0,100,0,1
121305,-94.3396226415094,4,1,0,100,0,1
121462,-93.4579439252336,4,1,0,100,0,1
121619,-92.5925925925926,4,1,0,100,0,1
121776,-91.743119266055,4,1,0,100,0,1
121932,-90.9090909090909,4,1,0,100,0,1
122037,209.059233449477,4,1,0,100,1,9
122037,-100,4,1,0,100,0,1
122141,209.059233449477,4,1,0,100,1,1
122141,-90.0900900900901,4,1,0,100,0,1
122455,-100,4,1,0,100,0,1
122977,209.059233449477,4,1,0,90,1,9
123029,209.059233449477,4,1,0,90,1,0
123029,-105.263157894737,4,1,0,90,0,0
129614,-105.263157894737,4,1,0,80,0,0
129718,-105.263157894737,4,1,0,70,0,0
130084,-105.263157894737,4,1,0,65,0,0
130502,-105.263157894737,4,1,0,60,0,0
130920,-105.263157894737,4,1,0,55,0,0
131339,-105.263157894737,4,1,0,50,0,0
131757,-105.263157894737,4,1,0,45,0,0
132175,-105.263157894737,4,1,0,40,0,0
132593,-105.263157894737,4,1,0,35,0,0
133011,-105.263157894737,4,1,0,30,0,0
133429,-105.263157894737,4,1,0,25,0,0
133795,-105.263157894737,4,1,0,20,0,0

[HitObjects]
256,192,1364,5,0,0:0:0:0:
256,192,1468,1,0,0:0:0:0:
256,192,1573,1,0,0:0:0:0:
256,192,1677,1,0,0:0:0:0:
256,192,1782,1,0,0:0:0:0:
256,192,1886,1,0,0:0:0:0:
256,192,1991,1,0,0:0:0:0:
256,192,2095,1,0,0:0:0:0:
256,192,2200,1,12,0:0:0:0:
256,192,2409,1,0,0:0:0:0:
256,192,2513,1,12,0:0:0:0:
256,192,2722,1,0,0:0:0:0:
256,192,2827,1,12,0:0:0:0:
256,192,3036,1,0,0:0:0:0:
256,192,3140,1,12,0:0:0:0:
256,192,3349,1,0,0:0:0:0:
256,192,3454,1,8,0:0:0:0:
256,192,3558,1,8,0:0:0:0:
256,192,3663,1,0,0:0:0:0:
256,192,3767,1,8,0:0:0:0:
256,192,3977,1,12,0:0:0:0:
256,192,4186,1,12,0:0:0:0:
256,192,4813,1,4,0:0:0:0:
256,192,4970,1,4,0:0:0:0:
256,192,5126,1,4,0:0:0:0:
256,192,5283,1,4,0:0:0:0:
256,192,5440,1,4,0:0:0:0:
256,192,5596,1,4,0:0:0:0:
256,192,5700,1,8,0:0:0:0:
256,192,5804,1,0,0:0:0:0:
256,192,5909,1,0,0:0:0:0:
256,192,6013,1,8,0:0:0:0:
256,192,6118,1,0,0:0:0:0:
256,192,6222,1,0,0:0:0:0:
256,192,6327,1,8,0:0:0:0:
256,192,6431,1,0,0:0:0:0:
256,192,6536,1,0,0:0:0:0:
256,192,6640,1,8,0:0:0:0:
256,192,6745,1,0,0:0:0:0:
256,192,6849,1,8,0:0:0:0:
256,192,6954,1,8,0:0:0:0:
256,192,7058,1,8,0:0:0:0:
256,192,7163,1,0,0:0:0:0:
256,192,7372,1,8,0:0:0:0:
256,192,7477,1,0,0:0:0:0:
256,192,7581,1,0,0:0:0:0:
256,192,7686,1,8,0:0:0:0:
256,192,7790,1,0,0:0:0:0:
256,192,7895,1,0,0:0:0:0:
256,192,7999,1,8,0:0:0:0:
256,192,8104,1,0,0:0:0:0:
256,192,8208,1,0,0:0:0:0:
256,192,8313,1,8,0:0:0:0:
256,192,8417,1,0,0:0:0:0:
256,192,8522,1,8,0:0:0:0:
256,192,8626,1,8,0:0:0:0:
256,192,8731,1,8,0:0:0:0:
256,192,8835,1,0,0:0:0:0:
256,192,9044,1,4,0:0:0:0:
256,192,9254,1,0,0:0:0:0:
256,192,9358,1,12,0:0:0:0:
256,192,9567,1,8,0:0:0:0:
256,192,9672,1,4,0:0:0:0:
256,192,9881,1,0,0:0:0:0:
256,192,9985,1,12,0:0:0:0:
256,192,10194,1,8,0:0:0:0:
256,192,10299,1,0,0:0:0:0:
256,192,10403,1,0,0:0:0:0:
256,192,10508,1,0,0:0:0:0:
256,192,10612,1,8,0:0:0:0:
256,192,10874,1,4,0:0:0:0:
256,192,11031,1,4,0:0:0:0:
256,192,11187,1,4,0:0:0:0:
256,192,11344,1,4,0:0:0:0:
256,192,11501,1,4,0:0:0:0:
256,192,11658,1,4,0:0:0:0:
256,192,12493,1,8,0:0:0:0:
256,192,12702,1,0,0:0:0:0:
256,192,12806,1,8,0:0:0:0:
256,192,13015,1,8,0:0:0:0:
256,192,13120,1,0,0:0:0:0:
256,192,13224,1,8,0:0:0:0:
256,192,13329,1,8,0:0:0:0:
256,192,13433,1,0,0:0:0:0:
256,192,13538,1,8,0:0:0:0:
256,192,13747,1,0,0:0:0:0:
256,192,13851,1,0,0:0:0:0:
256,192,13956,1,8,0:0:0:0:
256,192,14165,1,8,0:0:0:0:
256,192,14374,1,0,0:0:0:0:
256,192,14479,1,8,0:0:0:0:
256,192,14688,1,0,0:0:0:0:
256,192,14897,1,0,0:0:0:0:
256,192,15001,1,8,0:0:0:0:
256,192,15106,1,8,0:0:0:0:
256,192,15210,1,8,0:0:0:0:
256,192,15315,1,0,0:0:0:0:
256,192,15419,1,8,0:0:0:0:
256,192,15628,1,8,0:0:0:0:
256,192,15733,1,0,0:0:0:0:
256,192,15837,1,8,0:0:0:0:
256,192,16047,1,0,0:0:0:0:
256,192,16151,1,8,0:0:0:0:
256,192,16360,1,8,0:0:0:0:
256,192,16465,1,0,0:0:0:0:
256,192,16569,1,8,0:0:0:0:
256,192,16674,1,0,0:0:0:0:
256,192,16778,1,0,0:0:0:0:
256,192,16883,1,8,0:0:0:0:
256,192,17092,1,0,0:0:0:0:
256,192,17196,1,0,0:0:0:0:
256,192,17301,1,8,0:0:0:0:
256,192,17510,1,8,0:0:0:0:
256,192,17719,1,0,0:0:0:0:
256,192,17824,1,8,0:0:0:0:
256,192,18033,1,8,0:0:0:0:
256,192,18242,1,0,0:0:0:0:
256,192,18346,1,8,0:0:0:0:
256,192,18503,1,8,0:0:0:0:
256,192,18660,1,0,0:0:0:0:
256,192,18764,1,8,0:0:0:0:
256,192,18921,1,8,0:0:0:0:
256,192,19078,1,0,0:0:0:0:
256,192,19182,1,8,0:0:0:0:
256,192,19391,1,0,0:0:0:0:
256,192,19496,1,8,0:0:0:0:
256,192,19705,1,8,0:0:0:0:
256,192,19810,1,0,0:0:0:0:
256,192,19914,1,8,0:0:0:0:
256,192,20019,1,0,0:0:0:0:
256,192,20123,1,0,0:0:0:0:
256,192,20228,1,8,0:0:0:0:
256,192,20437,1,0,0:0:0:0:
256,192,20541,1,0,0:0:0:0:
256,192,20646,1,8,0:0:0:0:
256,192,20855,1,8,0:0:0:0:
256,192,21064,1,0,0:0:0:0:
256,192,21168,1,8,0:0:0:0:
256,192,21378,1,8,0:0:0:0:
256,192,21587,1,8,0:0:0:0:
256,192,21691,1,0,0:0:0:0:
256,192,21796,1,0,0:0:0:0:
256,192,21900,1,8,0:0:0:0:
256,192,22005,1,0,0:0:0:0:
256,192,22109,1,8,0:0:0:0:
256,192,22318,1,0,0:0:0:0:
256,192,22423,1,0,0:0:0:0:
256,192,22527,1,8,0:0:0:0:
256,192,22736,1,0,0:0:0:0:
256,192,22841,1,8,0:0:0:0:
256,192,23050,1,8,0:0:0:0:
256,192,23155,1,0,0:0:0:0:
256,192,23259,1,8,0:0:0:0:
256,192,23364,1,0,0:0:0:0:
256,192,23468,1,0,0:0:0:0:
256,192,23573,1,8,0:0:0:0:
256,192,23782,1,0,0:0:0:0:
256,192,23886,1,0,0:0:0:0:
256,192,23991,1,8,0:0:0:0:
256,192,24409,1,8,0:0:0:0:
256,192,24513,1,0,0:0:0:0:
256,192,24618,1,8,0:0:0:0:
256,192,24722,1,8,0:0:0:0:
256,192,24827,1,8,0:0:0:0:
256,192,24932,1,0,0:0:0:0:
256,192,25036,1,8,0:0:0:0:
256,192,25245,1,8,0:0:0:0:
256,192,25350,1,0,0:0:0:0:
256,192,25454,1,8,0:0:0:0:
256,192,25559,1,0,0:0:0:0:
256,192,25663,1,8,0:0:0:0:
256,192,25768,1,8,0:0:0:0:
256,192,25872,1,0,0:0:0:0:
256,192,26081,1,8,0:0:0:0:
256,192,26186,1,0,0:0:0:0:
256,192,26290,1,0,0:0:0:0:
256,192,26395,1,0,0:0:0:0:
256,192,26499,1,8,0:0:0:0:
256,192,26709,1,8,0:0:0:0:
256,192,26813,1,8,0:0:0:0:
256,192,26918,1,0,0:0:0:0:
256,192,27022,1,0,0:0:0:0:
256,192,27127,1,8,0:0:0:0:
256,192,27231,1,0,0:0:0:0:
256,192,27336,1,8,0:0:0:0:
256,192,27545,1,8,0:0:0:0:
256,192,27649,1,8,0:0:0:0:
256,192,27754,1,0,0:0:0:0:
256,192,27858,1,8,0:0:0:0:
256,192,27963,1,0,0:0:0:0:
256,192,28067,1,0,0:0:0:0:
256,192,28172,1,8,0:0:0:0:
256,192,28381,1,8,0:0:0:0:
256,192,28486,1,8,0:0:0:0:
256,192,28590,1,8,0:0:0:0:
256,192,28695,1,0,0:0:0:0:
256,192,28799,1,8,0:0:0:0:
256,192,28904,1,8,0:0:0:0:
256,192,29008,1,0,0:0:0:0:
256,192,29217,1,8,0:0:0:0:
256,192,29322,1,8,0:0:0:0:
256,192,29426,1,0,0:0:0:0:
256,192,29531,1,8,0:0:0:0:
256,192,29635,1,0,0:0:0:0:
256,192,29740,1,0,0:0:0:0:
256,192,29844,1,8,0:0:0:0:
256,192,30053,1,8,0:0:0:0:
256,192,30158,1,8,0:0:0:0:
256,192,30263,1,8,0:0:0:0:
256,192,30367,1,0,0:0:0:0:
256,192,30576,1,8,0:0:0:0:
256,192,30785,1,0,0:0:0:0:
256,192,30890,1,8,0:0:0:0:
256,192,30994,1,8,0:0:0:0:
256,192,31099,1,0,0:0:0:0:
256,192,31203,1,8,0:0:0:0:
256,192,31412,1,8,0:0:0:0:
256,192,31621,1,0,0:0:0:0:
256,192,31726,1,12,0:0:0:0:
256,192,31935,1,12,0:0:0:0:
256,192,32144,1,12,0:0:0:0:
256,192,32353,1,12,0:0:0:0:
256,192,32562,1,0,0:0:0:0:
256,192,32667,1,8,0:0:0:0:
256,192,32771,1,0,0:0:0:0:
256,192,32876,1,8,0:0:0:0:
256,192,32980,1,0,0:0:0:0:
256,192,33085,1,0,0:0:0:0:
256,192,33189,1,8,0:0:0:0:
256,192,33398,1,8,0:0:0:0:
256,192,33503,1,8,0:0:0:0:
256,192,33607,1,8,0:0:0:0:
256,192,33712,1,0,0:0:0:0:
256,192,33817,1,8,0:0:0:0:
256,192,33921,1,0,0:0:0:0:
256,192,34026,1,8,0:0:0:0:
256,192,34235,1,8,0:0:0:0:
256,192,34339,1,8,0:0:0:0:
256,192,34444,1,0,0:0:0:0:
256,192,34548,1,8,0:0:0:0:
256,192,34653,1,0,0:0:0:0:
256,192,34757,1,0,0:0:0:0:
256,192,34862,1,8,0:0:0:0:
256,192,35071,1,8,0:0:0:0:
256,192,35175,1,8,0:0:0:0:
256,192,35280,1,8,0:0:0:0:
256,192,35384,1,0,0:0:0:0:
256,192,35489,1,8,0:0:0:0:
256,192,35594,1,8,0:0:0:0:
256,192,35698,1,0,0:0:0:0:
256,192,35907,1,8,0:0:0:0:
256,192,36012,1,0,0:0:0:0:
256,192,36116,1,8,0:0:0:0:
256,192,36221,1,8,0:0:0:0:
256,192,36325,1,0,0:0:0:0:
256,192,36430,1,0,0:0:0:0:
256,192,36534,1,8,0:0:0:0:
256,192,36743,1,0,0:0:0:0:
256,192,36848,1,8,0:0:0:0:
256,192,36952,1,0,0:0:0:0:
256,192,37057,1,8,0:0:0:0:
256,192,37266,1,0,0:0:0:0:
256,192,37475,1,8,0:0:0:0:
256,192,37789,1,12,0:0:0:0:
256,192,38102,1,12,0:0:0:0:
256,192,38416,1,12,0:0:0:0:
256,192,38834,1,8,0:0:0:0:
256,192,38938,1,8,0:0:0:0:
256,192,39043,1,0,0:0:0:0:
256,192,39252,1,12,0:0:0:0:
256,192,39461,1,0,0:0:0:0:
256,192,39566,1,12,0:0:0:0:
256,192,39775,1,0,0:0:0:0:
256,192,39879,1,12,0:0:0:0:
256,192,40088,1,0,0:0:0:0:
256,192,40193,1,12,0:0:0:0:
256,192,40402,1,0,0:0:0:0:
256,192,40506,1,8,0:0:0:0:
256,192,40611,1,8,0:0:0:0:
256,192,40715,1,8,0:0:0:0:
256,192,40820,1,8,0:0:0:0:
256,192,40925,1,4,0:0:0:0:
256,192,41134,1,8,0:0:0:0:
256,192,41238,1,4,0:0:0:0:
256,192,41447,1,8,0:0:0:0:
256,192,41552,1,4,0:0:0:0:
256,192,41761,1,8,0:0:0:0:
256,192,41865,1,4,0:0:0:0:
256,192,42074,1,8,0:0:0:0:
256,192,42179,1,0,0:0:0:0:
256,192,42283,1,0,0:0:0:0:
256,192,42388,1,0,0:0:0:0:
256,192,42597,1,8,0:0:0:0:
256,192,42702,1,8,0:0:0:0:
256,192,42806,1,0,0:0:0:0:
256,192,42911,1,8,0:0:0:0:
256,192,43120,1,0,0:0:0:0:
256,192,43224,1,8,0:0:0:0:
256,192,43329,1,8,0:0:0:0:
256,192,43433,1,0,0:0:0:0:
256,192,43538,1,8,0:0:0:0:
256,192,43747,1,8,0:0:0:0:
256,192,43851,1,0,0:0:0:0:
256,192,43956,1,0,0:0:0:0:
256,192,44060,1,8,0:0:0:0:
256,192,44165,1,0,0:0:0:0:
256,192,44374,1,12,0:0:0:0:
256,192,44531,1,12,0:0:0:0:
256,192,44688,1,12,0:0:0:0:
256,192,44844,1,12,0:0:0:0:
256,192,45001,1,12,0:0:0:0:
256,192,45158,1,12,0:0:0:0:
256,192,45315,1,12,0:0:0:0:
256,192,45472,1,12,0:0:0:0:
256,192,45628,1,12,0:0:0:0:
256,192,45890,1,8,0:0:0:0:
256,192,45994,1,0,0:0:0:0:
256,192,46099,1,8,0:0:0:0:
256,192,46360,8,0,46673,0:0:0:0:
256,192,46778,5,8,0:0:0:0:
256,192,46882,1,8,0:0:0:0:
256,192,46987,1,8,0:0:0:0:
256,192,47091,1,0,0:0:0:0:
256,192,47196,1,8,0:0:0:0:
256,192,47300,1,0,0:0:0:0:
256,192,47405,1,8,0:0:0:0:
256,192,47509,1,8,0:0:0:0:
256,192,47614,1,8,0:0:0:0:
256,192,47718,1,0,0:0:0:0:
256,192,47823,1,8,0:0:0:0:
256,192,47927,1,0,0:0:0:0:
256,192,48032,1,8,0:0:0:0:
256,192,48136,1,8,0:0:0:0:
256,192,48241,1,0,0:0:0:0:
256,192,48450,1,8,0:0:0:0:
256,192,48555,1,8,0:0:0:0:
256,192,48659,1,8,0:0:0:0:
256,192,48764,1,0,0:0:0:0:
256,192,48868,1,8,0:0:0:0:
256,192,48973,1,0,0:0:0:0:
256,192,49077,1,8,0:0:0:0:
256,192,49182,1,8,0:0:0:0:
256,192,49286,1,8,0:0:0:0:
256,192,49391,1,0,0:0:0:0:
256,192,49495,1,8,0:0:0:0:
256,192,49600,1,8,0:0:0:0:
256,192,49704,1,8,0:0:0:0:
256,192,49809,1,0,0:0:0:0:
256,192,49913,1,0,0:0:0:0:
256,192,50122,1,8,0:0:0:0:
256,192,50227,1,8,0:0:0:0:
256,192,50332,1,8,0:0:0:0:
256,192,50436,1,0,0:0:0:0:
256,192,50541,1,8,0:0:0:0:
256,192,50645,1,0,0:0:0:0:
256,192,50750,1,8,0:0:0:0:
256,192,50854,1,8,0:0:0:0:
256,192,50959,1,8,0:0:0:0:
256,192,51063,1,0,0:0:0:0:
256,192,51168,1,0,0:0:0:0:
256,192,51272,1,0,0:0:0:0:
256,192,51377,1,8,0:0:0:0:
256,192,51481,1,8,0:0:0:0:
256,192,51586,1,8,0:0:0:0:
256,192,51690,1,0,0:0:0:0:
256,192,51795,1,8,0:0:0:0:
256,192,51899,1,8,0:0:0:0:
256,192,52109,1,0,0:0:0:0:
256,192,52213,1,8,0:0:0:0:
256,192,52318,1,8,0:0:0:0:
256,192,52422,1,0,0:0:0:0:
256,192,52527,1,0,0:0:0:0:
256,192,52631,1,8,0:0:0:0:
256,192,52736,1,8,0:0:0:0:
256,192,52840,1,8,0:0:0:0:
256,192,52945,1,0,0:0:0:0:
256,192,53049,1,8,0:0:0:0:
256,192,53154,1,0,0:0:0:0:
256,192,53258,1,8,0:0:0:0:
256,192,53467,1,8,0:0:0:0:
256,192,53572,1,8,0:0:0:0:
256,192,53676,1,8,0:0:0:0:
256,192,53781,1,0,0:0:0:0:
256,192,53886,1,8,0:0:0:0:
256,192,53990,1,8,0:0:0:0:
256,192,54095,1,8,0:0:0:0:
256,192,54199,1,8,0:0:0:0:
256,192,54304,1,8,0:0:0:0:
256,192,54408,1,0,0:0:0:0:
256,192,54513,1,8,0:0:0:0:
256,192,54617,1,8,0:0:0:0:
256,192,54722,1,8,0:0:0:0:
256,192,54826,1,0,0:0:0:0:
256,192,54931,1,8,0:0:0:0:
256,192,55140,1,0,0:0:0:0:
256,192,55244,1,0,0:0:0:0:
256,192,55349,1,8,0:0:0:0:
256,192,55453,1,0,0:0:0:0:
256,192,55558,1,8,0:0:0:0:
256,192,55663,1,8,0:0:0:0:
256,192,55767,1,0,0:0:0:0:
256,192,55872,1,0,0:0:0:0:
256,192,55976,1,8,0:0:0:0:
256,192,56081,1,0,0:0:0:0:
256,192,56185,1,8,0:0:0:0:
256,192,56290,1,0,0:0:0:0:
256,192,56394,1,8,0:0:0:0:
256,192,56499,1,0,0:0:0:0:
256,192,56603,1,0,0:0:0:0:
256,192,56812,1,8,0:0:0:0:
256,192,56917,1,8,0:0:0:0:
256,192,57021,1,8,0:0:0:0:
256,192,57126,1,0,0:0:0:0:
256,192,57230,1,8,0:0:0:0:
256,192,57335,1,0,0:0:0:0:
256,192,57440,1,8,0:0:0:0:
256,192,57544,1,8,0:0:0:0:
256,192,57649,1,8,0:0:0:0:
256,192,57753,1,0,0:0:0:0:
256,192,57858,1,0,0:0:0:0:
256,192,57962,1,0,0:0:0:0:
256,192,58067,1,8,0:0:0:0:
256,192,58171,1,8,0:0:0:0:
256,192,58276,1,0,0:0:0:0:
256,192,58380,1,8,0:0:0:0:
256,192,58589,1,12,0:0:0:0:
256,192,58746,1,12,0:0:0:0:
256,192,58903,1,12,0:0:0:0:
256,192,59060,1,12,0:0:0:0:
256,192,59217,1,12,0:0:0:0:
256,192,59373,1,12,0:0:0:0:
256,192,59530,1,12,0:0:0:0:
256,192,60157,1,0,0:0:0:0:
256,192,60419,1,8,0:0:0:0:
256,192,60525,1,8,0:0:0:0:
256,192,60632,1,0,0:0:0:0:
256,192,60739,1,0,0:0:0:0:
256,192,60846,1,8,0:0:0:0:
256,192,60952,1,0,0:0:0:0:
256,192,61059,1,8,0:0:0:0:
256,192,61273,1,8,0:0:0:0:
256,192,61379,1,8,0:0:0:0:
256,192,61486,1,8,0:0:0:0:
256,192,61593,1,0,0:0:0:0:
256,192,61700,1,0,0:0:0:0:
256,192,61806,1,0,0:0:0:0:
256,192,61913,1,8,0:0:0:0:
256,192,62020,1,0,0:0:0:0:
256,192,63784,1,8,0:0:0:0:
256,192,63899,1,8,0:0:0:0:
256,192,64014,1,0,0:0:0:0:
256,192,64130,1,0,0:0:0:0:
256,192,64245,1,8,0:0:0:0:
256,192,64360,1,0,0:0:0:0:
256,192,64476,1,8,0:0:0:0:
256,192,64707,1,0,0:0:0:0:
256,192,64822,1,0,0:0:0:0:
256,192,64937,1,8,0:0:0:0:
256,192,65053,1,0,0:0:0:0:
256,192,65168,1,8,0:0:0:0:
256,192,65284,1,8,0:0:0:0:
256,192,65399,1,8,0:0:0:0:
256,192,65514,1,0,0:0:0:0:
256,192,66971,1,8,0:0:0:0:
256,192,68163,1,4,0:0:0:0:
256,192,68476,1,0,0:0:0:0:
256,192,68581,1,8,0:0:0:0:
256,192,68685,1,0,0:0:0:0:
256,192,68790,1,0,0:0:0:0:
256,192,68894,1,0,0:0:0:0:
256,192,68999,1,8,0:0:0:0:
256,192,69103,1,0,0:0:0:0:
256,192,69208,1,8,0:0:0:0:
256,192,69417,1,8,0:0:0:0:
256,192,69521,1,8,0:0:0:0:
256,192,69626,1,8,0:0:0:0:
256,192,69730,1,0,0:0:0:0:
256,192,69835,1,8,0:0:0:0:
256,192,70044,1,8,0:0:0:0:
256,192,70253,1,0,0:0:0:0:
256,192,70358,1,0,0:0:0:0:
256,192,70462,1,8,0:0:0:0:
256,192,70567,1,0,0:0:0:0:
256,192,70671,1,8,0:0:0:0:
256,192,70776,1,8,0:0:0:0:
256,192,70880,1,0,0:0:0:0:
256,192,71089,1,0,0:0:0:0:
256,192,71194,1,0,0:0:0:0:
256,192,71298,1,8,0:0:0:0:
256,192,71403,1,8,0:0:0:0:
256,192,71507,1,0,0:0:0:0:
256,192,71716,1,8,0:0:0:0:
256,192,71925,1,0,0:0:0:0:
256,192,72030,1,8,0:0:0:0:
256,192,72135,1,0,0:0:0:0:
256,192,72239,1,8,0:0:0:0:
256,192,72344,1,8,0:0:0:0:
256,192,72448,1,0,0:0:0:0:
256,192,72553,1,8,0:0:0:0:
256,192,72762,1,8,0:0:0:0:
256,192,72866,1,0,0:0:0:0:
256,192,72971,1,8,0:0:0:0:
256,192,73075,1,8,0:0:0:0:
256,192,73180,1,8,0:0:0:0:
256,192,73389,1,8,0:0:0:0:
256,192,73598,1,8,0:0:0:0:
256,192,73702,1,0,0:0:0:0:
256,192,73807,1,0,0:0:0:0:
256,192,73912,1,0,0:0:0:0:
256,192,74016,1,8,0:0:0:0:
256,192,74121,1,0,0:0:0:0:
256,192,74225,1,8,0:0:0:0:
256,192,74434,1,8,0:0:0:0:
256,192,74539,1,0,0:0:0:0:
256,192,74643,1,8,0:0:0:0:
256,192,74748,1,0,0:0:0:0:
256,192,74852,1,8,0:0:0:0:
256,192,75061,1,8,0:0:0:0:
256,192,75166,1,8,0:0:0:0:
256,192,75270,1,0,0:0:0:0:
256,192,75472,1,8,0:0:0:0:
256,192,75573,1,0,0:0:0:0:
256,192,75674,1,0,0:0:0:0:
256,192,75775,1,0,0:0:0:0:
256,192,75876,1,8,0:0:0:0:
256,192,75977,1,0,0:0:0:0:
256,192,76078,1,8,0:0:0:0:
256,192,76280,1,8,0:0:0:0:
256,192,76381,1,0,0:0:0:0:
256,192,76482,1,0,0:0:0:0:
256,192,76583,1,0,0:0:0:0:
256,192,76684,1,8,0:0:0:0:
256,192,76886,1,8,0:0:0:0:
256,192,76987,1,8,0:0:0:0:
256,192,77088,1,8,0:0:0:0:
256,192,77189,1,0,0:0:0:0:
256,192,77290,1,8,0:0:0:0:
256,192,77391,1,8,0:0:0:0:
256,192,77492,1,0,0:0:0:0:
256,192,77593,1,8,0:0:0:0:
256,192,77694,1,0,0:0:0:0:
256,192,77795,1,0,0:0:0:0:
256,192,77896,1,8,0:0:0:0:
256,192,77997,1,0,0:0:0:0:
256,192,78098,1,8,0:0:0:0:
256,192,78199,1,8,0:0:0:0:
256,192,78300,1,0,0:0:0:0:
256,192,78502,1,8,0:0:0:0:
256,192,78603,1,0,0:0:0:0:
256,192,78704,1,8,0:0:0:0:
256,192,78805,1,8,0:0:0:0:
256,192,78906,1,8,0:0:0:0:
256,192,79007,1,0,0:0:0:0:
256,192,79108,1,0,0:0:0:0:
256,192,79209,1,0,0:0:0:0:
256,192,79310,1,8,0:0:0:0:
256,192,79512,1,8,0:0:0:0:
256,192,79613,1,0,0:0:0:0:
256,192,79714,1,8,0:0:0:0:
256,192,79815,1,8,0:0:0:0:
256,192,79916,1,0,0:0:0:0:
256,192,80118,1,8,0:0:0:0:
256,192,80219,1,8,0:0:0:0:
256,192,80320,1,0,0:0:0:0:
256,192,80421,1,8,0:0:0:0:
256,192,80522,1,0,0:0:0:0:
256,192,80623,1,0,0:0:0:0:
256,192,80724,1,8,0:0:0:0:
256,192,80825,1,8,0:0:0:0:
256,192,80926,1,0,0:0:0:0:
256,192,81027,1,0,0:0:0:0:
256,192,81128,1,8,0:0:0:0:
256,192,81229,1,0,0:0:0:0:
256,192,81330,1,8,0:0:0:0:
256,192,81431,1,8,0:0:0:0:
256,192,81532,1,0,0:0:0:0:
256,192,81734,1,8,0:0:0:0:
256,192,81835,1,0,0:0:0:0:
256,192,81936,1,0,0:0:0:0:
256,192,82037,1,0,0:0:0:0:
256,192,82138,1,8,0:0:0:0:
256,192,82239,1,0,0:0:0:0:
256,192,82340,1,8,0:0:0:0:
256,192,82542,1,8,0:0:0:0:
256,192,82643,1,0,0:0:0:0:
256,192,82744,1,0,0:0:0:0:
256,192,82845,1,0,0:0:0:0:
256,192,82946,1,8,0:0:0:0:
256,192,83047,1,8,0:0:0:0:
256,192,83148,1,0,0:0:0:0:
256,192,83350,1,8,0:0:0:0:
256,192,83451,1,8,0:0:0:0:
256,192,83552,1,8,0:0:0:0:
256,192,83653,1,0,0:0:0:0:
256,192,83754,1,8,0:0:0:0:
256,192,83855,1,8,0:0:0:0:
256,192,83956,1,8,0:0:0:0:
256,192,84057,1,0,0:0:0:0:
256,192,84158,1,8,0:0:0:0:
256,192,84259,1,8,0:0:0:0:
256,192,84360,1,0,0:0:0:0:
256,192,84461,1,0,0:0:0:0:
256,192,84562,1,8,0:0:0:0:
256,192,84663,1,0,0:0:0:0:
256,192,84764,1,8,0:0:0:0:
256,192,84966,1,0,0:0:0:0:
256,192,85067,1,0,0:0:0:0:
256,192,85168,1,8,0:0:0:0:
256,192,85270,1,0,0:0:0:0:
256,192,85371,1,0,0:0:0:0:
256,192,85472,1,0,0:0:0:0:
256,192,85573,1,8,0:0:0:0:
256,192,85775,1,0,0:0:0:0:
256,192,85876,1,0,0:0:0:0:
256,192,85977,1,8,0:0:0:0:
256,192,86078,1,0,0:0:0:0:
256,192,86179,1,8,0:0:0:0:
256,192,86280,1,8,0:0:0:0:
256,192,86381,1,0,0:0:0:0:
256,192,86583,1,8,0:0:0:0:
256,192,86680,1,8,0:0:0:0:
256,192,86778,1,8,0:0:0:0:
256,192,86876,1,0,0:0:0:0:
256,192,86973,1,8,0:0:0:0:
256,192,87071,1,8,0:0:0:0:
256,192,87169,1,0,0:0:0:0:
256,192,87267,1,8,0:0:0:0:
256,192,87364,1,0,0:0:0:0:
256,192,87462,1,0,0:0:0:0:
256,192,87560,1,8,0:0:0:0:
256,192,87657,1,0,0:0:0:0:
256,192,87755,1,8,0:0:0:0:
256,192,88146,1,8,0:0:0:0:
256,192,88247,1,8,0:0:0:0:
256,192,88348,1,8,0:0:0:0:
256,192,88449,1,0,0:0:0:0:
256,192,88550,1,8,0:0:0:0:
256,192,88651,1,0,0:0:0:0:
256,192,88752,1,8,0:0:0:0:
256,192,88853,1,8,0:0:0:0:
256,192,88954,1,8,0:0:0:0:
256,192,89055,1,0,0:0:0:0:
256,192,89156,1,0,0:0:0:0:
256,192,89257,1,0,0:0:0:0:
256,192,89358,1,8,0:0:0:0:
256,192,89459,1,8,0:0:0:0:
256,192,89560,1,0,0:0:0:0:
256,192,89762,1,0,0:0:0:0:
256,192,89863,1,0,0:0:0:0:
256,192,89964,1,8,0:0:0:0:
256,192,90065,1,0,0:0:0:0:
256,192,90166,1,8,0:0:0:0:
256,192,90267,1,8,0:0:0:0:
256,192,90368,1,0,0:0:0:0:
256,192,90469,1,0,0:0:0:0:
256,192,90570,1,8,0:0:0:0:
256,192,90671,1,0,0:0:0:0:
256,192,90772,1,8,0:0:0:0:
256,192,90873,1,8,0:0:0:0:
256,192,90974,1,8,0:0:0:0:
256,192,91075,1,8,0:0:0:0:
256,192,91176,1,0,0:0:0:0:
256,192,91378,1,8,0:0:0:0:
256,192,91479,1,8,0:0:0:0:
256,192,91580,1,8,0:0:0:0:
256,192,91681,1,0,0:0:0:0:
256,192,91782,1,8,0:0:0:0:
256,192,91883,1,0,0:0:0:0:
256,192,91984,1,8,0:0:0:0:
256,192,92085,1,8,0:0:0:0:
256,192,92186,1,8,0:0:0:0:
256,192,92287,1,0,0:0:0:0:
256,192,92388,1,8,0:0:0:0:
256,192,92489,1,8,0:0:0:0:
256,192,92590,1,8,0:0:0:0:
256,192,92691,1,0,0:0:0:0:
256,192,92792,1,8,0:0:0:0:
256,192,92893,1,0,0:0:0:0:
256,192,92994,1,8,0:0:0:0:
256,192,93095,1,8,0:0:0:0:
256,192,93297,1,0,0:0:0:0:
256,192,93398,1,8,0:0:0:0:
256,192,93499,1,8,0:0:0:0:
256,192,93600,1,8,0:0:0:0:
256,192,93701,1,0,0:0:0:0:
256,192,93802,1,8,0:0:0:0:
256,192,93903,1,8,0:0:0:0:
256,192,94004,1,0,0:0:0:0:
256,192,94105,1,0,0:0:0:0:
256,192,94206,1,8,0:0:0:0:
256,192,94307,1,0,0:0:0:0:
256,192,94408,1,8,0:0:0:0:
256,192,94610,1,8,0:0:0:0:
256,192,94711,1,8,0:0:0:0:
256,192,94812,1,8,0:0:0:0:
256,192,94913,1,0,0:0:0:0:
256,192,95014,1,8,0:0:0:0:
256,192,95115,1,8,0:0:0:0:
256,192,95216,1,8,0:0:0:0:
256,192,95317,1,8,0:0:0:0:
256,192,95418,1,8,0:0:0:0:
256,192,95519,1,0,0:0:0:0:
256,192,95620,1,8,0:0:0:0:
256,192,95721,1,8,0:0:0:0:
256,192,95822,1,8,0:0:0:0:
256,192,95923,1,8,0:0:0:0:
256,192,96024,1,0,0:0:0:0:
256,192,96226,1,0,0:0:0:0:
256,192,96327,1,0,0:0:0:0:
256,192,96428,1,8,0:0:0:0:
256,192,96529,1,0,0:0:0:0:
256,192,96630,1,8,0:0:0:0:
256,192,96731,1,0,0:0:0:0:
256,192,96832,1,0,0:0:0:0:
256,192,96933,1,0,0:0:0:0:
256,192,97034,1,8,0:0:0:0:
256,192,97135,1,0,0:0:0:0:
256,192,97236,1,0,0:0:0:0:
256,192,97337,1,0,0:0:0:0:
256,192,97438,1,8,0:0:0:0:
256,192,97539,1,8,0:0:0:0:
256,192,97640,1,0,0:0:0:0:
256,192,97842,1,8,0:0:0:0:
256,192,97943,1,8,0:0:0:0:
256,192,98044,1,8,0:0:0:0:
256,192,98146,1,0,0:0:0:0:
256,192,98247,1,8,0:0:0:0:
256,192,98348,1,8,0:0:0:0:
256,192,98449,1,8,0:0:0:0:
256,192,98550,1,8,0:0:0:0:
256,192,98651,1,0,0:0:0:0:
256,192,98752,1,0,0:0:0:0:
256,192,98853,1,8,0:0:0:0:
256,192,98954,1,0,0:0:0:0:
256,192,99055,1,8,0:0:0:0:
256,192,99156,1,8,0:0:0:0:
256,192,99257,1,0,0:0:0:0:
256,192,99358,1,8,0:0:0:0:
256,192,99563,1,8,0:0:0:0:
256,192,99877,1,8,0:0:0:0:
256,192,100190,1,8,0:0:0:0:
256,192,100504,1,8,0:0:0:0:
256,192,100817,1,0,0:0:0:0:
256,192,101026,1,0,0:0:0:0:
256,192,101131,1,8,0:0:0:0:
256,192,101236,1,8,0:0:0:0:
256,192,101340,1,0,0:0:0:0:
256,192,101445,1,8,0:0:0:0:
256,192,101549,1,8,0:0:0:0:
256,192,101654,1,0,0:0:0:0:
256,192,101758,1,8,0:0:0:0:
256,192,101863,1,8,0:0:0:0:
256,192,101967,1,0,0:0:0:0:
256,192,102072,1,8,0:0:0:0:
256,192,102176,1,8,0:0:0:0:
256,192,102281,1,8,0:0:0:0:
256,192,102385,1,0,0:0:0:0:
256,192,102594,1,0,0:0:0:0:
256,192,102699,1,0,0:0:0:0:
256,192,102803,1,8,0:0:0:0:
256,192,102908,1,8,0:0:0:0:
256,192,103013,1,0,0:0:0:0:
256,192,103117,1,8,0:0:0:0:
256,192,103222,1,8,0:0:0:0:
256,192,103326,1,0,0:0:0:0:
256,192,103431,1,8,0:0:0:0:
256,192,103535,1,8,0:0:0:0:
256,192,103640,1,0,0:0:0:0:
256,192,103744,1,8,0:0:0:0:
256,192,103849,1,8,0:0:0:0:
256,192,103953,1,0,0:0:0:0:
256,192,104058,1,8,0:0:0:0:
256,192,104267,1,0,0:0:0:0:
256,192,104476,1,8,0:0:0:0:
256,192,104580,1,8,0:0:0:0:
256,192,104685,1,0,0:0:0:0:
256,192,104790,1,8,0:0:0:0:
256,192,104894,1,8,0:0:0:0:
256,192,104999,1,0,0:0:0:0:
256,192,105103,1,8,0:0:0:0:
256,192,105208,1,8,0:0:0:0:
256,192,105312,1,0,0:0:0:0:
256,192,105417,1,8,0:0:0:0:
256,192,105521,1,8,0:0:0:0:
256,192,105626,1,8,0:0:0:0:
256,192,105730,1,0,0:0:0:0:
256,192,105939,1,0,0:0:0:0:
256,192,106044,1,0,0:0:0:0:
256,192,106148,1,8,0:0:0:0:
256,192,106253,1,8,0:0:0:0:
256,192,106357,1,0,0:0:0:0:
256,192,106462,1,8,0:0:0:0:
256,192,106567,1,8,0:0:0:0:
256,192,106671,1,0,0:0:0:0:
256,192,106776,1,8,0:0:0:0:
256,192,106880,1,8,0:0:0:0:
256,192,106985,1,0,0:0:0:0:
256,192,107089,1,8,0:0:0:0:
256,192,107194,1,8,0:0:0:0:
256,192,107298,1,0,0:0:0:0:
256,192,107403,1,8,0:0:0:0:
256,192,107507,1,0,0:0:0:0:
256,192,107612,1,0,0:0:0:0:
256,192,107716,1,8,0:0:0:0:
256,192,108030,1,0,0:0:0:0:
256,192,108134,1,0,0:0:0:0:
256,192,108239,1,8,0:0:0:0:
256,192,108344,1,8,0:0:0:0:
256,192,108448,1,0,0:0:0:0:
256,192,108553,1,8,0:0:0:0:
256,192,108657,1,0,0:0:0:0:
256,192,108762,1,0,0:0:0:0:
256,192,108866,1,8,0:0:0:0:
256,192,108971,1,0,0:0:0:0:
256,192,109075,1,8,0:0:0:0:
256,192,109180,1,8,0:0:0:0:
256,192,109284,1,0,0:0:0:0:
256,192,109702,1,0,0:0:0:0:
256,192,109807,1,0,0:0:0:0:
256,192,109911,1,8,0:0:0:0:
256,192,110016,1,8,0:0:0:0:
256,192,110121,1,0,0:0:0:0:
256,192,110225,1,0,0:0:0:0:
256,192,110330,1,8,0:0:0:0:
256,192,110434,1,8,0:0:0:0:
256,192,110539,1,0,0:0:0:0:
256,192,110643,1,8,0:0:0:0:
256,192,110748,1,8,0:0:0:0:
256,192,110852,1,8,0:0:0:0:
256,192,110957,1,0,0:0:0:0:
256,192,111375,1,0,0:0:0:0:
256,192,111479,1,0,0:0:0:0:
256,192,111584,1,8,0:0:0:0:
256,192,111688,1,8,0:0:0:0:
256,192,111793,1,0,0:0:0:0:
256,192,111898,1,8,0:0:0:0:
256,192,112002,1,0,0:0:0:0:
256,192,112107,1,0,0:0:0:0:
256,192,112211,1,8,0:0:0:0:
256,192,112316,1,8,0:0:0:0:
256,192,112420,1,0,0:0:0:0:
256,192,112525,1,0,0:0:0:0:
256,192,112629,1,8,0:0:0:0:
256,192,112838,1,8,0:0:0:0:
256,192,112943,1,8,0:0:0:0:
256,192,113047,1,8,0:0:0:0:
256,192,113152,1,0,0:0:0:0:
256,192,113256,1,8,0:0:0:0:
256,192,113361,1,0,0:0:0:0:
256,192,113465,1,8,0:0:0:0:
256,192,113570,1,8,0:0:0:0:
256,192,113675,1,8,0:0:0:0:
256,192,113779,1,0,0:0:0:0:
256,192,113884,1,0,0:0:0:0:
256,192,113988,1,0,0:0:0:0:
256,192,114093,1,8,0:0:0:0:
256,192,114197,1,8,0:0:0:0:
256,192,114302,1,0,0:0:0:0:
256,192,114511,1,12,0:0:0:0:
256,192,114824,1,0,0:0:0:0:
256,192,114929,1,8,0:0:0:0:
256,192,115033,1,8,0:0:0:0:
256,192,115138,1,8,0:0:0:0:
256,192,115242,1,0,0:0:0:0:
256,192,115347,1,8,0:0:0:0:
256,192,115452,1,8,0:0:0:0:
256,192,115556,1,8,0:0:0:0:
256,192,115661,1,0,0:0:0:0:
256,192,115765,1,8,0:0:0:0:
256,192,115870,1,8,0:0:0:0:
256,192,115974,1,0,0:0:0:0:
256,192,116183,1,12,0:0:0:0:
256,192,116497,1,0,0:0:0:0:
256,192,116601,1,8,0:0:0:0:
256,192,116706,1,8,0:0:0:0:
256,192,116810,1,0,0:0:0:0:
256,192,116915,1,8,0:0:0:0:
256,192,117019,1,8,0:0:0:0:
256,192,117124,1,0,0:0:0:0:
256,192,117229,1,0,0:0:0:0:
256,192,117333,1,8,0:0:0:0:
256,192,117438,1,0,0:0:0:0:
256,192,117542,1,8,0:0:0:0:
256,192,117647,1,0,0:0:0:0:
256,192,117856,1,8,0:0:0:0:
256,192,117960,1,8,0:0:0:0:
256,192,118065,1,0,0:0:0:0:
256,192,118169,1,8,0:0:0:0:
256,192,118274,1,0,0:0:0:0:
256,192,118483,1,8,0:0:0:0:
256,192,118587,1,8,0:0:0:0:
256,192,118692,1,0,0:0:0:0:
256,192,118796,1,8,0:0:0:0:
256,192,118901,1,0,0:0:0:0:
256,192,119110,1,8,0:0:0:0:
256,192,119215,1,0,0:0:0:0:
256,192,119319,1,8,0:0:0:0:
256,192,119424,1,0,0:0:0:0:
256,192,119737,1,12,0:0:0:0:
256,192,120051,1,12,0:0:0:0:
256,192,120364,1,12,0:0:0:0:
256,192,120992,1,0,0:0:0:0:
256,192,121201,1,12,0:0:0:0:
256,192,121357,1,12,0:0:0:0:
256,192,121514,1,12,0:0:0:0:
256,192,121671,1,12,0:0:0:0:
256,192,121828,1,12,0:0:0:0:
256,192,121985,1,12,0:0:0:0:
256,192,122141,1,12,0:0:0:0:
256,192,122664,1,0,0:0:0:0:
256,192,123029,1,8,0:0:0:0:
256,192,123133,1,8,0:0:0:0:
256,192,123238,1,8,0:0:0:0:
256,192,123342,1,0,0:0:0:0:
256,192,123447,1,8,0:0:0:0:
256,192,123551,1,8,0:0:0:0:
256,192,123656,1,8,0:0:0:0:
256,192,123760,1,8,0:0:0:0:
256,192,123865,1,8,0:0:0:0:
256,192,123969,1,0,0:0:0:0:
256,192,124074,1,8,0:0:0:0:
256,192,124178,1,8,0:0:0:0:
256,192,124283,1,8,0:0:0:0:
256,192,124387,1,8,0:0:0:0:
256,192,124492,1,0,0:0:0:0:
256,192,124701,1,8,0:0:0:0:
256,192,124806,1,8,0:0:0:0:
256,192,124910,1,8,0:0:0:0:
256,192,125015,1,0,0:0:0:0:
256,192,125119,1,8,0:0:0:0:
256,192,125224,1,8,0:0:0:0:
256,192,125328,1,8,0:0:0:0:
256,192,125433,1,8,0:0:0:0:
256,192,125537,1,8,0:0:0:0:
256,192,125642,1,0,0:0:0:0:
256,192,125746,1,8,0:0:0:0:
256,192,125851,1,8,0:0:0:0:
256,192,125955,1,0,0:0:0:0:
256,192,126060,1,8,0:0:0:0:
256,192,126164,1,0,0:0:0:0:
256,192,126373,1,8,0:0:0:0:
256,192,126478,1,8,0:0:0:0:
256,192,126583,1,8,0:0:0:0:
256,192,126687,1,0,0:0:0:0:
256,192,126792,1,8,0:0:0:0:
256,192,126896,1,0,0:0:0:0:
256,192,127001,1,8,0:0:0:0:
256,192,127105,1,8,0:0:0:0:
256,192,127210,1,8,0:0:0:0:
256,192,127314,1,0,0:0:0:0:
256,192,127419,1,8,0:0:0:0:
256,192,127523,1,8,0:0:0:0:
256,192,127628,1,8,0:0:0:0:
256,192,127732,1,0,0:0:0:0:
256,192,127837,1,0,0:0:0:0:
256,192,128046,1,8,0:0:0:0:
256,192,128150,1,8,0:0:0:0:
256,192,128255,1,8,0:0:0:0:
256,192,128360,1,0,0:0:0:0:
256,192,128464,1,8,0:0:0:0:
256,192,128569,1,0,0:0:0:0:
256,192,128673,1,8,0:0:0:0:
256,192,128778,1,8,0:0:0:0:
256,192,128882,1,8,0:0:0:0:
256,192,128987,1,0,0:0:0:0:
256,192,129091,1,0,0:0:0:0:
256,192,129196,1,0,0:0:0:0:
256,192,129300,1,8,0:0:0:0:
256,192,129405,1,8,0:0:0:0:
256,192,129509,1,0,0:0:0:0:
256,192,129718,8,0,133900,0:0:0:0:
