osu file format v14

[General]
AudioFilename: audio.mp3
AudioLeadIn: 0
PreviewTime: 99569
Countdown: 0
SampleSet: Normal
StackLeniency: 0.7
Mode: 1
LetterboxInBreaks: 0
WidescreenStoryboard: 0

[Editor]
Bookmarks: 998,12090,28224,46376,62510,79653,99821,115955,126040
DistanceSpacing: 0.9
BeatDivisor: 4
GridSize: 32
TimelineZoom: 3.499999

[Metadata]
Title:Inertia
TitleUnicode:Inertia
Artist:yoho
ArtistUnicode:yoho
Creator:Ulqui
Version:Inner Oni
Source:
Tags:
BeatmapID:1790267
BeatmapSetID:857029

[Difficulty]
HPDrainRate:6
CircleSize:5
OverallDifficulty:6
ApproachRate:6
SliderMultiplier:1.4
SliderTickRate:1

[Events]
//Background and Video events
0,0,"Konachan.com - 260844 sample.jpg",0,30
//Break Periods
//Storyboard Layer 0 (Background)
//Storyboard Layer 1 (Fail)
//Storyboard Layer 2 (Pass)
//Storyboard Layer 3 (Foreground)
//Storyboard Sound Samples

[TimingPoints]
998,252.100840336134,4,1,0,100,1,0
998,-125,4,1,0,100,0,0
9065,-50,4,1,0,100,0,0
10073,-100,4,1,0,100,0,0
11082,-125,4,1,0,100,0,0
11145,-111.111111111111,4,1,0,100,0,0
11208,-100,4,1,0,100,0,0
11271,-90.9090909090909,4,1,0,100,0,0
11334,-83.3333333333333,4,1,0,100,0,0
11397,-76.9230769230769,4,1,0,100,0,0
11460,-71.4285714285714,4,1,0,100,0,0
11523,-66.6666666666667,4,1,0,100,0,0
11586,-62.5,4,1,0,100,0,0
11649,-58.8235294117647,4,1,0,100,0,0
11712,-55.5555555555556,4,1,0,100,0,0
11775,-52.6315789473684,4,1,0,100,0,0
11838,-50,4,1,0,100,0,0
12090,-90.9090909090909,4,1,0,100,0,0
15115,-58.8235294117647,4,1,0,100,0,0
15241,-62.5,4,1,0,100,0,0
15367,-66.6666666666667,4,1,0,100,0,0
15493,-71.4285714285714,4,1,0,100,0,0
15619,-76.9230769230769,4,1,0,100,0,0
15682,-81.6326530612245,4,1,0,100,0,0
15808,-83.3333333333333,4,1,0,100,0,0
15934,-85.1063829787234,4,1,0,100,0,0
15997,-86.9565217391304,4,1,0,100,0,0
16124,-90.9090909090909,4,1,0,100,0,0
17258,-58.8235294117647,4,1,0,100,0,0
17384,-66.6666666666667,4,1,0,100,0,0
17510,-76.9230769230769,4,1,0,100,0,0
17636,-90.9090909090909,4,1,0,100,0,0
18266,-58.8235294117647,4,1,0,100,0,0
18392,-66.6666666666667,4,1,0,100,0,0
18519,-76.9230769230769,4,1,0,100,0,0
18645,-90.9090909090909,4,1,0,100,0,0
19149,-76.9230769230769,4,1,0,100,0,0
19212,-80,4,1,0,100,0,0
19275,-83.3333333333333,4,1,0,100,0,0
19338,-86.9565217391304,4,1,0,100,0,0
19401,-90.9090909090909,4,1,0,100,0,0
19527,-76.9230769230769,4,1,0,100,0,0
19590,-80,4,1,0,100,0,0
19653,-83.3333333333333,4,1,0,100,0,0
19779,-90.9090909090909,4,1,0,100,0,0
19905,-76.9230769230769,4,1,0,100,0,0
19968,-80,4,1,0,100,0,0
20031,-83.3333333333333,4,1,0,100,0,0
20094,-86.9565217391304,4,1,0,100,0,0
20157,-90.9090909090909,4,1,0,100,0,0
23182,-58.8235294117647,4,1,0,100,0,0
23308,-62.5,4,1,0,100,0,0
23434,-66.6666666666667,4,1,0,100,0,0
23560,-71.4285714285714,4,1,0,100,0,0
23686,-76.9230769230769,4,1,0,100,0,0
23749,-81.6326530612245,4,1,0,100,0,0
23875,-83.3333333333333,4,1,0,100,0,0
24001,-85.1063829787234,4,1,0,100,0,0
24064,-86.9565217391304,4,1,0,100,0,0
24191,-90.9090909090909,4,1,0,100,0,0
25325,-58.8235294117647,4,1,0,100,0,0
25451,-66.6666666666667,4,1,0,100,0,0
25577,-76.9230769230769,4,1,0,100,0,0
25703,-90.9090909090909,4,1,0,100,0,0
26333,-58.8235294117647,4,1,0,100,0,0
26459,-66.6666666666667,4,1,0,100,0,0
26586,-76.9230769230769,4,1,0,100,0,0
26712,-90.9090909090909,4,1,0,100,0,0
27216,-76.9230769230769,4,1,0,100,0,0
27279,-80,4,1,0,100,0,0
27342,-83.3333333333333,4,1,0,100,0,0
27405,-86.9565217391304,4,1,0,100,0,0
27468,-90.9090909090909,4,1,0,100,0,0
27594,-66.6666666666667,4,1,0,100,0,0
27657,-68.9655172413793,4,1,0,100,0,0
27720,-71.4285714285714,4,1,0,100,0,0
27783,-74.0740740740741,4,1,0,100,0,0
27846,-76.9230769230769,4,1,0,100,0,0
27909,-80,4,1,0,100,0,0
27972,-83.3333333333333,4,1,0,100,0,0
28035,-86.9565217391304,4,1,0,100,0,0
28098,-90.9090909090909,4,1,0,100,0,0
28161,-95.2380952380952,4,1,0,100,0,0
28224,-99.9999999999999,4,1,0,100,0,0
31376,-90.9090909090909,4,1,0,100,0,0
31502,-83.3333333333333,4,1,0,100,0,0
31628,-71.4285714285714,4,1,0,100,0,0
31754,-58.8235294117647,4,1,0,100,0,0
32006,-74.0740740740741,4,1,0,100,0,0
32258,-99.9999999999999,4,1,0,100,0,0
34905,-90.9090909090909,4,1,0,100,0,0
35031,-83.3333333333333,4,1,0,100,0,0
35157,-71.4285714285714,4,1,0,100,0,0
35283,-58.8235294117647,4,1,0,100,0,0
36040,-125,4,1,0,100,0,0
36103,-117.647058823529,4,1,0,100,0,0
36166,-111.111111111111,4,1,0,100,0,0
36229,-105.263157894737,4,1,0,100,0,0
36292,-99.9999999999999,4,1,0,100,0,0
39443,-90.9090909090909,4,1,0,100,0,0
39506,-86.9565217391304,4,1,0,100,0,0
39569,-83.3333333333333,4,1,0,100,0,0
39695,-71.4285714285714,4,1,0,100,0,0
39821,-58.8235294117647,4,1,0,100,0,0
40073,-74.0740740740741,4,1,0,100,0,0
40325,-99.9999999999999,4,1,0,100,0,0
42972,-90.9090909090909,4,1,0,100,0,0
43035,-83.3333333333333,4,1,0,100,0,0
43098,-76.9230769230769,4,1,0,100,0,0
43161,-71.4285714285714,4,1,0,100,0,0
43224,-66.6666666666667,4,1,0,100,0,0
43350,-58.8235294117647,4,1,0,100,0,0
44107,-125,4,1,0,100,0,0
44170,-117.647058823529,4,1,0,100,0,0
44233,-111.111111111111,4,1,0,100,0,0
44296,-105.263157894737,4,1,0,100,0,0
44359,-100,4,1,0,100,0,0
45367,-50,4,1,0,100,0,0
46376,-100,4,1,0,50,0,0
46439,-100.62893081761,4,1,0,50,0,0
46502,-101.26582278481,4,1,0,50,0,0
46565,-101.910828025478,4,1,0,50,0,0
46628,-102.564102564103,4,1,0,50,0,0
46691,-103.225806451613,4,1,0,50,0,0
46754,-103.896103896104,4,1,0,50,0,0
46817,-104.575163398693,4,1,0,50,0,0
46880,-105.263157894737,4,1,0,50,0,0
46943,-105.960264900662,4,1,0,50,0,0
47006,-106.666666666667,4,1,0,50,0,0
47069,-107.38255033557,4,1,0,50,0,0
47132,-108.108108108108,4,1,0,50,0,0
47195,-108.843537414966,4,1,0,50,0,0
47258,-109.58904109589,4,1,0,50,0,0
47321,-110.344827586207,4,1,0,50,0,0
47384,-111.111111111111,4,1,0,50,0,0
47447,-111.888111888112,4,1,0,50,0,0
47510,-112.676056338028,4,1,0,50,0,0
47573,-113.475177304965,4,1,0,50,0,0
47636,-114.285714285714,4,1,0,50,0,0
47699,-115.107913669065,4,1,0,50,0,0
47762,-115.942028985507,4,1,0,50,0,0
47825,-116.788321167883,4,1,0,50,0,0
47888,-117.647058823529,4,1,0,50,0,0
47951,-118.518518518519,4,1,0,50,0,0
48014,-119.402985074627,4,1,0,50,0,0
48077,-120.300751879699,4,1,0,50,0,0
48140,-121.212121212121,4,1,0,50,0,0
48203,-122.137404580153,4,1,0,50,0,0
48266,-123.076923076923,4,1,0,50,0,0
48329,-124.031007751938,4,1,0,50,0,0
48392,-125,4,1,0,50,0,0
48455,-125,4,1,0,50,0,0
48519,-125,4,1,0,50,0,0
48582,-125,4,1,0,50,0,0
48645,-125,4,1,0,50,0,0
48708,-125,4,1,0,50,0,0
48771,-125,4,1,0,50,0,0
48834,-125,4,1,0,50,0,0
48897,-125,4,1,0,50,0,0
48960,-125,4,1,0,50,0,0
49023,-125,4,1,0,50,0,0
49086,-125,4,1,0,50,0,0
49149,-125,4,1,0,50,0,0
49212,-125,4,1,0,50,0,0
49275,-125,4,1,0,50,0,0
49338,-125,4,1,0,50,0,0
49401,-100,4,1,0,50,0,0
49464,-101.26582278481,4,1,0,50,0,0
49527,-102.564102564103,4,1,0,50,0,0
49590,-103.896103896104,4,1,0,50,0,0
49653,-105.263157894737,4,1,0,50,0,0
49716,-106.666666666667,4,1,0,50,0,0
49779,-108.108108108108,4,1,0,50,0,0
49842,-109.58904109589,4,1,0,50,0,0
49905,-111.111111111111,4,1,0,50,0,0
49968,-112.676056338028,4,1,0,50,0,0
50031,-114.285714285714,4,1,0,50,0,0
50094,-115.942028985507,4,1,0,50,0,0
50157,-117.647058823529,4,1,0,50,0,0
50220,-119.402985074627,4,1,0,50,0,0
50283,-121.212121212121,4,1,0,50,0,0
50346,-123.076923076923,4,1,0,50,0,0
50409,-125,4,1,0,50,0,0
50472,-124.324324324324,4,1,0,50,0,0
50535,-123.655913978495,4,1,0,50,0,0
50598,-122.994652406417,4,1,0,50,0,0
50661,-122.340425531915,4,1,0,50,0,0
50724,-121.693121693122,4,1,0,50,0,0
50787,-121.052631578947,4,1,0,50,0,0
50850,-120.418848167539,4,1,0,50,0,0
50913,-119.791666666667,4,1,0,50,0,0
50976,-119.170984455959,4,1,0,50,0,0
51040,-118.556701030928,4,1,0,50,0,0
51103,-117.948717948718,4,1,0,50,0,0
51166,-117.34693877551,4,1,0,50,0,0
51229,-116.751269035533,4,1,0,50,0,0
51292,-116.161616161616,4,1,0,50,0,0
51355,-115.577889447236,4,1,0,50,0,0
51418,-115,4,1,0,50,0,0
51481,-114.427860696517,4,1,0,50,0,0
51544,-113.861386138614,4,1,0,50,0,0
51607,-113.300492610837,4,1,0,50,0,0
51670,-112.745098039216,4,1,0,50,0,0
51733,-112.19512195122,4,1,0,50,0,0
51796,-111.650485436893,4,1,0,50,0,0
51859,-111.111111111111,4,1,0,50,0,0
51922,-110.576923076923,4,1,0,50,0,0
51985,-110.047846889952,4,1,0,50,0,0
52048,-109.52380952381,4,1,0,50,0,0
52111,-109.004739336493,4,1,0,50,0,0
52174,-108.490566037736,4,1,0,50,0,0
52237,-107.981220657277,4,1,0,50,0,0
52300,-107.476635514019,4,1,0,50,0,0
52363,-106.976744186047,4,1,0,50,0,0
52426,-106.481481481481,4,1,0,50,0,0
52489,-105.990783410138,4,1,0,50,0,0
52552,-105.504587155963,4,1,0,50,0,0
52615,-105.022831050228,4,1,0,50,0,0
52678,-104.545454545455,4,1,0,50,0,0
52741,-104.072398190045,4,1,0,50,0,0
52804,-103.603603603604,4,1,0,50,0,0
52867,-103.139013452915,4,1,0,50,0,0
52930,-102.678571428571,4,1,0,50,0,0
52993,-102.222222222222,4,1,0,50,0,0
53056,-101.769911504425,4,1,0,50,0,0
53119,-101.321585903084,4,1,0,50,0,0
53182,-100.877192982456,4,1,0,50,0,0
53245,-100.436681222707,4,1,0,50,0,0
53308,-100,4,1,0,50,0,0
53434,-58.8235294117647,4,1,0,100,0,0
54443,-100,4,1,0,50,0,0
54506,-100.62893081761,4,1,0,50,0,0
54569,-101.26582278481,4,1,0,50,0,0
54632,-101.910828025478,4,1,0,50,0,0
54695,-102.564102564103,4,1,0,50,0,0
54758,-103.225806451613,4,1,0,50,0,0
54821,-103.896103896104,4,1,0,50,0,0
54884,-104.575163398693,4,1,0,50,0,0
54947,-105.263157894737,4,1,0,50,0,0
55010,-105.960264900662,4,1,0,50,0,0
55073,-106.666666666667,4,1,0,50,0,0
55136,-107.38255033557,4,1,0,50,0,0
55199,-108.108108108108,4,1,0,50,0,0
55262,-108.843537414966,4,1,0,50,0,0
55325,-109.58904109589,4,1,0,50,0,0
55388,-110.344827586207,4,1,0,50,0,0
55451,-111.111111111111,4,1,0,50,0,0
55514,-111.888111888112,4,1,0,50,0,0
55577,-112.676056338028,4,1,0,50,0,0
55640,-113.475177304965,4,1,0,50,0,0
55703,-114.285714285714,4,1,0,50,0,0
55766,-115.107913669065,4,1,0,50,0,0
55829,-115.942028985507,4,1,0,50,0,0
55892,-116.788321167883,4,1,0,50,0,0
55955,-117.647058823529,4,1,0,50,0,0
56019,-118.518518518519,4,1,0,50,0,0
56082,-119.402985074627,4,1,0,50,0,0
56145,-120.300751879699,4,1,0,50,0,0
56208,-121.212121212121,4,1,0,50,0,0
56271,-122.137404580153,4,1,0,50,0,0
56334,-123.076923076923,4,1,0,50,0,0
56397,-124.031007751938,4,1,0,50,0,0
56460,-125,4,1,0,50,0,0
56523,-124.213836477987,4,1,0,50,0,0
56586,-123.4375,4,1,0,50,0,0
56649,-122.670807453416,4,1,0,50,0,0
56712,-121.913580246914,4,1,0,50,0,0
56775,-121.165644171779,4,1,0,50,0,0
56838,-120.426829268293,4,1,0,50,0,0
56901,-119.69696969697,4,1,0,50,0,0
56964,-118.975903614458,4,1,0,50,0,0
57027,-118.263473053892,4,1,0,50,0,0
57090,-117.559523809524,4,1,0,50,0,0
57153,-116.863905325444,4,1,0,50,0,0
57216,-116.176470588235,4,1,0,50,0,0
57279,-115.497076023392,4,1,0,50,0,0
57342,-114.825581395349,4,1,0,50,0,0
57405,-114.161849710983,4,1,0,50,0,0
57468,-113.505747126437,4,1,0,50,0,0
57531,-112.857142857143,4,1,0,50,0,0
57594,-112.215909090909,4,1,0,50,0,0
57657,-111.581920903955,4,1,0,50,0,0
57720,-110.955056179775,4,1,0,50,0,0
57783,-110.335195530726,4,1,0,50,0,0
57846,-109.722222222222,4,1,0,50,0,0
57909,-109.116022099448,4,1,0,50,0,0
57972,-108.516483516484,4,1,0,50,0,0
58035,-107.92349726776,4,1,0,50,0,0
58098,-107.336956521739,4,1,0,50,0,0
58161,-106.756756756757,4,1,0,50,0,0
58224,-106.182795698925,4,1,0,50,0,0
58287,-105.614973262032,4,1,0,50,0,0
58350,-105.053191489362,4,1,0,50,0,0
58413,-104.497354497354,4,1,0,50,0,0
58476,-103.947368421053,4,1,0,50,0,0
58540,-103.403141361257,4,1,0,50,0,0
58603,-102.864583333333,4,1,0,50,0,0
58666,-102.331606217617,4,1,0,50,0,0
58729,-101.80412371134,4,1,0,50,0,0
58792,-101.282051282051,4,1,0,50,0,0
58855,-100.765306122449,4,1,0,50,0,0
58918,-100.253807106599,4,1,0,50,0,0
58981,-99.7474747474747,4,1,0,50,0,0
59044,-99.2462311557789,4,1,0,50,0,0
59107,-98.75,4,1,0,50,0,0
59170,-98.2587064676617,4,1,0,50,0,0
59233,-97.7722772277228,4,1,0,50,0,0
59296,-97.2906403940887,4,1,0,50,0,0
59359,-96.8137254901961,4,1,0,50,0,0
59422,-96.3414634146341,4,1,0,50,0,0
59485,-95.873786407767,4,1,0,50,0,0
59548,-95.4106280193237,4,1,0,50,0,0
59611,-94.9519230769231,4,1,0,50,0,0
59674,-94.4976076555024,4,1,0,50,0,0
59737,-94.0476190476191,4,1,0,50,0,0
59800,-93.6018957345972,4,1,0,50,0,0
59863,-93.1603773584906,4,1,0,50,0,0
59926,-92.7230046948357,4,1,0,50,0,0
59989,-92.2897196261682,4,1,0,50,0,0
60052,-91.8604651162791,4,1,0,50,0,0
60115,-91.4351851851852,4,1,0,50,0,0
60178,-91.0138248847926,4,1,0,50,0,0
60241,-90.5963302752293,4,1,0,50,0,0
60304,-90.1826484018265,4,1,0,50,0,0
60367,-89.7727272727273,4,1,0,50,0,0
60430,-89.3665158371041,4,1,0,50,0,0
60493,-88.963963963964,4,1,0,50,0,0
60556,-88.5650224215247,4,1,0,50,0,0
60619,-88.1696428571428,4,1,0,50,0,0
60682,-87.7777777777778,4,1,0,50,0,0
60745,-87.3893805309735,4,1,0,50,0,0
60808,-87.0044052863436,4,1,0,50,0,0
60871,-86.6228070175439,4,1,0,50,0,0
60934,-86.2445414847162,4,1,0,50,0,0
60997,-85.8695652173913,4,1,0,50,0,0
61061,-85.4978354978355,4,1,0,50,0,0
61124,-85.1293103448276,4,1,0,50,0,0
61187,-84.7639484978541,4,1,0,50,0,0
61250,-84.4017094017094,4,1,0,50,0,0
61313,-111.111111111111,4,1,0,50,0,0
61313,-83.6864406779661,4,1,0,50,0,0
61376,-83.3333333333333,4,1,0,50,0,0
61502,-66.6666666666667,4,1,0,100,0,0
62510,-142.857142857143,4,1,0,50,0,0
62636,-111.111111111111,4,1,0,70,0,0
62762,-90.9090909090909,4,1,0,100,0,0
65535,-58.8235294117647,4,1,0,100,0,0
65661,-62.5,4,1,0,100,0,0
65787,-66.6666666666667,4,1,0,100,0,0
65913,-71.4285714285714,4,1,0,100,0,0
66040,-76.9230769230769,4,1,0,100,0,0
66103,-81.6326530612245,4,1,0,100,0,0
66229,-83.3333333333333,4,1,0,100,0,0
66355,-85.1063829787234,4,1,0,100,0,0
66418,-86.9565217391304,4,1,0,100,0,0
66544,-90.9090909090909,4,1,0,100,0,0
67552,-52.6315789473684,4,1,0,100,0,0
67678,-58.8235294117647,4,1,0,100,0,0
67804,-66.6666666666667,4,1,0,100,0,0
67930,-76.9230769230769,4,1,0,100,0,0
68056,-90.9090909090909,4,1,0,100,0,0
68686,-58.8235294117647,4,1,0,100,0,0
68812,-66.6666666666667,4,1,0,100,0,0
68939,-76.9230769230769,4,1,0,100,0,0
69065,-90.9090909090909,4,1,0,100,0,0
69569,-76.9230769230769,4,1,0,100,0,0
69632,-80,4,1,0,100,0,0
69695,-83.3333333333333,4,1,0,100,0,0
69758,-86.9565217391304,4,1,0,100,0,0
69821,-90.9090909090909,4,1,0,100,0,0
69947,-76.9230769230769,4,1,0,100,0,0
70010,-80,4,1,0,100,0,0
70073,-83.3333333333333,4,1,0,100,0,0
70199,-90.9090909090909,4,1,0,100,0,0
70325,-76.9230769230769,4,1,0,100,0,0
70388,-80,4,1,0,100,0,0
70451,-83.3333333333333,4,1,0,100,0,0
70514,-86.9565217391304,4,1,0,100,0,0
70577,-90.9090909090909,4,1,0,100,0,0
73603,-58.8235294117647,4,1,0,100,0,0
73729,-62.5,4,1,0,100,0,0
73855,-66.6666666666667,4,1,0,100,0,0
73981,-71.4285714285714,4,1,0,100,0,0
74107,-76.9230769230769,4,1,0,100,0,0
74170,-81.6326530612245,4,1,0,100,0,0
74296,-83.3333333333333,4,1,0,100,0,0
74422,-85.1063829787234,4,1,0,100,0,0
74485,-86.9565217391304,4,1,0,100,0,0
74612,-90.9090909090909,4,1,0,100,0,0
75745,-58.8235294117647,4,1,0,100,0,0
75871,-66.6666666666667,4,1,0,100,0,0
75997,-76.9230769230769,4,1,0,100,0,0
76123,-90.9090909090909,4,1,0,100,0,0
76753,-58.8235294117647,4,1,0,100,0,0
76879,-66.6666666666667,4,1,0,100,0,0
77006,-76.9230769230769,4,1,0,100,0,0
77132,-90.9090909090909,4,1,0,100,0,0
77636,-76.9230769230769,4,1,0,100,0,0
77699,-80,4,1,0,100,0,0
77762,-83.3333333333333,4,1,0,100,0,0
77825,-86.9565217391304,4,1,0,100,0,0
77888,-90.9090909090909,4,1,0,100,0,0
78014,-66.6666666666667,4,1,0,100,0,0
78077,-68.9655172413793,4,1,0,100,0,0
78140,-71.4285714285714,4,1,0,100,0,0
78203,-74.0740740740741,4,1,0,100,0,0
78266,-76.9230769230769,4,1,0,100,0,0
78329,-80,4,1,0,100,0,0
78392,-83.3333333333333,4,1,0,100,0,0
78455,-86.9565217391304,4,1,0,100,0,0
78518,-90.9090909090909,4,1,0,100,0,0
78581,-95.2380952380952,4,1,0,100,0,0
78644,-99.9999999999999,4,1,0,100,0,0
79149,-99.9999999999999,4,1,0,100,0,0
79212,-95.2380952380952,4,1,0,100,0,0
79275,-90.9090909090909,4,1,0,100,0,0
79338,-86.9565217391304,4,1,0,100,0,0
79401,-83.3333333333333,4,1,0,100,0,0
79464,-80,4,1,0,100,0,0
79527,-76.9230769230769,4,1,0,100,0,0
79590,-74.0740740740741,4,1,0,100,0,0
79653,-71.4285714285714,4,1,0,100,0,0
79716,-111.111111111111,4,1,0,100,0,0
87216,-111.111111111111,4,1,0,100,0,0
87342,-105.263157894737,4,1,0,100,0,0
87468,-99.9999999999999,4,1,0,100,0,0
87594,-95.2380952380952,4,1,0,100,0,0
87720,-90.9090909090909,4,1,0,100,0,0
95787,-66.6666666666667,4,1,0,100,0,0
97804,-58.8235294117647,4,1,0,100,0,0
99569,-50,4,1,0,100,0,0
99821,-90.9090909090909,4,1,0,100,0,1
115955,-90.9090909090909,4,1,0,100,0,0
116082,-100,4,1,0,100,0,0
122510,-76.9230769230769,4,1,0,100,0,0
123014,-62.5,4,1,0,100,0,0
124023,-50,4,1,0,100,0,0

[HitObjects]
212,190,998,1,0,0:0:0:0:
196,193,1250,1,8,0:0:0:0:
170,37,1376,1,0,0:0:0:0:
170,37,1628,1,0,0:0:0:0:
175,163,1754,1,8,0:0:0:0:
165,42,2006,1,0,0:0:0:0:
240,50,2132,1,0,0:0:0:0:
175,163,2258,1,8,0:0:0:0:
182,76,2384,1,0,0:0:0:0:
170,155,2636,1,0,0:0:0:0:
170,155,2762,1,8,0:0:0:0:
203,128,2888,1,8,0:0:0:0:
176,147,3014,5,0,0:0:0:0:
165,59,3140,1,8,0:0:0:0:
165,59,3203,1,0,0:0:0:0:
176,147,3266,1,8,0:0:0:0:
159,37,3392,1,0,0:0:0:0:
196,65,3645,1,0,0:0:0:0:
196,65,3771,1,8,0:0:0:0:
186,141,3897,1,8,0:0:0:0:
148,69,4023,1,0,0:0:0:0:
151,73,4149,1,0,0:0:0:0:
151,74,4212,1,0,0:0:0:0:
148,69,4275,1,8,0:0:0:0:
164,78,4401,1,0,0:0:0:0:
148,69,4653,1,0,0:0:0:0:
148,69,4779,1,8,0:0:0:0:
179,62,5031,5,0,0:0:0:0:
194,27,5157,1,0,0:0:0:0:
167,85,5283,1,8,0:0:0:0:
158,65,5409,1,0,0:0:0:0:
155,67,5661,1,0,0:0:0:0:
155,67,5787,1,8,0:0:0:0:
191,89,5913,1,0,0:0:0:0:
166,80,6166,1,0,0:0:0:0:
167,85,6292,1,8,0:0:0:0:
196,50,6544,1,0,0:0:0:0:
171,51,6670,1,0,0:0:0:0:
191,89,6796,1,8,0:0:0:0:
173,154,6922,1,8,0:0:0:0:
166,67,7048,5,0,0:0:0:0:
166,74,7174,1,8,0:0:0:0:
166,74,7237,1,0,0:0:0:0:
166,72,7300,1,8,0:0:0:0:
161,72,7426,1,0,0:0:0:0:
161,72,7678,1,0,0:0:0:0:
161,72,7804,1,8,0:0:0:0:
161,62,7930,1,8,0:0:0:0:
152,64,8056,1,0,0:0:0:0:
159,97,8308,1,8,0:0:0:0:
159,97,8561,1,0,0:0:0:0:
159,97,8813,1,8,0:0:0:0:
159,97,9065,5,4,0:0:0:0:
147,151,11082,5,0,0:0:0:0:
147,151,11145,1,0,0:0:0:0:
147,151,11208,1,0,0:0:0:0:
147,151,11271,1,0,0:0:0:0:
147,151,11334,1,0,0:0:0:0:
147,151,11397,1,0,0:0:0:0:
147,151,11460,1,0,0:0:0:0:
147,151,11523,1,0,0:0:0:0:
147,151,11586,1,0,0:0:0:0:
147,151,11649,1,0,0:0:0:0:
147,151,11712,1,0,0:0:0:0:
147,151,11775,1,0,0:0:0:0:
147,151,11838,1,12,0:0:0:0:
171,122,12090,5,12,0:0:0:0:
156,72,12216,1,0,0:0:0:0:
156,72,12279,1,0,0:0:0:0:
178,69,12342,1,8,0:0:0:0:
176,78,12468,1,0,0:0:0:0:
170,82,12531,1,8,0:0:0:0:
176,78,12594,1,0,0:0:0:0:
170,82,12657,1,0,0:0:0:0:
169,83,12720,1,8,0:0:0:0:
170,83,12846,1,0,0:0:0:0:
156,53,12972,1,8,0:0:0:0:
156,53,13035,1,8,0:0:0:0:
170,25,13098,1,0,0:0:0:0:
139,80,13224,1,8,0:0:0:0:
143,165,13287,1,8,0:0:0:0:
139,80,13350,1,0,0:0:0:0:
150,57,13413,1,8,0:0:0:0:
150,60,13476,1,0,0:0:0:0:
150,57,13540,1,0,0:0:0:0:
150,61,13603,1,8,0:0:0:0:
150,61,13729,1,8,0:0:0:0:
166,82,13855,1,0,0:0:0:0:
166,82,13918,1,0,0:0:0:0:
166,82,13981,1,8,0:0:0:0:
178,30,14107,1,0,0:0:0:0:
220,58,14233,1,8,0:0:0:0:
220,58,14296,1,0,0:0:0:0:
204,67,14359,1,8,0:0:0:0:
179,62,14485,1,0,0:0:0:0:
173,42,14548,1,8,0:0:0:0:
174,42,14611,1,0,0:0:0:0:
173,42,14674,1,0,0:0:0:0:
174,42,14737,1,8,0:0:0:0:
167,36,14863,1,0,0:0:0:0:
167,36,14989,1,8,0:0:0:0:
200,35,15115,5,4,0:0:0:0:
148,111,15241,1,4,0:0:0:0:
148,111,15367,1,4,0:0:0:0:
148,111,15493,1,4,0:0:0:0:
169,87,15619,1,8,0:0:0:0:
169,87,15682,1,0,0:0:0:0:
186,62,15808,1,0,0:0:0:0:
191,77,15934,1,0,0:0:0:0:
186,62,15997,1,8,0:0:0:0:
146,96,16124,5,12,0:0:0:0:
101,148,16250,1,0,0:0:0:0:
144,153,16313,1,0,0:0:0:0:
101,148,16376,1,8,0:0:0:0:
193,50,16502,1,8,0:0:0:0:
186,62,16565,1,8,0:0:0:0:
193,50,16628,1,0,0:0:0:0:
182,60,16691,1,0,0:0:0:0:
180,62,16754,1,8,0:0:0:0:
190,67,16880,1,0,0:0:0:0:
190,67,17006,1,8,0:0:0:0:
191,82,17069,1,8,0:0:0:0:
191,79,17132,1,0,0:0:0:0:
131,76,17258,5,4,0:0:0:0:
131,76,17384,1,4,0:0:0:0:
131,76,17510,1,4,0:0:0:0:
187,84,17636,1,0,0:0:0:0:
127,106,17762,1,8,0:0:0:0:
127,106,17888,1,0,0:0:0:0:
171,74,17951,1,0,0:0:0:0:
171,74,18014,1,8,0:0:0:0:
166,64,18140,1,0,0:0:0:0:
187,113,18266,5,12,0:0:0:0:
187,113,18392,1,12,0:0:0:0:
187,113,18519,1,12,0:0:0:0:
177,76,18645,1,0,0:0:0:0:
176,81,18771,1,8,0:0:0:0:
176,81,18897,1,0,0:0:0:0:
186,84,18960,1,8,0:0:0:0:
171,102,19023,1,0,0:0:0:0:
171,102,19149,5,8,0:0:0:0:
193,64,19212,1,0,0:0:0:0:
188,67,19275,1,8,0:0:0:0:
193,64,19338,1,8,0:0:0:0:
188,66,19401,1,0,0:0:0:0:
153,79,19527,5,8,0:0:0:0:
154,79,19590,1,0,0:0:0:0:
153,79,19653,1,8,0:0:0:0:
166,77,19779,1,0,0:0:0:0:
164,79,19905,5,8,0:0:0:0:
164,79,19968,1,0,0:0:0:0:
164,79,20031,1,0,0:0:0:0:
164,79,20094,1,0,0:0:0:0:
150,51,20157,5,8,0:0:0:0:
190,72,20283,1,8,0:0:0:0:
191,75,20346,1,0,0:0:0:0:
191,75,20409,1,8,0:0:0:0:
203,53,20535,1,0,0:0:0:0:
197,26,20598,1,0,0:0:0:0:
203,53,20661,1,0,0:0:0:0:
197,26,20724,1,0,0:0:0:0:
197,26,20787,1,8,0:0:0:0:
186,62,20913,1,0,0:0:0:0:
195,42,21040,1,8,0:0:0:0:
189,38,21103,1,8,0:0:0:0:
195,44,21166,1,0,0:0:0:0:
210,45,21292,1,8,0:0:0:0:
209,49,21355,1,8,0:0:0:0:
181,22,21418,1,0,0:0:0:0:
176,32,21481,1,8,0:0:0:0:
210,45,21544,1,0,0:0:0:0:
189,33,21607,1,0,0:0:0:0:
189,33,21670,1,8,0:0:0:0:
175,34,21796,1,8,0:0:0:0:
176,75,21922,1,0,0:0:0:0:
176,75,21985,1,0,0:0:0:0:
175,69,22048,1,8,0:0:0:0:
171,87,22111,1,8,0:0:0:0:
176,75,22174,1,0,0:0:0:0:
155,104,22300,1,8,0:0:0:0:
156,103,22363,1,0,0:0:0:0:
155,104,22426,1,8,0:0:0:0:
181,44,22489,1,0,0:0:0:0:
181,42,22552,1,8,0:0:0:0:
168,51,22615,1,8,0:0:0:0:
181,42,22678,1,0,0:0:0:0:
161,19,22741,1,0,0:0:0:0:
168,12,22804,1,8,0:0:0:0:
170,43,22930,1,0,0:0:0:0:
174,49,22993,1,0,0:0:0:0:
170,44,23056,1,8,0:0:0:0:
168,25,23182,5,4,0:0:0:0:
171,65,23308,1,4,0:0:0:0:
171,66,23434,1,4,0:0:0:0:
171,66,23561,1,4,0:0:0:0:
171,66,23687,1,8,0:0:0:0:
172,67,23750,1,0,0:0:0:0:
172,67,23876,1,0,0:0:0:0:
171,65,24002,1,0,0:0:0:0:
171,65,24065,1,8,0:0:0:0:
171,66,24191,5,12,0:0:0:0:
181,71,24317,1,0,0:0:0:0:
176,59,24380,1,0,0:0:0:0:
181,71,24443,1,8,0:0:0:0:
171,62,24569,1,8,0:0:0:0:
169,62,24632,1,8,0:0:0:0:
171,62,24695,1,0,0:0:0:0:
171,65,24758,1,0,0:0:0:0:
171,65,24821,1,8,0:0:0:0:
171,55,24947,1,0,0:0:0:0:
172,60,25010,1,0,0:0:0:0:
171,55,25073,1,8,0:0:0:0:
152,113,25325,5,4,0:0:0:0:
152,113,25451,1,4,0:0:0:0:
152,113,25577,1,4,0:0:0:0:
152,113,25703,1,0,0:0:0:0:
152,113,25829,1,8,0:0:0:0:
152,113,25955,1,0,0:0:0:0:
156,63,26019,1,0,0:0:0:0:
156,63,26082,1,8,0:0:0:0:
186,55,26334,5,12,0:0:0:0:
186,55,26460,1,12,0:0:0:0:
186,55,26586,1,12,0:0:0:0:
186,55,26712,1,0,0:0:0:0:
170,77,26838,1,8,0:0:0:0:
170,77,26964,1,0,0:0:0:0:
174,35,27027,1,0,0:0:0:0:
174,35,27090,1,8,0:0:0:0:
173,36,27216,5,8,0:0:0:0:
181,58,27279,1,0,0:0:0:0:
180,59,27342,1,8,0:0:0:0:
180,59,27405,1,8,0:0:0:0:
180,59,27468,1,0,0:0:0:0:
201,17,27594,5,8,0:0:0:0:
201,17,27657,1,0,0:0:0:0:
201,17,27720,1,8,0:0:0:0:
86,131,27783,1,8,0:0:0:0:
201,17,27846,1,0,0:0:0:0:
86,131,27909,1,0,0:0:0:0:
176,18,27972,1,8,0:0:0:0:
176,18,28035,1,8,0:0:0:0:
176,18,28098,1,0,0:0:0:0:
176,18,28161,1,0,0:0:0:0:
176,18,28224,5,12,0:0:0:0:
88,177,28350,1,0,0:0:0:0:
183,96,28413,1,0,0:0:0:0:
88,177,28476,1,8,0:0:0:0:
88,177,28603,1,8,0:0:0:0:
156,106,28729,1,0,0:0:0:0:
178,57,28792,1,0,0:0:0:0:
178,57,28855,1,0,0:0:0:0:
156,106,28918,1,0,0:0:0:0:
156,106,28981,1,8,0:0:0:0:
205,13,29107,1,0,0:0:0:0:
205,40,29170,1,8,0:0:0:0:
205,40,29233,1,0,0:0:0:0:
186,61,29359,1,0,0:0:0:0:
186,62,29422,1,0,0:0:0:0:
186,61,29485,1,8,0:0:0:0:
183,36,29611,1,0,0:0:0:0:
183,36,29674,1,0,0:0:0:0:
181,47,29737,1,8,0:0:0:0:
179,49,29800,1,8,0:0:0:0:
181,47,29863,1,0,0:0:0:0:
158,72,29989,1,8,0:0:0:0:
158,72,30115,1,0,0:0:0:0:
174,47,30241,5,8,0:0:0:0:
202,86,30367,1,0,0:0:0:0:
202,86,30430,1,0,0:0:0:0:
202,86,30493,1,8,0:0:0:0:
186,77,30619,1,0,0:0:0:0:
172,50,30682,1,0,0:0:0:0:
186,77,30745,1,8,0:0:0:0:
172,51,30808,1,8,0:0:0:0:
170,42,30871,1,0,0:0:0:0:
169,43,30997,1,0,0:0:0:0:
162,42,31124,1,0,0:0:0:0:
162,42,31187,1,0,0:0:0:0:
161,42,31250,1,8,0:0:0:0:
175,59,31376,1,0,0:0:0:0:
175,60,31502,1,8,0:0:0:0:
204,44,31628,1,0,0:0:0:0:
204,44,31754,1,12,0:0:0:0:
138,117,32006,1,4,0:0:0:0:
138,117,32258,5,12,0:0:0:0:
151,209,32384,1,0,0:0:0:0:
151,209,32447,1,0,0:0:0:0:
151,209,32510,1,8,0:0:0:0:
150,105,32636,1,0,0:0:0:0:
166,65,32699,1,0,0:0:0:0:
150,105,32762,1,0,0:0:0:0:
152,107,32825,1,8,0:0:0:0:
150,105,32888,1,0,0:0:0:0:
166,65,33014,1,8,0:0:0:0:
183,51,33077,1,8,0:0:0:0:
166,65,33140,1,0,0:0:0:0:
165,23,33266,1,8,0:0:0:0:
197,28,33329,1,0,0:0:0:0:
173,51,33392,1,0,0:0:0:0:
173,51,33455,1,0,0:0:0:0:
173,51,33519,1,8,0:0:0:0:
200,51,33645,1,0,0:0:0:0:
200,51,33708,1,0,0:0:0:0:
200,51,33771,1,8,0:0:0:0:
199,50,33834,1,8,0:0:0:0:
198,52,33897,1,0,0:0:0:0:
198,52,34023,1,8,0:0:0:0:
201,42,34149,1,0,0:0:0:0:
201,42,34275,5,8,0:0:0:0:
161,32,34338,1,8,0:0:0:0:
197,67,34401,1,0,0:0:0:0:
171,109,34527,1,8,0:0:0:0:
170,97,34590,1,0,0:0:0:0:
165,97,34653,1,8,0:0:0:0:
183,12,34716,1,8,0:0:0:0:
165,97,34779,1,0,0:0:0:0:
173,41,34905,1,0,0:0:0:0:
173,41,35031,1,8,0:0:0:0:
180,57,35157,1,0,0:0:0:0:
181,54,35283,1,12,0:0:0:0:
154,75,35661,1,12,0:0:0:0:
158,77,36040,1,8,0:0:0:0:
166,67,36103,1,0,0:0:0:0:
158,77,36166,1,0,0:0:0:0:
158,77,36229,1,0,0:0:0:0:
154,75,36292,5,8,0:0:0:0:
99,122,36418,1,0,0:0:0:0:
150,97,36481,1,0,0:0:0:0:
99,122,36544,1,0,0:0:0:0:
178,50,36670,1,8,0:0:0:0:
179,47,36796,1,0,0:0:0:0:
163,46,36922,1,0,0:0:0:0:
162,47,37048,1,8,0:0:0:0:
166,52,37174,1,0,0:0:0:0:
167,52,37237,1,0,0:0:0:0:
166,52,37300,1,8,0:0:0:0:
146,111,37363,1,0,0:0:0:0:
214,62,37426,1,0,0:0:0:0:
193,27,37552,1,0,0:0:0:0:
149,22,37615,1,0,0:0:0:0:
191,42,37678,1,8,0:0:0:0:
191,42,37804,1,8,0:0:0:0:
197,23,37930,1,0,0:0:0:0:
197,23,38056,1,0,0:0:0:0:
182,55,38182,1,0,0:0:0:0:
182,55,38245,1,0,0:0:0:0:
182,55,38308,5,8,0:0:0:0:
127,32,38434,1,0,0:0:0:0:
131,34,38497,1,0,0:0:0:0:
176,73,38561,1,0,0:0:0:0:
131,40,38624,1,0,0:0:0:0:
176,73,38687,1,8,0:0:0:0:
183,69,38813,1,0,0:0:0:0:
193,43,38939,1,8,0:0:0:0:
183,42,39002,1,8,0:0:0:0:
193,43,39065,1,0,0:0:0:0:
182,49,39128,1,0,0:0:0:0:
193,43,39191,1,8,0:0:0:0:
173,33,39317,1,8,0:0:0:0:
182,33,39443,1,0,0:0:0:0:
197,36,39506,1,0,0:0:0:0:
181,34,39569,1,8,0:0:0:0:
181,34,39695,1,0,0:0:0:0:
181,34,39821,1,12,0:0:0:0:
181,34,40073,1,4,0:0:0:0:
181,34,40325,5,12,0:0:0:0:
176,155,40451,1,0,0:0:0:0:
176,155,40514,1,0,0:0:0:0:
176,155,40577,1,0,0:0:0:0:
175,162,40703,1,8,0:0:0:0:
175,162,40829,1,0,0:0:0:0:
177,56,40955,1,0,0:0:0:0:
177,56,41082,1,8,0:0:0:0:
187,38,41208,1,0,0:0:0:0:
187,38,41271,1,0,0:0:0:0:
192,32,41334,1,8,0:0:0:0:
186,29,41460,1,0,0:0:0:0:
185,34,41523,1,0,0:0:0:0:
185,32,41586,1,0,0:0:0:0:
185,32,41712,1,8,0:0:0:0:
136,75,41838,1,8,0:0:0:0:
136,75,41901,1,8,0:0:0:0:
136,75,41964,1,0,0:0:0:0:
136,75,42027,1,0,0:0:0:0:
136,75,42090,1,8,0:0:0:0:
181,53,42216,1,0,0:0:0:0:
176,11,42342,5,8,0:0:0:0:
201,58,42468,1,0,0:0:0:0:
201,58,42531,1,0,0:0:0:0:
201,57,42594,1,0,0:0:0:0:
201,58,42720,1,8,0:0:0:0:
176,74,42846,1,0,0:0:0:0:
167,63,42972,1,8,0:0:0:0:
161,61,43035,1,0,0:0:0:0:
167,64,43098,1,0,0:0:0:0:
159,58,43161,1,0,0:0:0:0:
161,61,43224,1,8,0:0:0:0:
191,48,43350,1,12,0:0:0:0:
179,78,43729,1,12,0:0:0:0:
177,87,44107,1,8,0:0:0:0:
176,87,44170,1,0,0:0:0:0:
177,87,44233,1,0,0:0:0:0:
176,87,44296,1,0,0:0:0:0:
177,87,44359,5,8,0:0:0:0:
174,92,44485,1,0,0:0:0:0:
174,92,44611,1,8,0:0:0:0:
174,92,44737,1,8,0:0:0:0:
174,92,44863,1,0,0:0:0:0:
174,92,45115,1,0,0:0:0:0:
146,112,45367,5,12,0:0:0:0:
146,112,45493,1,12,0:0:0:0:
146,112,45619,1,12,0:0:0:0:
146,112,45745,1,12,0:0:0:0:
146,112,45871,1,12,0:0:0:0:
122,97,46124,5,12,0:0:0:0:
191,62,46376,5,8,0:0:0:0:
167,91,46439,1,0,0:0:0:0:
167,91,46502,1,8,0:0:0:0:
174,36,46565,1,8,0:0:0:0:
167,91,46628,1,0,0:0:0:0:
167,91,46754,5,8,0:0:0:0:
167,91,46817,1,8,0:0:0:0:
167,91,46880,1,0,0:0:0:0:
185,46,47006,5,8,0:0:0:0:
185,46,47069,1,0,0:0:0:0:
165,56,47132,1,8,0:0:0:0:
176,66,47258,5,8,0:0:0:0:
180,54,47321,1,0,0:0:0:0:
176,66,47384,1,0,0:0:0:0:
187,61,47510,5,8,0:0:0:0:
187,62,47573,1,0,0:0:0:0:
187,61,47636,1,8,0:0:0:0:
187,62,47699,1,8,0:0:0:0:
187,61,47762,1,0,0:0:0:0:
171,37,47825,1,0,0:0:0:0:
187,62,47888,1,8,0:0:0:0:
186,64,48014,5,8,0:0:0:0:
186,64,48140,1,0,0:0:0:0:
174,32,48203,1,0,0:0:0:0:
186,65,48266,1,8,0:0:0:0:
182,37,48329,1,8,0:0:0:0:
187,61,48392,1,0,0:0:0:0:
163,53,48519,5,8,0:0:0:0:
163,54,48582,1,0,0:0:0:0:
163,53,48645,1,8,0:0:0:0:
193,41,48771,1,8,0:0:0:0:
193,41,48897,1,0,0:0:0:0:
157,47,49023,5,8,0:0:0:0:
161,62,49086,1,0,0:0:0:0:
157,47,49149,1,0,0:0:0:0:
173,37,49212,1,0,0:0:0:0:
185,45,49275,1,8,0:0:0:0:
161,62,49401,5,0,0:0:0:0:
208,53,49464,1,0,0:0:0:0:
206,57,49527,1,8,0:0:0:0:
208,53,49590,1,0,0:0:0:0:
206,57,49653,1,8,0:0:0:0:
208,54,49716,1,8,0:0:0:0:
206,57,49779,1,0,0:0:0:0:
205,57,49905,1,8,0:0:0:0:
205,57,49968,1,0,0:0:0:0:
185,45,50094,1,0,0:0:0:0:
181,47,50220,1,0,0:0:0:0:
185,45,50283,1,8,0:0:0:0:
166,44,50409,5,8,0:0:0:0:
146,126,50472,1,0,0:0:0:0:
146,126,50535,1,8,0:0:0:0:
146,126,50598,1,8,0:0:0:0:
146,126,50661,1,0,0:0:0:0:
187,44,50724,1,0,0:0:0:0:
187,42,50787,1,8,0:0:0:0:
185,45,50850,1,8,0:0:0:0:
185,45,50913,1,0,0:0:0:0:
187,42,51040,5,8,0:0:0:0:
175,12,51103,1,8,0:0:0:0:
175,12,51166,1,0,0:0:0:0:
174,57,51292,5,8,0:0:0:0:
186,68,51355,1,0,0:0:0:0:
174,57,51418,1,0,0:0:0:0:
180,65,51544,5,8,0:0:0:0:
180,65,51670,1,8,0:0:0:0:
180,65,51796,1,0,0:0:0:0:
187,83,51922,5,0,0:0:0:0:
187,83,51985,1,0,0:0:0:0:
187,83,52048,1,8,0:0:0:0:
187,83,52111,1,0,0:0:0:0:
186,83,52174,1,8,0:0:0:0:
192,24,52300,5,8,0:0:0:0:
192,24,52363,1,0,0:0:0:0:
192,24,52426,1,8,0:0:0:0:
204,12,52552,5,8,0:0:0:0:
204,12,52678,1,8,0:0:0:0:
216,61,52804,1,8,0:0:0:0:
216,61,52867,1,8,0:0:0:0:
216,61,52930,1,8,0:0:0:0:
171,42,53056,5,8,0:0:0:0:
171,42,53119,1,0,0:0:0:0:
176,47,53182,1,0,0:0:0:0:
190,31,53308,1,0,0:0:0:0:
189,32,53434,5,12,0:0:0:0:
200,62,53561,5,0,0:0:0:0:
199,63,53687,1,0,0:0:0:0:
200,62,53813,5,12,0:0:0:0:
200,62,53939,5,0,0:0:0:0:
200,62,54065,1,0,0:0:0:0:
200,62,54191,5,12,0:0:0:0:
241,59,54443,5,12,0:0:0:0:
145,128,54569,1,8,0:0:0:0:
145,128,54632,1,8,0:0:0:0:
140,121,54695,1,0,0:0:0:0:
199,34,54821,5,8,0:0:0:0:
197,38,54884,1,0,0:0:0:0:
197,38,54947,1,0,0:0:0:0:
199,34,55010,1,0,0:0:0:0:
199,34,55073,1,8,0:0:0:0:
170,29,55199,1,0,0:0:0:0:
170,29,55325,5,8,0:0:0:0:
175,34,55388,1,8,0:0:0:0:
170,29,55451,1,0,0:0:0:0:
147,48,55577,5,0,0:0:0:0:
147,48,55640,1,8,0:0:0:0:
147,48,55703,1,0,0:0:0:0:
147,48,55766,1,0,0:0:0:0:
147,48,55829,1,8,0:0:0:0:
170,29,55955,5,0,0:0:0:0:
174,33,56019,1,0,0:0:0:0:
174,33,56082,1,8,0:0:0:0:
174,2,56208,1,0,0:0:0:0:
174,2,56334,5,8,0:0:0:0:
179,23,56397,1,8,0:0:0:0:
174,2,56460,1,0,0:0:0:0:
217,38,56586,5,8,0:0:0:0:
203,28,56649,1,0,0:0:0:0:
217,38,56712,1,8,0:0:0:0:
190,40,56838,5,0,0:0:0:0:
190,40,56901,1,0,0:0:0:0:
165,49,56964,1,8,0:0:0:0:
165,49,57027,1,8,0:0:0:0:
165,49,57090,1,0,0:0:0:0:
174,52,57153,1,0,0:0:0:0:
171,41,57216,1,8,0:0:0:0:
191,20,57342,5,0,0:0:0:0:
191,20,57405,1,8,0:0:0:0:
191,20,57468,1,0,0:0:0:0:
174,52,57531,1,0,0:0:0:0:
175,49,57594,1,8,0:0:0:0:
174,52,57657,1,0,0:0:0:0:
175,49,57720,1,8,0:0:0:0:
185,29,57783,1,8,0:0:0:0:
185,29,57846,1,0,0:0:0:0:
191,20,57972,1,8,0:0:0:0:
181,29,58035,1,0,0:0:0:0:
181,29,58161,1,0,0:0:0:0:
181,29,58287,1,0,0:0:0:0:
181,30,58350,1,8,0:0:0:0:
161,25,58476,5,8,0:0:0:0:
154,47,58540,1,0,0:0:0:0:
154,43,58603,1,0,0:0:0:0:
154,47,58666,1,0,0:0:0:0:
154,43,58729,1,8,0:0:0:0:
211,41,58855,5,0,0:0:0:0:
211,41,58918,1,0,0:0:0:0:
211,41,58981,1,0,0:0:0:0:
211,41,59107,5,8,0:0:0:0:
211,41,59170,1,8,0:0:0:0:
167,28,59233,1,0,0:0:0:0:
176,78,59359,5,8,0:0:0:0:
176,78,59422,1,0,0:0:0:0:
176,78,59485,1,0,0:0:0:0:
165,46,59611,5,8,0:0:0:0:
165,46,59737,1,8,0:0:0:0:
164,50,59863,1,0,0:0:0:0:
164,50,59989,1,8,0:0:0:0:
164,51,60052,1,8,0:0:0:0:
164,51,60115,1,0,0:0:0:0:
164,51,60178,1,0,0:0:0:0:
164,51,60241,1,8,0:0:0:0:
186,27,60367,5,0,0:0:0:0:
186,27,60430,1,0,0:0:0:0:
186,27,60493,1,0,0:0:0:0:
186,36,60619,5,8,0:0:0:0:
186,36,60745,1,8,0:0:0:0:
192,43,60871,1,8,0:0:0:0:
192,43,60997,1,0,0:0:0:0:
187,9,61061,1,0,0:0:0:0:
185,11,61124,1,8,0:0:0:0:
185,11,61187,1,8,0:0:0:0:
186,11,61250,1,0,0:0:0:0:
177,25,61376,1,0,0:0:0:0:
177,25,61502,5,12,0:0:0:0:
201,73,61628,5,0,0:0:0:0:
201,73,61754,1,0,0:0:0:0:
201,73,61880,5,12,0:0:0:0:
201,73,62006,5,0,0:0:0:0:
201,73,62132,1,0,0:0:0:0:
201,73,62258,5,12,0:0:0:0:
107,121,62510,5,8,0:0:0:0:
107,121,62636,1,8,0:0:0:0:
157,54,62762,5,4,0:0:0:0:
153,129,62888,1,8,0:0:0:0:
145,130,62951,1,8,0:0:0:0:
153,129,63014,1,0,0:0:0:0:
145,129,63140,1,8,0:0:0:0:
145,129,63266,1,0,0:0:0:0:
145,129,63392,1,8,0:0:0:0:
145,129,63455,1,0,0:0:0:0:
177,72,63519,1,0,0:0:0:0:
169,77,63645,1,8,0:0:0:0:
169,77,63708,1,0,0:0:0:0:
169,77,63771,1,0,0:0:0:0:
169,77,63834,1,0,0:0:0:0:
169,77,63897,1,8,0:0:0:0:
169,77,64023,1,8,0:0:0:0:
169,77,64086,1,0,0:0:0:0:
169,77,64149,1,8,0:0:0:0:
169,77,64275,1,0,0:0:0:0:
169,77,64401,1,8,0:0:0:0:
169,77,64464,1,0,0:0:0:0:
169,77,64527,1,0,0:0:0:0:
169,77,64653,1,8,0:0:0:0:
169,77,64716,1,0,0:0:0:0:
169,77,64779,1,8,0:0:0:0:
211,23,64842,1,0,0:0:0:0:
169,77,64905,1,8,0:0:0:0:
166,82,64968,1,8,0:0:0:0:
169,77,65031,1,0,0:0:0:0:
166,82,65094,1,0,0:0:0:0:
167,82,65157,1,8,0:0:0:0:
167,82,65283,1,0,0:0:0:0:
182,48,65346,1,0,0:0:0:0:
166,82,65409,1,8,0:0:0:0:
166,82,65535,5,4,0:0:0:0:
186,84,65661,1,4,0:0:0:0:
186,84,65787,1,4,0:0:0:0:
186,84,65913,1,4,0:0:0:0:
186,84,66040,1,8,0:0:0:0:
186,84,66103,1,0,0:0:0:0:
186,84,66229,1,0,0:0:0:0:
192,44,66355,1,0,0:0:0:0:
179,49,66418,1,8,0:0:0:0:
179,51,66544,5,8,0:0:0:0:
160,63,66670,1,0,0:0:0:0:
158,67,66733,1,0,0:0:0:0:
159,63,66796,1,8,0:0:0:0:
156,71,66922,1,8,0:0:0:0:
155,72,66985,1,8,0:0:0:0:
156,71,67048,1,0,0:0:0:0:
155,72,67111,1,0,0:0:0:0:
156,71,67174,1,8,0:0:0:0:
176,32,67300,1,0,0:0:0:0:
176,32,67426,1,8,0:0:0:0:
176,32,67552,5,4,0:0:0:0:
169,48,67678,1,4,0:0:0:0:
169,48,67804,1,4,0:0:0:0:
169,51,67930,1,4,0:0:0:0:
169,51,68056,1,0,0:0:0:0:
211,53,68182,1,8,0:0:0:0:
200,51,68308,1,0,0:0:0:0:
200,51,68371,1,0,0:0:0:0:
166,42,68434,1,8,0:0:0:0:
176,84,68687,5,12,0:0:0:0:
176,84,68813,1,12,0:0:0:0:
176,84,68939,1,12,0:0:0:0:
176,84,69065,1,0,0:0:0:0:
176,84,69191,1,8,0:0:0:0:
156,52,69254,1,8,0:0:0:0:
171,77,69317,1,0,0:0:0:0:
171,77,69443,1,8,0:0:0:0:
191,40,69569,5,8,0:0:0:0:
194,47,69632,1,0,0:0:0:0:
194,47,69695,1,8,0:0:0:0:
194,47,69758,1,8,0:0:0:0:
194,47,69821,1,0,0:0:0:0:
177,53,69947,5,8,0:0:0:0:
178,53,70010,1,0,0:0:0:0:
177,53,70073,1,8,0:0:0:0:
177,53,70199,1,0,0:0:0:0:
171,77,70325,5,0,0:0:0:0:
198,31,70388,1,0,0:0:0:0:
198,31,70451,1,0,0:0:0:0:
168,76,70514,1,0,0:0:0:0:
168,76,70577,5,8,0:0:0:0:
179,205,70703,1,8,0:0:0:0:
176,46,70766,1,8,0:0:0:0:
179,205,70829,1,0,0:0:0:0:
176,57,70955,1,8,0:0:0:0:
175,58,71082,1,0,0:0:0:0:
176,46,71145,1,0,0:0:0:0:
176,46,71208,1,8,0:0:0:0:
189,37,71334,1,0,0:0:0:0:
189,37,71460,1,8,0:0:0:0:
185,63,71586,1,0,0:0:0:0:
208,40,71712,1,8,0:0:0:0:
209,38,71775,1,8,0:0:0:0:
224,42,71838,1,0,0:0:0:0:
200,36,71901,1,0,0:0:0:0:
183,75,71964,1,8,0:0:0:0:
183,75,72090,1,0,0:0:0:0:
196,40,72153,1,0,0:0:0:0:
196,40,72216,1,8,0:0:0:0:
196,41,72342,1,0,0:0:0:0:
196,41,72468,1,8,0:0:0:0:
176,60,72531,1,8,0:0:0:0:
196,41,72594,1,0,0:0:0:0:
179,57,72720,1,8,0:0:0:0:
159,41,72783,1,0,0:0:0:0:
179,57,72846,1,8,0:0:0:0:
217,40,72909,1,0,0:0:0:0:
165,66,72972,1,8,0:0:0:0:
176,47,73035,1,8,0:0:0:0:
164,67,73098,1,0,0:0:0:0:
175,47,73161,1,0,0:0:0:0:
176,47,73224,1,8,0:0:0:0:
176,47,73350,1,0,0:0:0:0:
187,22,73476,1,8,0:0:0:0:
187,22,73603,5,4,0:0:0:0:
179,29,73729,1,4,0:0:0:0:
179,29,73855,1,4,0:0:0:0:
179,29,73981,1,4,0:0:0:0:
178,30,74107,1,8,0:0:0:0:
178,30,74170,1,0,0:0:0:0:
178,30,74296,1,0,0:0:0:0:
178,30,74422,1,0,0:0:0:0:
178,30,74485,1,8,0:0:0:0:
179,29,74611,5,8,0:0:0:0:
209,69,74737,1,0,0:0:0:0:
209,69,74800,1,0,0:0:0:0:
209,69,74863,1,0,0:0:0:0:
209,69,74989,1,8,0:0:0:0:
205,54,75115,1,0,0:0:0:0:
204,54,75178,1,0,0:0:0:0:
205,54,75241,1,8,0:0:0:0:
179,63,75367,1,0,0:0:0:0:
179,63,75493,1,8,0:0:0:0:
166,87,75745,5,4,0:0:0:0:
166,87,75871,1,4,0:0:0:0:
166,87,75997,1,4,0:0:0:0:
166,87,76124,1,0,0:0:0:0:
166,87,76250,1,8,0:0:0:0:
164,75,76376,1,0,0:0:0:0:
184,71,76439,1,0,0:0:0:0:
166,87,76502,1,8,0:0:0:0:
176,93,76754,5,12,0:0:0:0:
176,93,76880,1,12,0:0:0:0:
176,93,77006,1,12,0:0:0:0:
175,93,77132,1,0,0:0:0:0:
178,39,77258,1,8,0:0:0:0:
178,39,77384,1,0,0:0:0:0:
178,39,77510,1,8,0:0:0:0:
167,32,77636,5,8,0:0:0:0:
167,33,77699,1,0,0:0:0:0:
167,32,77762,1,8,0:0:0:0:
167,32,77888,1,0,0:0:0:0:
185,50,78014,5,8,0:0:0:0:
184,52,78077,1,0,0:0:0:0:
185,50,78140,1,8,0:0:0:0:
184,52,78203,1,8,0:0:0:0:
184,50,78266,1,0,0:0:0:0:
184,52,78329,1,0,0:0:0:0:
184,50,78392,1,8,0:0:0:0:
184,52,78455,1,0,0:0:0:0:
184,50,78519,1,8,0:0:0:0:
185,50,78582,1,8,0:0:0:0:
185,50,78645,1,4,0:0:0:0:
198,52,79149,5,8,0:0:0:0:
197,53,79212,1,8,0:0:0:0:
198,52,79275,1,8,0:0:0:0:
198,52,79338,1,8,0:0:0:0:
197,53,79401,1,8,0:0:0:0:
197,53,79464,1,8,0:0:0:0:
198,52,79527,1,8,0:0:0:0:
198,52,79590,1,8,0:0:0:0:
198,52,79653,5,4,0:0:0:0:
161,191,79905,1,8,0:0:0:0:
161,191,80409,1,8,0:0:0:0:
161,191,80913,1,8,0:0:0:0:
161,191,81418,1,8,0:0:0:0:
163,184,81544,5,0,0:0:0:0:
205,51,81586,1,0,0:0:0:0:
163,184,81628,1,0,0:0:0:0:
163,184,81670,1,0,0:0:0:0:
164,184,81922,1,8,0:0:0:0:
163,184,82426,1,8,0:0:0:0:
163,184,82930,1,8,0:0:0:0:
163,184,83434,1,8,0:0:0:0:
163,184,83687,5,4,0:0:0:0:
173,142,83939,1,8,0:0:0:0:
176,168,84443,1,8,0:0:0:0:
177,164,84569,1,0,0:0:0:0:
177,165,84821,1,0,0:0:0:0:
176,168,84947,1,8,0:0:0:0:
186,138,85451,1,8,0:0:0:0:
186,138,85577,1,0,0:0:0:0:
159,47,85640,1,0,0:0:0:0:
186,138,85703,5,0,0:0:0:0:
171,79,85955,1,8,0:0:0:0:
182,115,86334,1,0,0:0:0:0:
182,116,86460,1,8,0:0:0:0:
252,95,86586,1,0,0:0:0:0:
167,106,86964,1,8,0:0:0:0:
181,126,87216,1,0,0:0:0:0:
181,126,87342,1,0,0:0:0:0:
181,126,87468,1,8,0:0:0:0:
161,42,87594,1,0,0:0:0:0:
161,42,87720,5,4,0:0:0:0:
181,107,87846,1,8,0:0:0:0:
167,54,87909,1,8,0:0:0:0:
181,103,87972,1,0,0:0:0:0:
153,64,88098,1,8,0:0:0:0:
160,22,88161,1,0,0:0:0:0:
153,64,88224,1,0,0:0:0:0:
158,46,88287,1,0,0:0:0:0:
153,64,88350,1,8,0:0:0:0:
161,42,88476,1,0,0:0:0:0:
165,42,88603,1,8,0:0:0:0:
163,46,88666,1,0,0:0:0:0:
165,42,88729,1,0,0:0:0:0:
177,46,88855,1,8,0:0:0:0:
172,47,88918,1,8,0:0:0:0:
177,46,88981,1,0,0:0:0:0:
172,47,89107,1,0,0:0:0:0:
273,82,89149,1,8,0:0:0:0:
273,82,89191,1,8,0:0:0:0:
172,47,89233,1,0,0:0:0:0:
202,29,89359,1,8,0:0:0:0:
195,56,89422,1,8,0:0:0:0:
202,29,89485,1,0,0:0:0:0:
190,40,89548,1,0,0:0:0:0:
205,49,89611,1,8,0:0:0:0:
205,49,89737,5,4,0:0:0:0:
206,22,89863,1,8,0:0:0:0:
202,29,89926,1,8,0:0:0:0:
206,22,89989,1,0,0:0:0:0:
176,28,90115,1,8,0:0:0:0:
202,29,90178,1,0,0:0:0:0:
176,28,90241,1,0,0:0:0:0:
151,25,90304,1,0,0:0:0:0:
168,15,90367,1,8,0:0:0:0:
168,15,90493,1,0,0:0:0:0:
159,33,90619,1,8,0:0:0:0:
158,32,90682,1,0,0:0:0:0:
168,14,90745,1,0,0:0:0:0:
168,46,90871,1,8,0:0:0:0:
168,46,90997,1,0,0:0:0:0:
167,18,91061,1,0,0:0:0:0:
158,28,91124,1,8,0:0:0:0:
163,27,91187,1,8,0:0:0:0:
158,28,91250,1,0,0:0:0:0:
173,61,91376,1,0,0:0:0:0:
223,114,91418,1,8,0:0:0:0:
223,114,91460,1,8,0:0:0:0:
173,61,91502,1,0,0:0:0:0:
181,68,91628,1,0,0:0:0:0:
226,87,91670,1,8,0:0:0:0:
226,87,91712,1,8,0:0:0:0:
181,68,91754,1,0,0:0:0:0:
189,23,91880,5,8,0:0:0:0:
189,23,91943,1,8,0:0:0:0:
155,77,92006,1,0,0:0:0:0:
155,77,92069,1,8,0:0:0:0:
155,77,92132,1,0,0:0:0:0:
183,25,92195,1,0,0:0:0:0:
155,77,92258,1,8,0:0:0:0:
155,77,92384,1,0,0:0:0:0:
155,77,92447,1,0,0:0:0:0:
155,77,92510,1,8,0:0:0:0:
155,77,92636,1,0,0:0:0:0:
155,77,92699,1,0,0:0:0:0:
155,77,92762,1,0,0:0:0:0:
155,77,92888,1,0,0:0:0:0:
169,47,92951,1,0,0:0:0:0:
155,77,93014,1,8,0:0:0:0:
169,47,93077,1,8,0:0:0:0:
169,47,93140,1,0,0:0:0:0:
134,113,93182,1,8,0:0:0:0:
134,113,93224,1,8,0:0:0:0:
169,47,93266,1,0,0:0:0:0:
139,102,93392,1,8,0:0:0:0:
160,42,93455,1,8,0:0:0:0:
139,102,93519,1,0,0:0:0:0:
161,51,93582,1,0,0:0:0:0:
161,51,93645,1,8,0:0:0:0:
159,67,93771,5,0,0:0:0:0:
160,87,93834,1,0,0:0:0:0:
147,117,93897,1,0,0:0:0:0:
160,87,93960,1,0,0:0:0:0:
147,117,94023,1,8,0:0:0:0:
176,12,94149,1,8,0:0:0:0:
171,11,94212,1,8,0:0:0:0:
191,35,94275,1,0,0:0:0:0:
159,43,94338,1,0,0:0:0:0:
159,43,94401,1,0,0:0:0:0:
159,43,94464,1,0,0:0:0:0:
159,43,94527,1,8,0:0:0:0:
191,35,94653,1,0,0:0:0:0:
191,35,94716,1,0,0:0:0:0:
191,35,94779,1,0,0:0:0:0:
184,41,94905,1,0,0:0:0:0:
189,16,94968,1,0,0:0:0:0:
182,47,95031,1,8,0:0:0:0:
179,39,95157,1,0,0:0:0:0:
178,39,95220,1,0,0:0:0:0:
179,39,95283,1,8,0:0:0:0:
178,39,95346,1,0,0:0:0:0:
176,42,95409,1,8,0:0:0:0:
176,40,95472,1,8,0:0:0:0:
176,42,95535,1,0,0:0:0:0:
176,43,95661,1,8,0:0:0:0:
176,44,95787,5,4,0:0:0:0:
163,64,96166,1,4,0:0:0:0:
163,64,96544,1,4,0:0:0:0:
163,64,96922,1,4,0:0:0:0:
159,70,97300,1,4,0:0:0:0:
159,70,97552,1,4,0:0:0:0:
159,70,97804,5,0,0:0:0:0:
176,48,97867,1,0,0:0:0:0:
176,48,97930,1,0,0:0:0:0:
176,48,97993,1,0,0:0:0:0:
176,48,98056,1,0,0:0:0:0:
176,48,98119,1,0,0:0:0:0:
176,48,98182,1,0,0:0:0:0:
176,48,98245,1,0,0:0:0:0:
176,48,98308,1,0,0:0:0:0:
176,48,98371,1,0,0:0:0:0:
176,48,98434,1,0,0:0:0:0:
176,48,98497,1,0,0:0:0:0:
176,48,98561,1,0,0:0:0:0:
176,48,98624,1,0,0:0:0:0:
176,48,98687,1,0,0:0:0:0:
176,48,98750,1,0,0:0:0:0:
176,48,98813,5,8,0:0:0:0:
176,52,98876,1,8,0:0:0:0:
176,52,98939,1,8,0:0:0:0:
176,52,99002,1,8,0:0:0:0:
176,52,99065,1,8,0:0:0:0:
176,53,99569,5,12,0:0:0:0:
151,62,99821,5,12,0:0:0:0:
157,74,99947,1,0,0:0:0:0:
170,68,100010,1,0,0:0:0:0:
157,74,100073,1,0,0:0:0:0:
204,43,100199,1,8,0:0:0:0:
204,42,100262,1,0,0:0:0:0:
204,43,100325,1,0,0:0:0:0:
178,53,100451,1,0,0:0:0:0:
178,53,100514,1,0,0:0:0:0:
178,53,100577,1,8,0:0:0:0:
178,53,100640,1,0,0:0:0:0:
178,53,100703,1,8,0:0:0:0:
164,36,100766,1,8,0:0:0:0:
163,29,100829,1,0,0:0:0:0:
178,53,100955,1,8,0:0:0:0:
178,53,101019,1,0,0:0:0:0:
178,53,101082,1,0,0:0:0:0:
168,31,101208,1,8,0:0:0:0:
168,32,101334,1,0,0:0:0:0:
179,17,101397,1,0,0:0:0:0:
179,45,101460,1,0,0:0:0:0:
179,45,101523,1,0,0:0:0:0:
179,45,101586,1,8,0:0:0:0:
174,43,101712,1,0,0:0:0:0:
213,63,101838,5,12,0:0:0:0:
213,63,101964,1,0,0:0:0:0:
213,63,102027,1,0,0:0:0:0:
213,63,102090,1,8,0:0:0:0:
191,42,102216,1,12,0:0:0:0:
161,71,102468,1,4,0:0:0:0:
161,71,102594,1,12,0:0:0:0:
161,71,102720,1,12,0:0:0:0:
184,31,102846,1,4,0:0:0:0:
181,37,102972,1,0,0:0:0:0:
181,37,103035,1,0,0:0:0:0:
181,37,103098,1,8,0:0:0:0:
181,37,103224,1,4,0:0:0:0:
201,64,103476,1,12,0:0:0:0:
201,64,103603,1,4,0:0:0:0:
200,55,103729,1,8,0:0:0:0:
183,46,103792,1,0,0:0:0:0:
163,37,103855,5,0,0:0:0:0:
184,67,103981,1,0,0:0:0:0:
208,53,104107,1,4,0:0:0:0:
208,53,104233,1,12,0:0:0:0:
228,34,104359,1,0,0:0:0:0:
208,53,104485,1,12,0:0:0:0:
223,43,104611,1,8,0:0:0:0:
208,53,104737,1,4,0:0:0:0:
229,49,104863,1,0,0:0:0:0:
208,53,104989,1,12,0:0:0:0:
208,53,105115,1,4,0:0:0:0:
241,191,105241,1,8,0:0:0:0:
241,191,105367,1,0,0:0:0:0:
203,78,105430,1,0,0:0:0:0:
189,82,105493,1,0,0:0:0:0:
203,78,105556,1,0,0:0:0:0:
189,82,105619,1,8,0:0:0:0:
189,82,105745,1,0,0:0:0:0:
189,82,105871,5,12,0:0:0:0:
183,40,105997,1,0,0:0:0:0:
183,40,106061,1,0,0:0:0:0:
183,40,106124,1,0,0:0:0:0:
183,40,106250,1,12,0:0:0:0:
209,133,106376,1,0,0:0:0:0:
191,62,106502,1,4,0:0:0:0:
191,62,106628,1,12,0:0:0:0:
191,62,106754,1,0,0:0:0:0:
191,62,106880,1,8,0:0:0:0:
178,23,106943,1,0,0:0:0:0:
178,23,107006,1,8,0:0:0:0:
178,23,107069,1,0,0:0:0:0:
179,70,107132,1,8,0:0:0:0:
207,20,107195,1,8,0:0:0:0:
211,12,107258,1,0,0:0:0:0:
211,12,107321,1,0,0:0:0:0:
179,70,107384,1,8,0:0:0:0:
207,20,107447,1,8,0:0:0:0:
207,20,107510,1,0,0:0:0:0:
207,20,107573,1,0,0:0:0:0:
179,70,107636,1,8,0:0:0:0:
172,6,107699,1,8,0:0:0:0:
207,20,107762,1,0,0:0:0:0:
195,30,107888,5,12,0:0:0:0:
193,72,108014,1,0,0:0:0:0:
185,15,108077,1,0,0:0:0:0:
169,79,108140,1,0,0:0:0:0:
169,79,108266,1,8,0:0:0:0:
172,68,108329,1,8,0:0:0:0:
169,68,108392,1,0,0:0:0:0:
187,44,108519,1,0,0:0:0:0:
202,30,108582,1,0,0:0:0:0:
186,45,108645,1,8,0:0:0:0:
200,32,108708,1,8,0:0:0:0:
186,46,108771,1,0,0:0:0:0:
168,54,108897,1,0,0:0:0:0:
168,54,109023,1,8,0:0:0:0:
166,56,109086,1,0,0:0:0:0:
166,54,109149,1,8,0:0:0:0:
190,36,109275,1,0,0:0:0:0:
187,37,109338,1,0,0:0:0:0:
189,37,109401,1,0,0:0:0:0:
187,37,109464,1,0,0:0:0:0:
187,37,109527,1,8,0:0:0:0:
177,57,109653,1,8,0:0:0:0:
177,57,109779,1,0,0:0:0:0:
168,54,109905,5,12,0:0:0:0:
197,142,110031,1,0,0:0:0:0:
197,142,110094,1,0,0:0:0:0:
197,142,110157,1,8,0:0:0:0:
164,97,110283,1,12,0:0:0:0:
164,97,110535,1,4,0:0:0:0:
164,97,110661,1,12,0:0:0:0:
164,97,110787,1,12,0:0:0:0:
164,97,110913,1,4,0:0:0:0:
160,71,111040,1,0,0:0:0:0:
160,71,111103,1,0,0:0:0:0:
160,71,111166,1,8,0:0:0:0:
160,71,111292,1,4,0:0:0:0:
221,55,111544,1,12,0:0:0:0:
221,55,111670,1,4,0:0:0:0:
189,81,111796,1,8,0:0:0:0:
189,81,111859,1,0,0:0:0:0:
189,81,111922,5,0,0:0:0:0:
180,57,112048,1,0,0:0:0:0:
180,57,112174,1,4,0:0:0:0:
176,62,112300,1,12,0:0:0:0:
176,94,112426,1,0,0:0:0:0:
142,71,112552,1,12,0:0:0:0:
176,95,112678,1,8,0:0:0:0:
142,71,112804,1,4,0:0:0:0:
176,73,112930,1,0,0:0:0:0:
142,71,113056,1,12,0:0:0:0:
142,71,113182,1,4,0:0:0:0:
176,76,113308,1,8,0:0:0:0:
183,41,113434,1,0,0:0:0:0:
184,47,113497,1,0,0:0:0:0:
184,47,113561,1,0,0:0:0:0:
184,47,113624,1,0,0:0:0:0:
184,47,113687,1,8,0:0:0:0:
183,41,113813,1,0,0:0:0:0:
183,41,113939,5,12,0:0:0:0:
172,56,114065,1,0,0:0:0:0:
175,53,114128,1,0,0:0:0:0:
172,56,114191,1,0,0:0:0:0:
179,52,114317,1,12,0:0:0:0:
266,199,114443,1,0,0:0:0:0:
163,46,114569,1,4,0:0:0:0:
163,46,114695,1,12,0:0:0:0:
162,46,114821,1,0,0:0:0:0:
162,46,114947,1,8,0:0:0:0:
204,41,115010,1,8,0:0:0:0:
204,41,115073,1,0,0:0:0:0:
196,46,115136,1,0,0:0:0:0:
204,41,115199,1,8,0:0:0:0:
196,46,115262,1,8,0:0:0:0:
198,45,115325,1,0,0:0:0:0:
196,46,115388,1,0,0:0:0:0:
196,46,115451,1,8,0:0:0:0:
196,46,115514,1,0,0:0:0:0:
196,46,115577,1,8,0:0:0:0:
195,47,115640,1,0,0:0:0:0:
195,47,115703,1,8,0:0:0:0:
201,29,115766,1,8,0:0:0:0:
195,47,115829,1,8,0:0:0:0:
201,29,115892,1,8,0:0:0:0:
196,46,115955,5,0,0:0:0:0:
172,95,116082,1,0,0:0:0:0:
172,95,116145,1,0,0:0:0:0:
172,95,116208,1,8,0:0:0:0:
145,137,116334,1,0,0:0:0:0:
145,137,116397,1,0,0:0:0:0:
145,137,116460,1,0,0:0:0:0:
145,137,116586,1,0,0:0:0:0:
145,137,116712,1,8,0:0:0:0:
178,73,116838,1,0,0:0:0:0:
178,73,116901,1,0,0:0:0:0:
178,73,116964,1,0,0:0:0:0:
182,68,117090,1,0,0:0:0:0:
199,53,117153,1,0,0:0:0:0:
184,70,117216,1,8,0:0:0:0:
199,53,117342,1,0,0:0:0:0:
197,55,117405,1,0,0:0:0:0:
198,54,117468,1,8,0:0:0:0:
197,55,117531,1,8,0:0:0:0:
196,56,117594,1,0,0:0:0:0:
191,49,117720,1,8,0:0:0:0:
190,86,117846,1,0,0:0:0:0:
190,85,117909,1,0,0:0:0:0:
191,82,117972,5,0,0:0:0:0:
191,82,118098,1,0,0:0:0:0:
190,86,118161,1,0,0:0:0:0:
191,82,118224,1,8,0:0:0:0:
190,86,118287,1,8,0:0:0:0:
190,86,118350,1,0,0:0:0:0:
160,42,118476,1,8,0:0:0:0:
160,42,118540,1,8,0:0:0:0:
160,42,118603,1,0,0:0:0:0:
160,42,118729,1,8,0:0:0:0:
203,14,118792,1,0,0:0:0:0:
207,39,118855,1,0,0:0:0:0:
205,54,118981,1,0,0:0:0:0:
162,65,119044,1,8,0:0:0:0:
162,65,119107,1,0,0:0:0:0:
201,62,119233,1,12,0:0:0:0:
201,62,119359,1,4,0:0:0:0:
178,41,119611,1,12,0:0:0:0:
178,41,119737,1,4,0:0:0:0:
186,53,119989,5,0,0:0:0:0:
205,107,120115,1,0,0:0:0:0:
205,107,120178,1,0,0:0:0:0:
205,107,120241,1,8,0:0:0:0:
196,50,120367,1,0,0:0:0:0:
196,52,120430,1,0,0:0:0:0:
196,50,120493,1,0,0:0:0:0:
196,58,120619,1,0,0:0:0:0:
196,59,120745,1,8,0:0:0:0:
186,47,120871,1,0,0:0:0:0:
183,50,120934,1,0,0:0:0:0:
186,47,120997,1,0,0:0:0:0:
183,50,121061,1,0,0:0:0:0:
185,47,121124,1,0,0:0:0:0:
183,50,121250,1,8,0:0:0:0:
176,28,121376,1,0,0:0:0:0:
176,30,121439,1,0,0:0:0:0:
176,28,121502,1,8,0:0:0:0:
176,30,121565,1,8,0:0:0:0:
176,29,121628,1,0,0:0:0:0:
185,39,121691,1,0,0:0:0:0:
176,30,121754,1,8,0:0:0:0:
203,17,121880,1,8,0:0:0:0:
207,10,122006,5,4,0:0:0:0:
197,58,122510,1,12,0:0:0:0:
197,58,123014,1,12,0:0:0:0:
197,58,123140,1,12,0:0:0:0:
197,58,123392,1,12,0:0:0:0:
197,58,123519,1,12,0:0:0:0:
197,58,123771,1,12,0:0:0:0:
197,58,123897,1,12,0:0:0:0:
220,67,124023,5,4,0:0:0:0:
235,82,125031,5,0,0:0:0:0:
231,88,125094,1,0,0:0:0:0:
231,88,125157,1,0,0:0:0:0:
235,82,125220,1,0,0:0:0:0:
231,88,125283,1,0,0:0:0:0:
231,89,125346,1,0,0:0:0:0:
231,89,125409,1,0,0:0:0:0:
231,89,125472,1,0,0:0:0:0:
231,89,125535,1,0,0:0:0:0:
231,89,125598,1,0,0:0:0:0:
235,82,125661,1,0,0:0:0:0:
231,89,125724,1,0,0:0:0:0:
235,82,125787,5,12,0:0:0:0:
