osu file format v14

[General]
AudioFilename: audio.mp3
AudioLeadIn: 0
PreviewTime: -1
Countdown: 1
SampleSet: None
StackLeniency: 0.7
Mode: 3
LetterboxInBreaks: 0
SpecialStyle: 0
WidescreenStoryboard: 0

[Editor]
DistanceSpacing: 1.2
BeatDivisor: 12
GridSize: 8
TimelineZoom: 2

[Metadata]
Title:jinitaimei
TitleUnicode:jinitaimei
Artist:yixianjuju
ArtistUnicode:yixianjuju
Creator:LFNB
Version:Hard
Source:
Tags:
BeatmapID:2075111
BeatmapSetID:992263

[Difficulty]
HPDrainRate:8
CircleSize:4
OverallDifficulty:8
ApproachRate:5
SliderMultiplier:1.4
SliderTickRate:1

[Events]
//Background and Video events
//Break Periods
//Storyboard Layer 0 (Background)
//Storyboard Layer 1 (Fail)
//Storyboard Layer 2 (Pass)
//Storyboard Layer 3 (Foreground)
//Storyboard Sound Samples

[TimingPoints]
48,689.655172413793,4,1,0,100,1,0

[HitObjects]
192,192,48,5,0,0:0:0:0:
64,192,48,1,0,0:0:0:0:
192,192,392,1,0,0:0:0:0:
192,192,565,1,0,0:0:0:0:
64,192,737,1,0,0:0:0:0:
320,192,737,1,0,0:0:0:0:
192,192,1082,1,0,0:0:0:0:
320,192,1082,1,0,0:0:0:0:
192,192,1427,1,0,0:0:0:0:
64,192,1427,1,0,0:0:0:0:
448,192,1427,1,0,0:0:0:0:
320,192,1772,1,0,0:0:0:0:
320,192,1944,1,0,0:0:0:0:
64,192,2116,1,0,0:0:0:0:
192,192,2116,1,0,0:0:0:0:
320,192,2116,1,0,0:0:0:0:
192,192,2461,1,0,0:0:0:0:
192,192,2806,1,0,0:0:0:0:
64,192,2806,1,0,0:0:0:0:
320,192,2806,1,0,0:0:0:0:
320,192,3151,1,0,0:0:0:0:
320,192,3323,1,0,0:0:0:0:
192,192,3496,1,0,0:0:0:0:
448,192,3496,1,0,0:0:0:0:
64,192,3841,1,0,0:0:0:0:
192,192,3841,1,0,0:0:0:0:
448,192,3841,1,0,0:0:0:0:
192,192,4185,1,0,0:0:0:0:
320,192,4185,1,0,0:0:0:0:
448,192,4185,1,0,0:0:0:0:
192,192,4530,1,0,0:0:0:0:
192,192,4703,1,0,0:0:0:0:
192,192,4875,1,0,0:0:0:0:
320,192,4875,1,0,0:0:0:0:
448,192,4875,1,0,0:0:0:0:
192,192,5220,1,0,0:0:0:0:
320,192,5220,1,0,0:0:0:0:
64,192,5565,1,0,0:0:0:0:
192,192,5565,1,0,0:0:0:0:
320,192,5565,1,0,0:0:0:0:
448,192,5565,1,0,0:0:0:0:
192,192,5910,1,0,0:0:0:0:
192,192,6082,1,0,0:0:0:0:
64,192,6254,1,0,0:0:0:0:
192,192,6254,1,0,0:0:0:0:
320,192,6254,1,0,0:0:0:0:
448,192,6254,1,0,0:0:0:0:
320,192,6599,1,0,0:0:0:0:
192,192,6944,1,0,0:0:0:0:
64,192,6944,1,0,0:0:0:0:
320,192,6944,1,0,0:0:0:0:
320,192,7289,1,0,0:0:0:0:
320,192,7461,1,0,0:0:0:0:
320,192,7634,1,0,0:0:0:0:
192,192,7634,1,0,0:0:0:0:
64,192,7634,1,0,0:0:0:0:
320,192,7979,1,0,0:0:0:0:
192,192,8323,1,0,0:0:0:0:
64,192,8323,1,0,0:0:0:0:
320,192,8323,1,0,0:0:0:0:
448,192,8668,1,0,0:0:0:0:
448,192,8841,1,0,0:0:0:0:
320,192,9013,1,0,0:0:0:0:
192,192,9013,1,0,0:0:0:0:
320,192,9358,1,0,0:0:0:0:
192,192,9703,1,0,0:0:0:0:
448,192,9703,1,0,0:0:0:0:
320,192,10047,1,0,0:0:0:0:
320,192,10220,1,0,0:0:0:0:
192,192,10392,1,0,0:0:0:0:
64,192,10392,1,0,0:0:0:0:
192,192,10737,1,0,0:0:0:0:
320,192,11082,1,0,0:0:0:0:
192,192,11427,1,0,0:0:0:0:
320,192,11427,1,0,0:0:0:0:
320,192,11599,1,0,0:0:0:0:
448,192,11599,1,0,0:0:0:0:
320,192,11772,1,0,0:0:0:0:
192,192,11772,1,0,0:0:0:0:
64,192,12116,1,0,0:0:0:0:
192,192,12116,1,0,0:0:0:0:
320,192,12116,1,0,0:0:0:0:
192,192,12461,1,0,0:0:0:0:
320,192,12461,1,0,0:0:0:0:
64,192,12806,1,0,0:0:0:0:
192,192,12806,1,0,0:0:0:0:
192,192,12979,1,0,0:0:0:0:
320,192,12979,1,0,0:0:0:0:
320,192,13151,1,0,0:0:0:0:
448,192,13151,1,0,0:0:0:0:
64,192,13496,1,0,0:0:0:0:
192,192,13496,1,0,0:0:0:0:
320,192,13496,1,0,0:0:0:0:
192,192,13841,1,0,0:0:0:0:
320,192,14185,1,0,0:0:0:0:
448,192,14185,1,0,0:0:0:0:
320,192,14358,1,0,0:0:0:0:
192,192,14358,1,0,0:0:0:0:
320,192,14530,1,0,0:0:0:0:
448,192,14530,1,0,0:0:0:0:
192,192,14875,1,0,0:0:0:0:
320,192,14875,1,0,0:0:0:0:
192,192,15220,1,0,0:0:0:0:
64,192,15220,1,0,0:0:0:0:
320,192,15220,1,0,0:0:0:0:
448,192,15220,1,0,0:0:0:0:
192,192,15565,1,0,0:0:0:0:
320,192,15565,1,0,0:0:0:0:
192,192,15737,1,0,0:0:0:0:
320,192,15737,1,0,0:0:0:0:
192,192,15910,1,0,0:0:0:0:
320,192,15910,1,0,0:0:0:0:
192,192,16254,1,0,0:0:0:0:
192,192,16599,1,0,0:0:0:0:
320,192,16599,1,0,0:0:0:0:
64,192,16944,1,0,0:0:0:0:
192,192,16944,1,0,0:0:0:0:
192,192,17116,1,0,0:0:0:0:
320,192,17116,1,0,0:0:0:0:
320,192,17289,1,0,0:0:0:0:
64,192,17289,1,0,0:0:0:0:
192,192,17634,1,0,0:0:0:0:
64,192,17979,1,0,0:0:0:0:
192,192,17979,1,0,0:0:0:0:
320,192,17979,1,0,0:0:0:0:
448,192,17979,1,0,0:0:0:0:
320,192,18323,1,0,0:0:0:0:
448,192,18323,1,0,0:0:0:0:
192,192,18496,1,0,0:0:0:0:
320,192,18496,1,0,0:0:0:0:
192,192,18668,1,0,0:0:0:0:
448,192,18668,1,0,0:0:0:0:
320,192,19013,1,0,0:0:0:0:
192,192,19358,1,0,0:0:0:0:
64,192,19358,1,0,0:0:0:0:
192,192,19703,1,0,0:0:0:0:
448,192,19703,1,0,0:0:0:0:
64,192,19875,1,0,0:0:0:0:
320,192,19875,1,0,0:0:0:0:
192,192,20047,1,0,0:0:0:0:
448,192,20047,1,0,0:0:0:0:
320,192,20392,1,0,0:0:0:0:
192,192,20737,1,0,0:0:0:0:
192,192,21082,1,0,0:0:0:0:
448,192,21082,1,0,0:0:0:0:
320,192,21254,1,0,0:0:0:0:
192,192,21254,1,0,0:0:0:0:
64,192,21427,1,0,0:0:0:0:
448,192,21427,1,0,0:0:0:0:
64,192,22116,1,0,0:0:0:0:
192,192,22116,1,0,0:0:0:0:
320,192,22116,1,0,0:0:0:0:
448,192,22116,1,0,0:0:0:0:
192,192,22289,1,0,0:0:0:0:
64,192,22461,1,0,0:0:0:0:
320,192,22461,1,0,0:0:0:0:
192,192,22634,1,0,0:0:0:0:
448,192,22634,1,0,0:0:0:0:
448,192,22806,1,0,0:0:0:0:
64,192,22806,1,0,0:0:0:0:
192,192,22806,1,0,0:0:0:0:
320,192,22806,1,0,0:0:0:0:
320,192,22979,1,0,0:0:0:0:
448,192,23151,1,0,0:0:0:0:
192,192,23151,1,0,0:0:0:0:
320,192,23323,1,0,0:0:0:0:
192,192,23323,1,0,0:0:0:0:
64,192,23323,1,0,0:0:0:0:
192,192,23496,1,0,0:0:0:0:
64,192,23496,1,0,0:0:0:0:
320,192,23496,1,0,0:0:0:0:
448,192,23496,1,0,0:0:0:0:
448,192,23668,1,0,0:0:0:0:
320,192,23841,1,0,0:0:0:0:
192,192,23841,1,0,0:0:0:0:
448,192,24013,1,0,0:0:0:0:
64,192,24013,1,0,0:0:0:0:
320,192,24185,1,0,0:0:0:0:
192,192,24185,1,0,0:0:0:0:
64,192,24185,1,0,0:0:0:0:
448,192,24185,1,0,0:0:0:0:
192,192,24358,1,0,0:0:0:0:
192,192,24530,1,0,0:0:0:0:
320,192,24530,1,0,0:0:0:0:
64,192,24703,1,0,0:0:0:0:
448,192,24703,1,0,0:0:0:0:
448,192,24875,1,0,0:0:0:0:
320,192,24875,1,0,0:0:0:0:
192,192,24875,1,0,0:0:0:0:
64,192,24875,1,0,0:0:0:0:
192,192,25047,1,0,0:0:0:0:
64,192,25220,1,0,0:0:0:0:
320,192,25220,1,0,0:0:0:0:
192,192,25392,1,0,0:0:0:0:
320,192,25392,1,0,0:0:0:0:
448,192,25565,1,0,0:0:0:0:
192,192,25565,1,0,0:0:0:0:
320,192,25565,1,0,0:0:0:0:
64,192,25565,1,0,0:0:0:0:
64,192,25737,1,0,0:0:0:0:
320,192,25910,1,0,0:0:0:0:
192,192,25910,1,0,0:0:0:0:
64,192,25910,1,0,0:0:0:0:
192,192,26082,1,0,0:0:0:0:
192,192,26254,1,0,0:0:0:0:
64,192,26254,1,0,0:0:0:0:
320,192,26254,1,0,0:0:0:0:
448,192,26254,1,0,0:0:0:0:
320,192,26427,1,0,0:0:0:0:
320,192,26599,1,0,0:0:0:0:
448,192,26772,1,0,0:0:0:0:
192,192,26772,1,0,0:0:0:0:
448,192,26944,1,0,0:0:0:0:
320,192,26944,1,0,0:0:0:0:
192,192,26944,1,0,0:0:0:0:
64,192,26944,1,0,0:0:0:0:
320,192,27116,1,0,0:0:0:0:
192,192,27289,1,0,0:0:0:0:
64,192,27461,1,0,0:0:0:0:
448,192,27461,1,0,0:0:0:0:
320,192,27461,1,0,0:0:0:0:
320,192,27634,1,0,0:0:0:0:
192,192,27634,1,0,0:0:0:0:
448,192,27634,1,0,0:0:0:0:
64,192,27634,1,0,0:0:0:0:
64,192,27806,1,0,0:0:0:0:
192,192,27979,1,0,0:0:0:0:
320,192,28151,1,0,0:0:0:0:
448,192,28323,1,0,0:0:0:0:
320,192,28323,1,0,0:0:0:0:
192,192,28323,1,0,0:0:0:0:
64,192,28323,1,0,0:0:0:0:
192,192,28496,1,0,0:0:0:0:
64,192,28668,1,0,0:0:0:0:
192,192,28841,1,0,0:0:0:0:
320,192,29013,1,0,0:0:0:0:
192,192,29013,1,0,0:0:0:0:
64,192,29013,1,0,0:0:0:0:
448,192,29013,1,0,0:0:0:0:
448,192,29185,1,0,0:0:0:0:
320,192,29358,1,0,0:0:0:0:
192,192,29530,1,0,0:0:0:0:
64,192,29703,1,0,0:0:0:0:
192,192,29703,1,0,0:0:0:0:
320,192,29703,1,0,0:0:0:0:
448,192,29703,1,0,0:0:0:0:
192,192,29875,1,0,0:0:0:0:
320,192,30047,1,0,0:0:0:0:
448,192,30220,1,0,0:0:0:0:
320,192,30392,1,0,0:0:0:0:
192,192,30392,1,0,0:0:0:0:
64,192,30392,1,0,0:0:0:0:
448,192,30392,1,0,0:0:0:0:
192,192,30565,1,0,0:0:0:0:
64,192,30737,1,0,0:0:0:0:
192,192,30910,1,0,0:0:0:0:
320,192,31082,1,0,0:0:0:0:
192,192,31082,1,0,0:0:0:0:
64,192,31082,1,0,0:0:0:0:
448,192,31082,1,0,0:0:0:0:
448,192,31254,1,0,0:0:0:0:
320,192,31427,1,0,0:0:0:0:
192,192,31599,1,0,0:0:0:0:
64,192,31772,1,0,0:0:0:0:
192,192,31772,1,0,0:0:0:0:
320,192,31772,1,0,0:0:0:0:
448,192,31772,1,0,0:0:0:0:
192,192,31944,1,0,0:0:0:0:
320,192,32116,1,0,0:0:0:0:
448,192,32289,1,0,0:0:0:0:
320,192,32461,1,0,0:0:0:0:
192,192,32461,1,0,0:0:0:0:
64,192,32461,1,0,0:0:0:0:
448,192,32461,1,0,0:0:0:0:
192,192,32634,1,0,0:0:0:0:
64,192,32806,1,0,0:0:0:0:
192,192,32979,1,0,0:0:0:0:
64,192,33151,1,0,0:0:0:0:
192,192,33151,1,0,0:0:0:0:
320,192,33151,1,0,0:0:0:0:
448,192,33151,1,0,0:0:0:0:
192,192,33323,1,0,0:0:0:0:
320,192,33323,1,0,0:0:0:0:
64,192,33496,1,0,0:0:0:0:
448,192,33496,1,0,0:0:0:0:
192,192,33668,1,0,0:0:0:0:
320,192,33668,1,0,0:0:0:0:
64,192,33841,1,0,0:0:0:0:
192,192,33841,1,0,0:0:0:0:
320,192,33841,1,0,0:0:0:0:
448,192,33841,1,0,0:0:0:0:
448,192,34013,1,0,0:0:0:0:
320,192,34185,1,0,0:0:0:0:
192,192,34185,1,0,0:0:0:0:
64,192,34358,1,0,0:0:0:0:
448,192,34358,1,0,0:0:0:0:
64,192,34530,1,0,0:0:0:0:
192,192,34530,1,0,0:0:0:0:
320,192,34530,1,0,0:0:0:0:
448,192,34530,1,0,0:0:0:0:
192,192,34703,1,0,0:0:0:0:
320,192,34875,1,0,0:0:0:0:
64,192,34875,1,0,0:0:0:0:
448,192,35048,1,0,0:0:0:0:
192,192,35048,1,0,0:0:0:0:
64,192,35220,1,0,0:0:0:0:
192,192,35220,1,0,0:0:0:0:
320,192,35220,1,0,0:0:0:0:
448,192,35220,1,0,0:0:0:0:
64,192,35392,1,0,0:0:0:0:
320,192,35392,1,0,0:0:0:0:
320,192,35565,1,0,0:0:0:0:
192,192,35565,1,0,0:0:0:0:
448,192,35565,1,0,0:0:0:0:
64,192,35737,1,0,0:0:0:0:
192,192,35737,1,0,0:0:0:0:
64,192,35910,1,0,0:0:0:0:
192,192,35910,1,0,0:0:0:0:
320,192,35910,1,0,0:0:0:0:
448,192,35910,1,0,0:0:0:0:
64,192,36082,1,0,0:0:0:0:
320,192,36082,1,0,0:0:0:0:
192,192,36254,1,0,0:0:0:0:
448,192,36254,1,0,0:0:0:0:
320,192,36427,1,0,0:0:0:0:
448,192,36427,1,0,0:0:0:0:
64,192,36599,1,0,0:0:0:0:
192,192,36599,1,0,0:0:0:0:
320,192,36599,1,0,0:0:0:0:
448,192,36599,1,0,0:0:0:0:
192,192,36772,1,0,0:0:0:0:
448,192,36772,1,0,0:0:0:0:
192,192,36944,1,0,0:0:0:0:
320,192,36944,1,0,0:0:0:0:
64,192,37116,1,0,0:0:0:0:
448,192,37116,1,0,0:0:0:0:
64,192,37289,1,0,0:0:0:0:
192,192,37289,1,0,0:0:0:0:
320,192,37289,1,0,0:0:0:0:
448,192,37289,1,0,0:0:0:0:
320,192,37461,1,0,0:0:0:0:
64,192,37461,1,0,0:0:0:0:
192,192,37634,1,0,0:0:0:0:
448,192,37634,1,0,0:0:0:0:
320,192,37806,1,0,0:0:0:0:
64,192,37806,1,0,0:0:0:0:
64,192,37979,1,0,0:0:0:0:
192,192,37979,1,0,0:0:0:0:
320,192,37979,1,0,0:0:0:0:
448,192,37979,1,0,0:0:0:0:
192,192,38151,1,0,0:0:0:0:
320,192,38151,1,0,0:0:0:0:
192,192,38323,1,0,0:0:0:0:
448,192,38323,1,0,0:0:0:0:
64,192,38323,1,0,0:0:0:0:
448,192,38496,1,0,0:0:0:0:
320,192,38496,1,0,0:0:0:0:
64,192,38496,1,0,0:0:0:0:
64,192,38668,1,0,0:0:0:0:
192,192,38668,1,0,0:0:0:0:
320,192,38668,1,0,0:0:0:0:
448,192,38668,1,0,0:0:0:0:
448,192,38841,1,0,0:0:0:0:
64,192,39013,1,0,0:0:0:0:
320,192,39013,1,0,0:0:0:0:
192,192,39013,1,0,0:0:0:0:
448,192,39185,1,0,0:0:0:0:
320,192,39185,1,0,0:0:0:0:
64,192,39185,1,0,0:0:0:0:
64,192,39358,1,0,0:0:0:0:
192,192,39358,1,0,0:0:0:0:
320,192,39358,1,0,0:0:0:0:
448,192,39358,1,0,0:0:0:0:
192,192,39530,1,0,0:0:0:0:
192,192,39703,1,0,0:0:0:0:
64,192,39703,1,0,0:0:0:0:
320,192,39703,1,0,0:0:0:0:
192,192,39875,1,0,0:0:0:0:
64,192,39875,1,0,0:0:0:0:
448,192,39875,1,0,0:0:0:0:
64,192,40048,1,0,0:0:0:0:
192,192,40048,1,0,0:0:0:0:
320,192,40048,1,0,0:0:0:0:
448,192,40048,1,0,0:0:0:0:
320,192,40220,1,0,0:0:0:0:
64,192,40392,1,0,0:0:0:0:
192,192,40392,1,0,0:0:0:0:
448,192,40392,1,0,0:0:0:0:
64,192,40565,1,0,0:0:0:0:
320,192,40565,1,0,0:0:0:0:
192,192,40565,1,0,0:0:0:0:
64,192,40737,1,0,0:0:0:0:
192,192,40737,1,0,0:0:0:0:
320,192,40737,1,0,0:0:0:0:
448,192,40737,1,0,0:0:0:0:
448,192,40910,1,0,0:0:0:0:
64,192,40910,1,0,0:0:0:0:
320,192,40910,1,0,0:0:0:0:
320,192,41082,1,0,0:0:0:0:
192,192,41082,1,0,0:0:0:0:
320,192,41254,1,0,0:0:0:0:
192,192,41254,1,0,0:0:0:0:
448,192,41254,1,0,0:0:0:0:
64,192,41427,1,0,0:0:0:0:
192,192,41427,1,0,0:0:0:0:
320,192,41427,1,0,0:0:0:0:
448,192,41427,1,0,0:0:0:0:
192,192,41599,1,0,0:0:0:0:
64,192,41599,1,0,0:0:0:0:
320,192,41772,1,0,0:0:0:0:
448,192,41772,1,0,0:0:0:0:
64,192,41944,1,0,0:0:0:0:
320,192,41944,1,0,0:0:0:0:
448,192,41944,1,0,0:0:0:0:
64,192,42116,1,0,0:0:0:0:
192,192,42116,1,0,0:0:0:0:
320,192,42116,1,0,0:0:0:0:
448,192,42116,1,0,0:0:0:0:
192,192,42289,1,0,0:0:0:0:
320,192,42289,1,0,0:0:0:0:
192,192,42461,1,0,0:0:0:0:
64,192,42461,1,0,0:0:0:0:
448,192,42461,1,0,0:0:0:0:
320,192,42634,1,0,0:0:0:0:
64,192,42806,1,0,0:0:0:0:
192,192,42806,1,0,0:0:0:0:
320,192,42806,1,0,0:0:0:0:
448,192,42806,1,0,0:0:0:0:
320,192,42979,1,0,0:0:0:0:
448,192,42979,1,0,0:0:0:0:
64,192,42979,1,0,0:0:0:0:
320,192,43151,1,0,0:0:0:0:
448,192,43151,1,0,0:0:0:0:
64,192,43151,1,0,0:0:0:0:
448,192,43323,1,0,0:0:0:0:
64,192,43323,1,0,0:0:0:0:
192,192,43323,1,0,0:0:0:0:
64,192,43496,1,0,0:0:0:0:
192,192,43496,1,0,0:0:0:0:
320,192,43496,1,0,0:0:0:0:
448,192,43496,1,0,0:0:0:0:
320,192,43668,1,0,0:0:0:0:
320,192,43841,1,0,0:0:0:0:
192,192,43841,1,0,0:0:0:0:
64,192,44013,1,0,0:0:0:0:
448,192,44013,1,0,0:0:0:0:
64,192,44185,1,0,0:0:0:0:
192,192,44185,1,0,0:0:0:0:
320,192,44185,1,0,0:0:0:0:
448,192,44185,1,0,0:0:0:0:
320,192,44530,1,0,0:0:0:0:
320,192,44703,1,0,0:0:0:0:
192,192,44875,1,0,0:0:0:0:
64,192,44875,1,0,0:0:0:0:
320,192,44875,1,0,0:0:0:0:
320,192,45220,1,0,0:0:0:0:
64,192,45565,1,0,0:0:0:0:
192,192,45565,1,0,0:0:0:0:
320,192,45565,1,0,0:0:0:0:
448,192,45565,1,0,0:0:0:0:
192,192,45910,1,0,0:0:0:0:
320,192,45910,1,0,0:0:0:0:
192,192,46082,1,0,0:0:0:0:
64,192,46254,1,0,0:0:0:0:
192,192,46254,1,0,0:0:0:0:
320,192,46254,1,0,0:0:0:0:
192,192,46427,1,0,0:0:0:0:
320,192,46427,1,0,0:0:0:0:
320,192,46599,1,0,0:0:0:0:
64,192,46944,1,0,0:0:0:0:
192,192,46944,1,0,0:0:0:0:
320,192,46944,1,0,0:0:0:0:
320,192,47289,1,0,0:0:0:0:
320,192,47461,1,0,0:0:0:0:
192,192,47634,1,0,0:0:0:0:
64,192,47634,1,0,0:0:0:0:
320,192,47634,1,0,0:0:0:0:
448,192,47634,1,0,0:0:0:0:
192,192,47979,1,0,0:0:0:0:
192,192,48323,1,0,0:0:0:0:
320,192,48323,1,0,0:0:0:0:
448,192,48323,1,0,0:0:0:0:
192,192,48668,1,0,0:0:0:0:
192,192,48841,1,0,0:0:0:0:
320,192,48841,1,0,0:0:0:0:
192,192,49013,1,0,0:0:0:0:
320,192,49013,1,0,0:0:0:0:
448,192,49013,1,0,0:0:0:0:
320,192,49358,1,0,0:0:0:0:
192,192,49703,1,0,0:0:0:0:
64,192,49703,1,0,0:0:0:0:
320,192,49703,1,0,0:0:0:0:
448,192,49703,1,0,0:0:0:0:
320,192,49875,1,0,0:0:0:0:
320,192,50048,1,0,0:0:0:0:
320,192,50220,1,0,0:0:0:0:
64,192,50392,1,0,0:0:0:0:
192,192,50392,1,0,0:0:0:0:
320,192,50392,1,0,0:0:0:0:
64,192,50737,1,0,0:0:0:0:
64,192,51082,1,0,0:0:0:0:
192,192,51082,1,0,0:0:0:0:
448,192,51082,1,0,0:0:0:0:
192,192,51254,1,0,0:0:0:0:
192,192,51427,1,0,0:0:0:0:
320,192,51427,1,0,0:0:0:0:
64,192,51599,1,0,0:0:0:0:
192,192,51599,1,0,0:0:0:0:
192,192,51772,1,0,0:0:0:0:
320,192,51772,1,0,0:0:0:0:
448,192,51772,1,0,0:0:0:0:
448,192,51944,1,0,0:0:0:0:
64,192,51944,1,0,0:0:0:0:
192,192,52116,1,0,0:0:0:0:
320,192,52116,1,0,0:0:0:0:
192,192,52461,1,0,0:0:0:0:
320,192,52461,1,0,0:0:0:0:
320,192,52634,1,0,0:0:0:0:
320,192,52806,1,0,0:0:0:0:
320,192,52979,1,0,0:0:0:0:
192,192,53151,1,0,0:0:0:0:
64,192,53151,1,0,0:0:0:0:
448,192,53151,1,0,0:0:0:0:
192,192,53496,1,0,0:0:0:0:
192,192,53841,1,0,0:0:0:0:
64,192,53841,1,0,0:0:0:0:
192,192,54013,1,0,0:0:0:0:
192,192,54185,1,0,0:0:0:0:
320,192,54358,1,0,0:0:0:0:
320,192,54530,1,0,0:0:0:0:
192,192,54530,1,0,0:0:0:0:
64,192,54530,1,0,0:0:0:0:
320,192,54875,1,0,0:0:0:0:
64,192,55220,1,0,0:0:0:0:
192,192,55220,1,0,0:0:0:0:
320,192,55220,1,0,0:0:0:0:
448,192,55220,1,0,0:0:0:0:
192,192,55392,1,0,0:0:0:0:
192,192,55565,1,0,0:0:0:0:
448,192,55565,1,0,0:0:0:0:
320,192,55737,1,0,0:0:0:0:
192,192,55910,1,0,0:0:0:0:
320,192,55910,1,0,0:0:0:0:
192,192,56082,1,0,0:0:0:0:
320,192,56254,1,0,0:0:0:0:
64,192,56599,1,0,0:0:0:0:
192,192,56599,1,0,0:0:0:0:
320,192,56599,1,0,0:0:0:0:
192,192,56944,1,0,0:0:0:0:
192,192,57116,1,0,0:0:0:0:
320,192,57116,1,0,0:0:0:0:
320,192,57289,1,0,0:0:0:0:
192,192,57289,1,0,0:0:0:0:
64,192,57461,1,0,0:0:0:0:
448,192,57461,1,0,0:0:0:0:
192,192,57634,1,0,0:0:0:0:
192,192,57979,1,0,0:0:0:0:
320,192,57979,1,0,0:0:0:0:
448,192,57979,1,0,0:0:0:0:
320,192,58151,1,0,0:0:0:0:
320,192,58323,1,0,0:0:0:0:
320,192,58496,1,0,0:0:0:0:
192,192,58668,1,0,0:0:0:0:
64,192,58668,1,0,0:0:0:0:
320,192,58668,1,0,0:0:0:0:
448,192,58668,1,0,0:0:0:0:
192,192,59013,1,0,0:0:0:0:
192,192,59358,1,0,0:0:0:0:
320,192,59358,1,0,0:0:0:0:
192,192,59703,1,0,0:0:0:0:
192,192,59875,1,0,0:0:0:0:
448,192,59875,1,0,0:0:0:0:
192,192,60047,1,0,0:0:0:0:
320,192,60047,1,0,0:0:0:0:
64,192,60220,1,0,0:0:0:0:
320,192,60220,1,0,0:0:0:0:
192,192,60392,1,0,0:0:0:0:
192,192,60737,1,0,0:0:0:0:
64,192,60737,1,0,0:0:0:0:
320,192,60737,1,0,0:0:0:0:
192,192,60910,1,0,0:0:0:0:
192,192,61082,1,0,0:0:0:0:
192,192,61254,1,0,0:0:0:0:
192,192,61427,1,0,0:0:0:0:
64,192,61427,1,0,0:0:0:0:
320,192,61427,1,0,0:0:0:0:
448,192,61427,1,0,0:0:0:0:
320,192,61772,1,0,0:0:0:0:
320,192,62116,1,0,0:0:0:0:
192,192,62116,1,0,0:0:0:0:
320,192,62461,1,0,0:0:0:0:
192,192,62461,1,0,0:0:0:0:
320,192,62634,1,0,0:0:0:0:
64,192,62634,1,0,0:0:0:0:
192,192,62806,1,0,0:0:0:0:
448,192,62806,1,0,0:0:0:0:
192,192,62979,1,0,0:0:0:0:
448,192,62979,1,0,0:0:0:0:
320,192,63151,1,0,0:0:0:0:
192,192,63496,1,0,0:0:0:0:
64,192,63496,1,0,0:0:0:0:
64,192,63668,1,0,0:0:0:0:
192,192,63668,1,0,0:0:0:0:
192,192,63841,1,0,0:0:0:0:
192,192,64013,1,0,0:0:0:0:
64,192,64185,1,0,0:0:0:0:
192,192,64185,1,0,0:0:0:0:
320,192,64185,1,0,0:0:0:0:
448,192,64185,1,0,0:0:0:0:
320,192,64530,1,0,0:0:0:0:
320,192,64875,1,0,0:0:0:0:
320,192,65220,1,0,0:0:0:0:
320,192,65392,1,0,0:0:0:0:
192,192,65392,1,0,0:0:0:0:
192,192,65565,1,0,0:0:0:0:
64,192,65565,1,0,0:0:0:0:
320,192,65737,1,0,0:0:0:0:
64,192,65737,1,0,0:0:0:0:
320,192,65910,1,0,0:0:0:0:
320,192,66254,1,0,0:0:0:0:
192,192,66254,1,0,0:0:0:0:
320,192,66427,1,0,0:0:0:0:
320,192,66599,1,0,0:0:0:0:
320,192,66772,1,0,0:0:0:0:
192,192,66944,1,0,0:0:0:0:
64,192,66944,1,0,0:0:0:0:
192,192,67289,1,0,0:0:0:0:
192,192,67634,1,0,0:0:0:0:
320,192,67806,1,0,0:0:0:0:
192,192,67979,1,0,0:0:0:0:
192,192,68151,1,0,0:0:0:0:
320,192,68151,1,0,0:0:0:0:
448,192,68323,1,0,0:0:0:0:
320,192,68323,1,0,0:0:0:0:
192,192,68323,1,0,0:0:0:0:
192,192,68496,1,0,0:0:0:0:
448,192,68496,1,0,0:0:0:0:
320,192,68668,1,0,0:0:0:0:
192,192,69013,1,0,0:0:0:0:
192,192,69185,1,0,0:0:0:0:
192,192,69358,1,0,0:0:0:0:
320,192,69358,1,0,0:0:0:0:
192,192,69530,1,0,0:0:0:0:
320,192,69530,1,0,0:0:0:0:
320,192,69703,1,0,0:0:0:0:
192,192,69703,1,0,0:0:0:0:
64,192,69703,1,0,0:0:0:0:
448,192,69703,1,0,0:0:0:0:
320,192,70047,1,0,0:0:0:0:
192,192,70392,1,0,0:0:0:0:
320,192,70737,1,0,0:0:0:0:
192,192,70910,1,0,0:0:0:0:
320,192,71082,1,0,0:0:0:0:
64,192,71082,1,0,0:0:0:0:
192,192,71254,1,0,0:0:0:0:
448,192,71254,1,0,0:0:0:0:
320,192,71254,1,0,0:0:0:0:
192,192,71427,1,0,0:0:0:0:
192,192,71772,1,0,0:0:0:0:
320,192,71772,1,0,0:0:0:0:
448,192,71772,1,0,0:0:0:0:
320,192,71944,1,0,0:0:0:0:
320,192,72116,1,0,0:0:0:0:
192,192,72289,1,0,0:0:0:0:
192,192,72461,1,0,0:0:0:0:
64,192,72461,1,0,0:0:0:0:
448,192,72461,1,0,0:0:0:0:
320,192,72461,1,0,0:0:0:0:
192,192,72806,1,0,0:0:0:0:
320,192,73151,1,0,0:0:0:0:
320,192,73496,1,0,0:0:0:0:
320,192,73668,1,0,0:0:0:0:
192,192,73841,1,0,0:0:0:0:
64,192,73841,1,0,0:0:0:0:
448,192,73841,1,0,0:0:0:0:
192,192,74013,1,0,0:0:0:0:
448,192,74013,1,0,0:0:0:0:
320,192,74185,1,0,0:0:0:0:
192,192,74530,1,0,0:0:0:0:
64,192,74530,1,0,0:0:0:0:
320,192,74530,1,0,0:0:0:0:
320,192,74703,1,0,0:0:0:0:
320,192,74875,1,0,0:0:0:0:
64,192,75047,1,0,0:0:0:0:
64,192,75220,1,0,0:0:0:0:
192,192,75220,1,0,0:0:0:0:
320,192,75220,1,0,0:0:0:0:
448,192,75220,1,0,0:0:0:0:
320,192,75565,1,0,0:0:0:0:
448,192,75910,1,0,0:0:0:0:
320,192,75910,1,0,0:0:0:0:
192,192,75910,1,0,0:0:0:0:
192,192,77289,5,0,0:0:0:0:
64,192,77289,1,0,0:0:0:0:
320,192,77289,1,0,0:0:0:0:
448,192,77289,1,0,0:0:0:0:
64,192,77461,1,0,0:0:0:0:
64,192,77634,1,0,0:0:0:0:
192,192,77634,1,0,0:0:0:0:
64,192,77806,1,0,0:0:0:0:
192,192,77806,1,0,0:0:0:0:
320,192,77806,1,0,0:0:0:0:
64,192,77979,1,0,0:0:0:0:
192,192,77979,1,0,0:0:0:0:
320,192,77979,1,0,0:0:0:0:
448,192,77979,1,0,0:0:0:0:
448,192,78151,1,0,0:0:0:0:
448,192,78323,1,0,0:0:0:0:
320,192,78323,1,0,0:0:0:0:
448,192,78496,1,0,0:0:0:0:
320,192,78496,1,0,0:0:0:0:
192,192,78496,1,0,0:0:0:0:
64,192,78668,1,0,0:0:0:0:
192,192,78668,1,0,0:0:0:0:
320,192,78668,1,0,0:0:0:0:
448,192,78668,1,0,0:0:0:0:
64,192,78841,1,0,0:0:0:0:
64,192,79013,1,0,0:0:0:0:
320,192,79013,1,0,0:0:0:0:
448,192,79013,1,0,0:0:0:0:
192,192,79185,1,0,0:0:0:0:
448,192,79185,1,0,0:0:0:0:
320,192,79185,1,0,0:0:0:0:
64,192,79358,1,0,0:0:0:0:
192,192,79358,1,0,0:0:0:0:
320,192,79358,1,0,0:0:0:0:
448,192,79358,1,0,0:0:0:0:
64,192,79530,1,0,0:0:0:0:
320,192,79530,1,0,0:0:0:0:
192,192,79703,1,0,0:0:0:0:
448,192,79703,1,0,0:0:0:0:
192,192,79875,1,0,0:0:0:0:
448,192,79875,1,0,0:0:0:0:
320,192,79875,1,0,0:0:0:0:
64,192,80047,1,0,0:0:0:0:
192,192,80047,1,0,0:0:0:0:
320,192,80047,1,0,0:0:0:0:
448,192,80047,1,0,0:0:0:0:
320,192,80220,1,0,0:0:0:0:
448,192,80392,1,0,0:0:0:0:
192,192,80392,1,0,0:0:0:0:
64,192,80565,1,0,0:0:0:0:
192,192,80565,1,0,0:0:0:0:
320,192,80565,1,0,0:0:0:0:
64,192,80737,1,0,0:0:0:0:
192,192,80737,1,0,0:0:0:0:
320,192,80737,1,0,0:0:0:0:
448,192,80737,1,0,0:0:0:0:
448,192,80910,1,0,0:0:0:0:
64,192,80910,1,0,0:0:0:0:
448,192,81082,1,0,0:0:0:0:
192,192,81082,1,0,0:0:0:0:
448,192,81254,1,0,0:0:0:0:
320,192,81254,1,0,0:0:0:0:
64,192,81254,1,0,0:0:0:0:
448,192,81427,1,0,0:0:0:0:
320,192,81427,1,0,0:0:0:0:
192,192,81427,1,0,0:0:0:0:
64,192,81427,1,0,0:0:0:0:
320,192,81599,1,0,0:0:0:0:
192,192,81599,1,0,0:0:0:0:
192,192,81772,1,0,0:0:0:0:
64,192,81772,1,0,0:0:0:0:
320,192,81772,1,0,0:0:0:0:
64,192,81944,1,0,0:0:0:0:
192,192,81944,1,0,0:0:0:0:
448,192,81944,1,0,0:0:0:0:
320,192,82116,1,0,0:0:0:0:
192,192,82116,1,0,0:0:0:0:
64,192,82116,1,0,0:0:0:0:
448,192,82116,1,0,0:0:0:0:
320,192,82289,1,0,0:0:0:0:
320,192,82461,1,0,0:0:0:0:
192,192,82461,1,0,0:0:0:0:
64,192,82461,1,0,0:0:0:0:
320,192,82634,1,0,0:0:0:0:
192,192,82634,1,0,0:0:0:0:
64,192,82806,1,0,0:0:0:0:
192,192,82806,1,0,0:0:0:0:
320,192,82806,1,0,0:0:0:0:
448,192,82806,1,0,0:0:0:0:
64,192,82979,1,0,0:0:0:0:
448,192,82979,1,0,0:0:0:0:
64,192,83151,1,0,0:0:0:0:
448,192,83151,1,0,0:0:0:0:
192,192,83151,1,0,0:0:0:0:
448,192,83323,1,0,0:0:0:0:
320,192,83323,1,0,0:0:0:0:
192,192,83323,1,0,0:0:0:0:
64,192,83496,1,0,0:0:0:0:
192,192,83496,1,0,0:0:0:0:
320,192,83496,1,0,0:0:0:0:
448,192,83496,1,0,0:0:0:0:
192,192,83668,1,0,0:0:0:0:
64,192,83668,1,0,0:0:0:0:
64,192,83841,1,0,0:0:0:0:
448,192,83841,1,0,0:0:0:0:
320,192,83841,1,0,0:0:0:0:
64,192,84013,1,0,0:0:0:0:
192,192,84013,1,0,0:0:0:0:
320,192,84013,1,0,0:0:0:0:
192,192,84185,1,0,0:0:0:0:
64,192,84185,1,0,0:0:0:0:
320,192,84185,1,0,0:0:0:0:
448,192,84185,1,0,0:0:0:0:
320,192,84358,1,0,0:0:0:0:
448,192,84358,1,0,0:0:0:0:
448,192,84530,1,0,0:0:0:0:
320,192,84530,1,0,0:0:0:0:
64,192,84530,1,0,0:0:0:0:
448,192,84703,1,0,0:0:0:0:
192,192,84703,1,0,0:0:0:0:
64,192,84703,1,0,0:0:0:0:
64,192,84875,1,0,0:0:0:0:
192,192,84875,1,0,0:0:0:0:
320,192,84875,1,0,0:0:0:0:
448,192,84875,1,0,0:0:0:0:
320,192,85047,1,0,0:0:0:0:
320,192,85220,1,0,0:0:0:0:
192,192,85220,1,0,0:0:0:0:
192,192,85392,1,0,0:0:0:0:
64,192,85565,1,0,0:0:0:0:
192,192,85565,1,0,0:0:0:0:
320,192,85565,1,0,0:0:0:0:
448,192,85565,1,0,0:0:0:0:
320,192,85737,1,0,0:0:0:0:
448,192,85737,1,0,0:0:0:0:
448,192,85910,1,0,0:0:0:0:
320,192,85910,1,0,0:0:0:0:
192,192,85910,1,0,0:0:0:0:
192,192,86082,1,0,0:0:0:0:
64,192,86082,1,0,0:0:0:0:
320,192,86082,1,0,0:0:0:0:
320,192,86254,1,0,0:0:0:0:
192,192,86254,1,0,0:0:0:0:
64,192,86254,1,0,0:0:0:0:
448,192,86254,1,0,0:0:0:0:
448,192,86427,1,0,0:0:0:0:
192,192,86427,1,0,0:0:0:0:
320,192,86599,1,0,0:0:0:0:
448,192,86599,1,0,0:0:0:0:
64,192,86599,1,0,0:0:0:0:
192,192,86772,1,0,0:0:0:0:
64,192,86772,1,0,0:0:0:0:
448,192,86772,1,0,0:0:0:0:
64,192,86944,1,0,0:0:0:0:
192,192,86944,1,0,0:0:0:0:
320,192,86944,1,0,0:0:0:0:
448,192,86944,1,0,0:0:0:0:
320,192,87116,1,0,0:0:0:0:
320,192,87289,1,0,0:0:0:0:
192,192,87289,1,0,0:0:0:0:
448,192,87289,1,0,0:0:0:0:
320,192,87461,1,0,0:0:0:0:
192,192,87461,1,0,0:0:0:0:
448,192,87461,1,0,0:0:0:0:
320,192,87634,1,0,0:0:0:0:
192,192,87634,1,0,0:0:0:0:
64,192,87634,1,0,0:0:0:0:
448,192,87634,1,0,0:0:0:0:
64,192,87806,1,0,0:0:0:0:
192,192,87979,1,0,0:0:0:0:
64,192,87979,1,0,0:0:0:0:
320,192,88151,1,0,0:0:0:0:
192,192,88151,1,0,0:0:0:0:
192,192,88323,1,0,0:0:0:0:
64,192,88323,1,0,0:0:0:0:
320,192,88323,1,0,0:0:0:0:
448,192,88323,1,0,0:0:0:0:
64,192,88496,1,0,0:0:0:0:
64,192,88668,1,0,0:0:0:0:
192,192,88668,1,0,0:0:0:0:
320,192,88668,1,0,0:0:0:0:
192,192,88841,1,0,0:0:0:0:
320,192,88841,1,0,0:0:0:0:
64,192,88841,1,0,0:0:0:0:
192,192,89013,1,0,0:0:0:0:
64,192,89013,1,0,0:0:0:0:
320,192,89013,1,0,0:0:0:0:
448,192,89013,1,0,0:0:0:0:
448,192,89185,1,0,0:0:0:0:
320,192,89358,1,0,0:0:0:0:
192,192,89358,1,0,0:0:0:0:
448,192,89358,1,0,0:0:0:0:
192,192,89530,1,0,0:0:0:0:
320,192,89530,1,0,0:0:0:0:
448,192,89530,1,0,0:0:0:0:
448,192,89703,1,0,0:0:0:0:
320,192,89703,1,0,0:0:0:0:
192,192,89703,1,0,0:0:0:0:
64,192,89703,1,0,0:0:0:0:
64,192,89875,1,0,0:0:0:0:
320,192,89875,1,0,0:0:0:0:
192,192,90047,1,0,0:0:0:0:
448,192,90047,1,0,0:0:0:0:
64,192,90047,1,0,0:0:0:0:
320,192,90220,1,0,0:0:0:0:
448,192,90220,1,0,0:0:0:0:
192,192,90220,1,0,0:0:0:0:
320,192,90392,1,0,0:0:0:0:
192,192,90392,1,0,0:0:0:0:
64,192,90392,1,0,0:0:0:0:
448,192,90392,1,0,0:0:0:0:
192,192,90565,1,0,0:0:0:0:
64,192,90565,1,0,0:0:0:0:
320,192,90737,1,0,0:0:0:0:
448,192,90737,1,0,0:0:0:0:
64,192,90737,1,0,0:0:0:0:
192,192,90910,1,0,0:0:0:0:
64,192,90910,1,0,0:0:0:0:
320,192,90910,1,0,0:0:0:0:
192,192,91082,1,0,0:0:0:0:
64,192,91082,1,0,0:0:0:0:
320,192,91082,1,0,0:0:0:0:
448,192,91082,1,0,0:0:0:0:
448,192,91254,1,0,0:0:0:0:
192,192,91254,1,0,0:0:0:0:
448,192,91427,1,0,0:0:0:0:
320,192,91427,1,0,0:0:0:0:
64,192,91427,1,0,0:0:0:0:
320,192,91599,1,0,0:0:0:0:
192,192,91599,1,0,0:0:0:0:
64,192,91599,1,0,0:0:0:0:
320,192,91772,1,0,0:0:0:0:
192,192,91772,1,0,0:0:0:0:
64,192,91772,1,0,0:0:0:0:
448,192,91772,1,0,0:0:0:0:
320,192,91944,1,0,0:0:0:0:
448,192,91944,1,0,0:0:0:0:
192,192,91944,1,0,0:0:0:0:
448,192,92116,1,0,0:0:0:0:
64,192,92116,1,0,0:0:0:0:
448,192,92289,1,0,0:0:0:0:
320,192,92289,1,0,0:0:0:0:
192,192,92289,1,0,0:0:0:0:
64,192,92461,1,0,0:0:0:0:
192,192,92461,1,0,0:0:0:0:
320,192,92461,1,0,0:0:0:0:
448,192,92461,1,0,0:0:0:0:
64,192,92634,1,0,0:0:0:0:
192,192,92634,1,0,0:0:0:0:
64,192,92806,1,0,0:0:0:0:
448,192,92806,1,0,0:0:0:0:
320,192,92806,1,0,0:0:0:0:
192,192,92979,1,0,0:0:0:0:
320,192,92979,1,0,0:0:0:0:
448,192,92979,1,0,0:0:0:0:
64,192,93151,1,0,0:0:0:0:
192,192,93151,1,0,0:0:0:0:
320,192,93151,1,0,0:0:0:0:
448,192,93151,1,0,0:0:0:0:
320,192,93323,1,0,0:0:0:0:
64,192,93323,1,0,0:0:0:0:
192,192,93323,1,0,0:0:0:0:
64,192,93496,1,0,0:0:0:0:
448,192,93496,1,0,0:0:0:0:
192,192,93668,1,0,0:0:0:0:
320,192,93668,1,0,0:0:0:0:
448,192,93668,1,0,0:0:0:0:
64,192,93841,1,0,0:0:0:0:
192,192,93841,1,0,0:0:0:0:
320,192,93841,1,0,0:0:0:0:
448,192,93841,1,0,0:0:0:0:
192,192,94013,1,0,0:0:0:0:
64,192,94185,1,0,0:0:0:0:
448,192,94185,1,0,0:0:0:0:
320,192,94185,1,0,0:0:0:0:
192,192,94358,1,0,0:0:0:0:
64,192,94358,1,0,0:0:0:0:
320,192,94358,1,0,0:0:0:0:
192,192,94530,1,0,0:0:0:0:
320,192,94530,1,0,0:0:0:0:
448,192,94530,1,0,0:0:0:0:
64,192,94530,1,0,0:0:0:0:
192,192,94703,1,0,0:0:0:0:
448,192,94703,1,0,0:0:0:0:
448,192,94875,1,0,0:0:0:0:
320,192,94875,1,0,0:0:0:0:
64,192,94875,1,0,0:0:0:0:
192,192,95047,1,0,0:0:0:0:
320,192,95047,1,0,0:0:0:0:
64,192,95047,1,0,0:0:0:0:
192,192,95220,1,0,0:0:0:0:
64,192,95220,1,0,0:0:0:0:
320,192,95220,1,0,0:0:0:0:
448,192,95220,1,0,0:0:0:0:
448,192,95392,1,0,0:0:0:0:
320,192,95392,1,0,0:0:0:0:
192,192,95392,1,0,0:0:0:0:
448,192,95565,1,0,0:0:0:0:
64,192,95565,1,0,0:0:0:0:
192,192,95737,1,0,0:0:0:0:
320,192,95737,1,0,0:0:0:0:
64,192,95737,1,0,0:0:0:0:
320,192,95910,1,0,0:0:0:0:
192,192,95910,1,0,0:0:0:0:
64,192,95910,1,0,0:0:0:0:
448,192,95910,1,0,0:0:0:0:
192,192,96082,1,0,0:0:0:0:
320,192,96082,1,0,0:0:0:0:
448,192,96082,1,0,0:0:0:0:
448,192,96254,1,0,0:0:0:0:
64,192,96254,1,0,0:0:0:0:
192,192,96254,1,0,0:0:0:0:
64,192,96427,1,0,0:0:0:0:
320,192,96427,1,0,0:0:0:0:
64,192,96599,1,0,0:0:0:0:
192,192,96599,1,0,0:0:0:0:
320,192,96599,1,0,0:0:0:0:
448,192,96599,1,0,0:0:0:0:
192,192,96772,1,0,0:0:0:0:
448,192,96772,1,0,0:0:0:0:
320,192,96944,1,0,0:0:0:0:
448,192,96944,1,0,0:0:0:0:
64,192,96944,1,0,0:0:0:0:
192,192,97116,1,0,0:0:0:0:
320,192,97116,1,0,0:0:0:0:
64,192,97116,1,0,0:0:0:0:
64,192,97289,1,0,0:0:0:0:
192,192,97289,1,0,0:0:0:0:
320,192,97289,1,0,0:0:0:0:
448,192,97289,1,0,0:0:0:0:
448,192,97461,1,0,0:0:0:0:
64,192,97461,1,0,0:0:0:0:
192,192,97461,1,0,0:0:0:0:
448,192,97634,1,0,0:0:0:0:
320,192,97634,1,0,0:0:0:0:
320,192,97806,1,0,0:0:0:0:
64,192,97806,1,0,0:0:0:0:
192,192,97806,1,0,0:0:0:0:
192,192,97979,1,0,0:0:0:0:
64,192,97979,1,0,0:0:0:0:
320,192,97979,1,0,0:0:0:0:
448,192,97979,1,0,0:0:0:0:
448,192,98151,1,0,0:0:0:0:
448,192,98323,1,0,0:0:0:0:
320,192,98323,1,0,0:0:0:0:
320,192,98496,1,0,0:0:0:0:
192,192,98496,1,0,0:0:0:0:
64,192,98496,1,0,0:0:0:0:
64,192,98668,1,0,0:0:0:0:
192,192,98668,1,0,0:0:0:0:
320,192,98668,1,0,0:0:0:0:
448,192,98668,1,0,0:0:0:0:
320,192,98841,1,0,0:0:0:0:
192,192,99013,1,0,0:0:0:0:
64,192,99185,1,0,0:0:0:0:
192,192,99358,1,0,0:0:0:0:
320,192,99358,1,0,0:0:0:0:
448,192,99358,1,0,0:0:0:0:
64,192,99358,1,0,0:0:0:0:
448,192,99530,1,0,0:0:0:0:
320,192,99703,1,0,0:0:0:0:
192,192,99875,1,0,0:0:0:0:
64,192,100047,1,0,0:0:0:0:
192,192,100047,1,0,0:0:0:0:
320,192,100047,1,0,0:0:0:0:
448,192,100047,1,0,0:0:0:0:
320,192,100392,1,0,0:0:0:0:
64,192,100737,1,0,0:0:0:0:
192,192,100910,1,0,0:0:0:0:
320,192,101082,1,0,0:0:0:0:
448,192,101254,1,0,0:0:0:0:
320,192,101427,1,0,0:0:0:0:
192,192,101427,1,0,0:0:0:0:
64,192,101427,1,0,0:0:0:0:
448,192,101427,1,0,0:0:0:0:
192,192,101772,1,0,0:0:0:0:
448,192,102116,1,0,0:0:0:0:
320,192,102289,1,0,0:0:0:0:
192,192,102461,1,0,0:0:0:0:
320,192,102634,1,0,0:0:0:0:
192,192,102806,1,0,0:0:0:0:
64,192,102806,1,0,0:0:0:0:
320,192,102806,1,0,0:0:0:0:
448,192,102806,1,0,0:0:0:0:
320,192,103151,1,0,0:0:0:0:
192,192,103496,1,0,0:0:0:0:
64,192,103668,1,0,0:0:0:0:
192,192,103841,1,0,0:0:0:0:
320,192,104013,1,0,0:0:0:0:
320,192,104185,1,0,0:0:0:0:
192,192,104185,1,0,0:0:0:0:
64,192,104185,1,0,0:0:0:0:
448,192,104185,1,0,0:0:0:0:
320,192,104530,1,0,0:0:0:0:
192,192,104875,1,0,0:0:0:0:
64,192,104875,1,0,0:0:0:0:
64,192,105047,1,0,0:0:0:0:
320,192,105047,1,0,0:0:0:0:
192,192,105220,1,0,0:0:0:0:
448,192,105220,1,0,0:0:0:0:
320,192,105392,1,0,0:0:0:0:
192,192,105392,1,0,0:0:0:0:
64,192,105565,1,0,0:0:0:0:
192,192,105565,1,0,0:0:0:0:
320,192,105565,1,0,0:0:0:0:
448,192,105565,1,0,0:0:0:0:
192,192,105910,1,0,0:0:0:0:
448,192,105910,1,0,0:0:0:0:
320,192,106254,1,0,0:0:0:0:
64,192,106254,1,0,0:0:0:0:
192,192,106427,1,0,0:0:0:0:
448,192,106427,1,0,0:0:0:0:
320,192,106599,1,0,0:0:0:0:
192,192,106599,1,0,0:0:0:0:
64,192,106772,1,0,0:0:0:0:
448,192,106772,1,0,0:0:0:0:
64,192,106944,1,0,0:0:0:0:
192,192,106944,1,0,0:0:0:0:
320,192,106944,1,0,0:0:0:0:
448,192,106944,1,0,0:0:0:0:
320,192,107116,1,0,0:0:0:0:
320,192,107289,1,0,0:0:0:0:
192,192,107461,1,0,0:0:0:0:
64,192,107634,1,0,0:0:0:0:
192,192,107634,1,0,0:0:0:0:
320,192,107634,1,0,0:0:0:0:
448,192,107634,1,0,0:0:0:0:
320,192,107806,1,0,0:0:0:0:
192,192,107979,1,0,0:0:0:0:
64,192,108151,1,0,0:0:0:0:
192,192,108323,1,0,0:0:0:0:
320,192,108323,1,0,0:0:0:0:
64,192,108323,1,0,0:0:0:0:
448,192,108323,1,0,0:0:0:0:
320,192,108668,1,0,0:0:0:0:
320,192,109013,1,0,0:0:0:0:
192,192,109185,1,0,0:0:0:0:
448,192,109358,1,0,0:0:0:0:
64,192,109358,1,0,0:0:0:0:
64,192,109530,1,0,0:0:0:0:
192,192,109530,1,0,0:0:0:0:
448,192,109703,1,0,0:0:0:0:
320,192,109703,1,0,0:0:0:0:
192,192,109703,1,0,0:0:0:0:
64,192,109703,1,0,0:0:0:0:
320,192,109875,1,0,0:0:0:0:
320,192,110047,1,0,0:0:0:0:
192,192,110220,1,0,0:0:0:0:
64,192,110392,1,0,0:0:0:0:
192,192,110479,1,0,0:0:0:0:
320,192,110565,1,0,0:0:0:0:
448,192,110651,1,0,0:0:0:0:
320,192,110737,1,0,0:0:0:0:
192,192,110823,1,0,0:0:0:0:
64,192,110910,1,0,0:0:0:0:
192,192,110996,1,0,0:0:0:0:
320,192,111082,1,0,0:0:0:0:
64,192,111082,1,0,0:0:0:0:
448,192,111082,1,0,0:0:0:0:
320,192,111254,1,0,0:0:0:0:
448,192,111254,1,0,0:0:0:0:
320,192,111427,1,0,0:0:0:0:
448,192,111427,1,0,0:0:0:0:
192,192,111427,1,0,0:0:0:0:
192,192,111599,1,0,0:0:0:0:
64,192,111599,1,0,0:0:0:0:
320,192,111599,1,0,0:0:0:0:
64,192,111772,1,0,0:0:0:0:
192,192,111772,1,0,0:0:0:0:
448,192,111772,1,0,0:0:0:0:
320,192,111858,1,0,0:0:0:0:
192,192,111944,1,0,0:0:0:0:
64,192,112030,1,0,0:0:0:0:
192,192,112116,1,0,0:0:0:0:
320,192,112203,1,0,0:0:0:0:
448,192,112289,1,0,0:0:0:0:
320,192,112375,1,0,0:0:0:0:
192,192,112461,1,0,0:0:0:0:
64,192,112461,1,0,0:0:0:0:
448,192,112461,1,0,0:0:0:0:
192,192,112634,1,0,0:0:0:0:
320,192,112634,1,0,0:0:0:0:
192,192,112806,1,0,0:0:0:0:
448,192,112806,1,0,0:0:0:0:
64,192,112806,1,0,0:0:0:0:
64,192,112979,1,0,0:0:0:0:
320,192,112979,1,0,0:0:0:0:
64,192,113151,1,0,0:0:0:0:
320,192,113151,1,0,0:0:0:0:
448,192,113151,1,0,0:0:0:0:
192,192,113237,1,0,0:0:0:0:
320,192,113323,1,0,0:0:0:0:
448,192,113410,1,0,0:0:0:0:
320,192,113496,1,0,0:0:0:0:
192,192,113582,1,0,0:0:0:0:
64,192,113668,1,0,0:0:0:0:
192,192,113754,1,0,0:0:0:0:
320,192,113841,1,0,0:0:0:0:
64,192,113841,1,0,0:0:0:0:
448,192,113841,1,0,0:0:0:0:
320,192,114013,1,0,0:0:0:0:
64,192,114013,1,0,0:0:0:0:
320,192,114185,1,0,0:0:0:0:
448,192,114185,1,0,0:0:0:0:
192,192,114358,1,0,0:0:0:0:
448,192,114358,1,0,0:0:0:0:
192,192,114530,1,0,0:0:0:0:
448,192,114530,1,0,0:0:0:0:
64,192,114530,1,0,0:0:0:0:
320,192,114616,1,0,0:0:0:0:
192,192,114703,1,0,0:0:0:0:
64,192,114789,1,0,0:0:0:0:
192,192,114875,1,0,0:0:0:0:
320,192,114961,1,0,0:0:0:0:
448,192,115047,1,0,0:0:0:0:
320,192,115134,1,0,0:0:0:0:
192,192,115220,1,0,0:0:0:0:
64,192,115220,1,0,0:0:0:0:
448,192,115220,1,0,0:0:0:0:
192,192,115392,1,0,0:0:0:0:
192,192,115565,1,0,0:0:0:0:
448,192,115565,1,0,0:0:0:0:
64,192,115565,1,0,0:0:0:0:
320,192,115737,1,0,0:0:0:0:
448,192,115737,1,0,0:0:0:0:
64,192,115737,1,0,0:0:0:0:
64,192,115910,1,0,0:0:0:0:
192,192,115967,1,0,0:0:0:0:
320,192,116025,1,0,0:0:0:0:
64,192,116082,1,0,0:0:0:0:
448,192,116082,1,0,0:0:0:0:
192,192,116139,1,0,0:0:0:0:
320,192,116197,1,0,0:0:0:0:
448,192,116312,1,0,0:0:0:0:
320,192,116369,1,0,0:0:0:0:
192,192,116427,1,0,0:0:0:0:
448,192,116484,1,0,0:0:0:0:
64,192,116484,1,0,0:0:0:0:
320,192,116542,1,0,0:0:0:0:
192,192,116599,1,0,0:0:0:0:
64,192,116714,1,0,0:0:0:0:
192,192,116772,1,0,0:0:0:0:
320,192,116829,1,0,0:0:0:0:
64,192,116887,1,0,0:0:0:0:
448,192,116887,1,0,0:0:0:0:
192,192,116944,1,0,0:0:0:0:
320,192,117002,1,0,0:0:0:0:
448,192,117116,1,0,0:0:0:0:
320,192,117174,1,0,0:0:0:0:
192,192,117231,1,0,0:0:0:0:
64,192,117346,1,0,0:0:0:0:
192,192,117404,1,0,0:0:0:0:
320,192,117461,1,0,0:0:0:0:
64,192,117519,1,0,0:0:0:0:
448,192,117519,1,0,0:0:0:0:
192,192,117576,1,0,0:0:0:0:
320,192,117634,1,0,0:0:0:0:
448,192,117749,1,0,0:0:0:0:
320,192,117806,1,0,0:0:0:0:
192,192,117864,1,0,0:0:0:0:
448,192,117921,1,0,0:0:0:0:
64,192,117921,1,0,0:0:0:0:
320,192,117979,1,0,0:0:0:0:
192,192,118036,1,0,0:0:0:0:
64,192,118151,1,0,0:0:0:0:
192,192,118208,1,0,0:0:0:0:
320,192,118266,1,0,0:0:0:0:
448,192,118381,1,0,0:0:0:0:
320,192,118438,1,0,0:0:0:0:
192,192,118496,1,0,0:0:0:0:
64,192,118553,1,0,0:0:0:0:
448,192,118553,1,0,0:0:0:0:
320,192,118611,1,0,0:0:0:0:
192,192,118668,1,0,0:0:0:0:
64,192,118783,1,0,0:0:0:0:
192,192,118841,1,0,0:0:0:0:
320,192,118898,1,0,0:0:0:0:
448,192,119070,1,0,0:0:0:0:
320,192,119128,1,0,0:0:0:0:
192,192,119185,1,0,0:0:0:0:
448,192,119243,1,0,0:0:0:0:
64,192,119243,1,0,0:0:0:0:
320,192,119300,1,0,0:0:0:0:
192,192,119358,1,0,0:0:0:0:
64,192,119473,1,0,0:0:0:0:
192,192,119530,1,0,0:0:0:0:
320,192,119588,1,0,0:0:0:0:
64,192,119645,1,0,0:0:0:0:
448,192,119645,1,0,0:0:0:0:
192,192,119703,1,0,0:0:0:0:
320,192,119760,1,0,0:0:0:0:
448,192,119818,1,0,0:0:0:0:
448,192,120047,1,0,0:0:0:0:
320,192,120134,1,0,0:0:0:0:
192,192,120220,1,0,0:0:0:0:
64,192,120306,1,0,0:0:0:0:
192,192,120392,1,0,0:0:0:0:
320,192,120479,1,0,0:0:0:0:
448,192,120565,1,0,0:0:0:0:
320,192,120651,1,0,0:0:0:0:
192,192,120737,1,0,0:0:0:0:
64,192,120823,1,0,0:0:0:0:
192,192,120910,1,0,0:0:0:0:
320,192,120996,1,0,0:0:0:0:
448,192,121082,1,0,0:0:0:0:
320,192,121168,1,0,0:0:0:0:
192,192,121254,1,0,0:0:0:0:
64,192,121341,1,0,0:0:0:0:
192,192,121427,1,0,0:0:0:0:
320,192,121427,1,0,0:0:0:0:
448,192,121427,1,0,0:0:0:0:
